<?xml version="1.0" standalone="no"?>
<!DOCTYPE svg PUBLIC "-//W3C//DTD SVG 1.1//EN" "http://www.w3.org/Graphics/SVG/1.1/DTD/svg11.dtd" >
<svg xmlns="http://www.w3.org/2000/svg" xmlns:xlink="http://www.w3.org/1999/xlink" version="1.1">
<metadata>
Created by FontForge 20170731 at Thu Jul 27 02:26:39 2017
 By Aleksey,,,
Copyright 2017 Google Inc. All Rights Reserved.
</metadata>
<defs>
<font id="GoogleSans-Medium" horiz-adv-x="650" >
  <font-face 
    font-family="Google Sans Medium"
    font-weight="500"
    font-stretch="normal"
    units-per-em="1000"
    panose-1="2 11 6 3 3 5 2 4 2 4"
    ascent="800"
    descent="-200"
    x-height="510"
    cap-height="716"
    bbox="-377 -263 1502 962"
    underline-thickness="84"
    underline-position="-244"
    unicode-range="U+0002-2792"
  />
<missing-glyph horiz-adv-x="590" 
d="M508 0h-426v716h426v-716zM444 60v596h-298v-596h298z" />
    <glyph glyph-name="f_b.liga" unicode="fb" horiz-adv-x="1005" 
d="M626.5 8q-43.5 24 -64.5 58h-6v-66h-104v619h-145q-34 0 -55 -21t-21 -60v-28h125v-97h-125v-413h-110v413h-93v97h93v29q0 85 49.5 133t136.5 48h255v-208l-6 -69h6q21 35 64.5 59t97.5 24q68 0 124 -35t88.5 -96.5t32.5 -139.5t-32.5 -139.5t-88.5 -96.5t-124 -35
q-54 0 -97.5 24zM782 106q35 21 56 60t21 89t-21 88.5t-56 59.5t-75 21q-39 0 -74 -21t-56 -59.5t-21 -88.5t21 -89t56 -60t74 -21q40 0 75 21z" />
    <glyph glyph-name="f_f.liga" unicode="ff" horiz-adv-x="728" 
d="M121 413h-93v97h93v40q0 80 50 127t128 47q39 0 66 -9v-107q-2 1 -18.5 7t-42.5 6q-31 0 -52 -21t-21 -58v-32h221v40q0 80 49.5 127t127.5 47q46 0 79 -11v-108q-18 7 -34 11.5t-36 4.5q-32 0 -54 -21t-22 -58v-32h128v-97h-128v-413h-110v413h-221v-413h-110v413z" />
    <glyph glyph-name="f_f_b.liga" unicode="ffb" horiz-adv-x="1336" 
d="M957 8q-43 24 -65 58h-5v-66h-105v619h-144q-34 0 -55 -21t-21 -60v-28h124v-97h-124v-413h-110v413h-221v-413h-110v413h-93v97h93v40q0 80 50 127t128 47q39 0 66 -9v-107q-2 1 -18.5 7t-42.5 6q-31 0 -52 -21t-21 -58v-32h221v29q0 85 49.5 133t136.5 48h254v-208
l-5 -69h5q22 35 65 59t97 24q69 0 125 -35t88.5 -96.5t32.5 -139.5t-32.5 -139.5t-88.5 -96.5t-125 -35q-54 0 -97 24zM1113 106q35 21 56 60t21 89t-21 88.5t-56 59.5t-75 21t-74.5 -21t-55.5 -59.5t-21 -88.5t21 -89t55.5 -60t74.5 -21t75 21z" />
    <glyph glyph-name="f_f_h.liga" unicode="ffh" horiz-adv-x="1303" 
d="M121 413h-93v97h93v40q0 80 50 127t128 47q39 0 66 -9v-107q-2 1 -18.5 7t-42.5 6q-31 0 -52 -21t-21 -58v-32h221v29q0 85 49.5 133t136.5 48h254v-215l-5 -69h5q20 39 64 64.5t95 25.5q94 0 143 -55t49 -148v-323h-110v308q0 58 -31 87t-80 29q-37 0 -66.5 -21
t-46.5 -55.5t-17 -73.5v-274h-110v619h-144q-34 0 -55 -21t-21 -60v-28h124v-97h-124v-413h-110v413h-221v-413h-110v413z" />
    <glyph glyph-name="f_f_i.liga" unicode="ffi" horiz-adv-x="965" 
d="M784.5 600.5q-21.5 21.5 -21.5 51.5q0 31 21.5 52.5t52.5 21.5t52.5 -21.5t21.5 -52.5q0 -30 -21.5 -51.5t-52.5 -21.5t-52.5 21.5zM121 413h-93v97h93v40q0 80 50 127t128 47q39 0 66 -9v-107q-2 1 -18.5 7t-42.5 6q-31 0 -52 -21t-21 -58v-32h221v40q0 80 49.5 127
t127.5 47q41 0 66 -9v-107q-16 6 -29 9.5t-32 3.5q-30 0 -51 -21t-21 -58v-32h330v-510h-110v413h-220v-413h-110v413h-221v-413h-110v413z" />
    <glyph glyph-name="f_f_j.liga" unicode="ffj" horiz-adv-x="965" 
d="M784.5 600.5q-21.5 21.5 -21.5 51.5q0 31 21.5 52.5t52.5 21.5t52.5 -21.5t21.5 -52.5q0 -30 -21.5 -51.5t-52.5 -21.5t-52.5 21.5zM683 -219v106q22 -12 47 -12q28 0 40 17t12 51v470h-220v-413h-110v413h-221v-413h-110v413h-93v97h93v40q0 80 50 127t128 47
q39 0 66 -9v-107q-2 1 -18.5 7t-42.5 6q-31 0 -52 -21t-21 -58v-32h221v40q0 80 49.5 127t127.5 47q41 0 66 -9v-107q-16 6 -29 9.5t-32 3.5q-30 0 -51 -21t-21 -58v-32h330v-569q0 -85 -41.5 -126t-111.5 -41q-32 0 -56 7z" />
    <glyph glyph-name="f_f_k.liga" unicode="ffk" horiz-adv-x="1252" 
d="M121 413h-93v97h93v40q0 80 50 127t128 47q39 0 66 -9v-107q-2 1 -18.5 7t-42.5 6q-31 0 -52 -21t-21 -58v-32h221v29q0 85 49.5 133t136.5 48h254v-421h4l208 211h138v-6l-198 -197l204 -301v-6h-131l-150 231l-75 -73v-158h-110v619h-144q-34 0 -55 -21t-21 -60v-28
h124v-97h-124v-413h-110v413h-221v-413h-110v413z" />
    <glyph glyph-name="f_f_l.liga" unicode="ffl" horiz-adv-x="957" 
d="M121 413h-93v97h93v40q0 80 50 127t128 47q39 0 66 -9v-107q-2 1 -18.5 7t-42.5 6q-31 0 -52 -21t-21 -58v-32h221v29q0 85 49.5 133t136.5 48h254v-720h-110v619h-144q-34 0 -55 -21t-21 -60v-28h124v-97h-124v-413h-110v413h-221v-413h-110v413z" />
    <glyph glyph-name="f_f_t.liga" unicode="fft" horiz-adv-x="1058" 
d="M874.5 2.5q-29.5 10.5 -48.5 29.5q-44 42 -44 117v264h-220v-413h-110v413h-221v-413h-110v413h-93v97h93v40q0 80 50 127t128 47q39 0 66 -9v-107q-2 1 -18.5 7t-42.5 6q-31 0 -52 -21t-21 -58v-32h221v40q0 80 49.5 127t127.5 47q41 0 66 -9v-107q-16 6 -29 9.5
t-32 3.5q-30 0 -51 -21t-21 -58v-32h220v144h110v-144h125v-97h-125v-240q0 -39 16 -58q17 -20 52 -20q18 0 30.5 4.5t28.5 14.5v-107q-34 -15 -80 -15q-35 0 -64.5 10.5z" />
    <glyph glyph-name="f_h.liga" unicode="fh" horiz-adv-x="972" 
d="M121 413h-93v97h93v29q0 85 49.5 133t136.5 48h255v-215l-6 -69h6q19 39 63 64.5t96 25.5q93 0 142 -55.5t49 -147.5v-323h-110v308q0 58 -31 87t-80 29q-37 0 -66.5 -21t-46 -55.5t-16.5 -73.5v-274h-110v619h-145q-34 0 -55 -21t-21 -60v-28h125v-97h-125v-413h-110
v413z" />
    <glyph glyph-name="f_i.liga" unicode="fi" horiz-adv-x="634" 
d="M454.5 600.5q-21.5 21.5 -21.5 52.5t21.5 52.5t52.5 21.5t52.5 -21.5t21.5 -52.5t-21.5 -52.5t-52.5 -21.5t-52.5 21.5zM121 413h-93v97h93v40q0 80 50 127t128 47q39 0 66 -9v-107q-2 1 -18.5 7t-42.5 6q-31 0 -52 -21t-21 -58v-32h331v-510h-110v413h-221v-413h-110
v413z" />
    <glyph glyph-name="f_j.liga" unicode="fj" horiz-adv-x="634" 
d="M454.5 600.5q-21.5 21.5 -21.5 51.5q0 31 21.5 52.5t52.5 21.5t52.5 -21.5t21.5 -52.5q0 -30 -21.5 -51.5t-52.5 -21.5t-52.5 21.5zM352 -219v106q22 -12 48 -12q27 0 39.5 17t12.5 51v470h-221v-413h-110v413h-93v97h93v40q0 80 50 127t128 47q39 0 66 -9v-107
q-2 1 -18.5 7t-42.5 6q-31 0 -52 -21t-21 -58v-32h331v-569q0 -85 -42 -126t-112 -41q-31 0 -56 7z" />
    <glyph glyph-name="f_k.liga" unicode="fk" horiz-adv-x="922" 
d="M121 413h-93v97h93v29q0 85 49.5 133t136.5 48h255v-421h3l208 211h139v-6l-198 -197l203 -301v-6h-131l-150 231l-74 -73v-158h-110v619h-145q-34 0 -55 -21t-21 -60v-28h125v-97h-125v-413h-110v413z" />
    <glyph glyph-name="f_l.liga" unicode="fl" horiz-adv-x="626" 
d="M121 413h-93v97h93v29q0 85 49.5 133t136.5 48h255v-720h-110v619h-145q-34 0 -55 -21t-21 -60v-28h125v-97h-125v-413h-110v413z" />
    <glyph glyph-name="f_t.liga" unicode="ft" horiz-adv-x="727" 
d="M544 3q-30 11 -49 29q-43 42 -43 117v264h-221v-413h-110v413h-93v97h93v40q0 80 50 127t128 47q39 0 66 -9v-107q-2 1 -18.5 7t-42.5 6q-31 0 -52 -21t-21 -58v-32h221v144h110v-144h124v-97h-124v-240q0 -41 16 -58q15 -20 51 -20q18 0 31 4.5t28 14.5v-107
q-34 -15 -80 -15q-34 0 -64 11z" />
    <glyph glyph-name="r_f.liga" unicode="rf" horiz-adv-x="802" 
d="M525 413h-93v97h93v40q0 80 50 127t128 47q45 0 78 -11v-108q-18 7 -33.5 11.5t-35.5 4.5q-33 0 -55 -21t-22 -58v-32h128v-97h-128v-413h-110v413zM64 510h105v-75h5q20 41 62.5 65t92.5 24q28 0 41 -4v-111q-25 7 -53 7q-65 0 -104 -41t-39 -108v-267h-110v510z" />
    <glyph glyph-name="r_f_f.liga" unicode="rff" horiz-adv-x="1128" 
d="M64 510h105v-75h5q20 41 62.5 65t92.5 24q28 0 41 -4v-111q-25 7 -53 7q-65 0 -104 -41t-39 -108v-267h-110v510zM521 413h-93v97h93v40q0 80 50 127t128 47q39 0 66 -9v-107q-2 1 -18.5 7t-42.5 6q-31 0 -52 -21t-21 -58v-32h221v40q0 80 49.5 127t127.5 47q46 0 79 -11
v-108q-18 7 -34 11.5t-36 4.5q-32 0 -54 -21t-22 -58v-32h128v-97h-128v-413h-110v413h-221v-413h-110v413z" />
    <glyph glyph-name="r_t.liga" unicode="rt" horiz-adv-x="802" 
d="M64 510h105v-75h5q20 41 62.5 65t92.5 24q28 0 41 -4v-111q-25 7 -53 7q-65 0 -104 -41t-39 -108v-267h-110v510zM619 3q-30 11 -49 29q-43 43 -43 117v264h-89v97h89v144h110v-144h124v-97h-124v-240q0 -41 16 -58q15 -20 52 -20q17 0 30 4.5t28 14.5v-107
q-33 -15 -80 -15q-34 0 -64 11z" />
    <glyph glyph-name="t_f.liga" unicode="tf" horiz-adv-x="730" 
d="M209 3q-30 11 -49 29q-43 43 -43 117v264h-89v97h89v144h110v-144h221v40q0 80 49.5 127t127.5 47q45 0 85 -14l-13 -104q-21 8 -34 11.5t-33 3.5q-31 0 -51.5 -21t-20.5 -58v-32h128v-97h-128v-413h-110v413h-221v-240q0 -41 16 -58q15 -20 51 -20q26 0 53 17v-107
q-16 -7 -32.5 -10t-41.5 -3q-34 0 -64 11z" />
    <glyph glyph-name="t_t.liga" unicode="tt" horiz-adv-x="717" 
d="M209 3q-30 11 -49 29q-43 43 -43 117v264h-89v97h89v144h110v-144h215v144h110v-144h124v-97h-124v-240q0 -41 16 -58q15 -20 52 -20q17 0 30 4.5t28 14.5v-107q-34 -15 -80 -15q-34 0 -64 11t-49 29q-43 43 -43 117v264h-215v-240q0 -41 16 -58q15 -20 51 -20
q26 0 53 17v-107q-16 -7 -32.5 -10t-41.5 -3q-34 0 -64 11z" />
    <glyph glyph-name=".notdef" horiz-adv-x="590" 
d="M508 0h-426v716h426v-716zM444 60v596h-298v-596h298z" />
    <glyph glyph-name=".null" horiz-adv-x="0" 
 />
    <glyph glyph-name="uni000D" unicode="&#xd;" horiz-adv-x="0" 
 />
    <glyph glyph-name="uni0002" horiz-adv-x="0" 
 />
    <glyph glyph-name="uni0009" unicode="&#x9;" horiz-adv-x="0" 
 />
    <glyph glyph-name="uni000A" unicode="&#xa;" horiz-adv-x="0" 
 />
    <glyph glyph-name="space" unicode=" " horiz-adv-x="234" 
 />
    <glyph glyph-name="exclam" unicode="!" horiz-adv-x="266" 
d="M77 499v217h112v-217l-11 -266h-90zM78.5 16.5q-22.5 22.5 -22.5 54.5t22.5 54t54.5 22t54.5 -22t22.5 -54t-22.5 -54.5t-54.5 -22.5t-54.5 22.5z" />
    <glyph glyph-name="quotedbl" unicode="&#x22;" horiz-adv-x="364" 
d="M52 716h101v-226h-101v226zM212 716h100v-226h-100v226z" />
    <glyph glyph-name="numbersign" unicode="#" horiz-adv-x="659" 
d="M150 198h-119l15 88h118l18 121h-121l14 88h120l28 189h94l-28 -189h125l28 189h94l-28 -189h119l-13 -88h-119l-18 -121h121l-13 -88h-121l-30 -198h-94l29 198h-124l-30 -198h-94zM384 285l18 123h-127l-18 -123h127z" />
    <glyph glyph-name="dollar" unicode="$" horiz-adv-x="559" 
d="M459 50.5q-53 -50.5 -133 -62.5v-88h-82v86q-74 10 -133 58.5t-80 129.5l98 40q11 -45 42 -78t73 -44v217l-7 3q-85 33 -132 82t-47 120q0 46 22.5 86t64.5 66t99 32v86h82v-88q71 -12 114 -51.5t58 -85.5l-97 -42q-7 24 -26 44t-49 30v-204q91 -38 138.5 -82.5
t47.5 -119.5q0 -84 -53 -134.5zM183 463.5q19 -21.5 61 -41.5v173q-36 -7 -58 -28.5t-22 -52.5q0 -29 19 -50.5zM382 126q21 23 21 58q0 31 -18.5 51.5t-58.5 39.5v-181q35 9 56 32z" />
    <glyph glyph-name="percent" unicode="%" horiz-adv-x="843" 
d="M126 381q-40 23 -63 62.5t-23 85.5t23 85.5t63 62.5t88 23t87.5 -23t62.5 -62.5t23 -85.5t-23 -85.5t-62.5 -62.5t-87.5 -23t-88 23zM166 33l444 663l67 -45l-444 -663zM274 465q24 25 24 64t-24 64t-60 25t-60 -25t-24 -64t24 -64t60 -25t60 25zM541.5 7
q-39.5 23 -62.5 62.5t-23 85.5t23 85.5t62.5 62.5t87.5 23t88 -23t63 -62.5t23 -85.5t-23 -85.5t-63 -62.5t-88 -23t-87.5 23zM689 91q24 25 24 64t-24 64t-60 25q-35 0 -59.5 -25t-24.5 -64q0 -38 24.5 -63.5t59.5 -25.5q36 0 60 25z" />
    <glyph glyph-name="ampersand" unicode="&#x26;" horiz-adv-x="647" 
d="M537 135l71 -89l-81 -62l-51 64q-70 -64 -168 -64q-73 0 -133.5 33t-95.5 90.5t-35 128.5q0 61 32 117t87 93q-48 62 -48 115q0 47 23.5 86.5t64.5 62t91 22.5q64 0 107 -33.5t61 -86.5l-91 -48q-25 68 -76 68q-31 0 -51.5 -19t-20.5 -51q0 -31 24 -61l227 -287l62 101
l82 -51zM415 126l-192 244q-35 -22 -55 -57.5t-20 -74.5q0 -44 22 -79.5t59.5 -55t81.5 -19.5q62 0 104 42z" />
    <glyph glyph-name="quotesingle" unicode="'" horiz-adv-x="205" 
d="M52 716h101v-226h-101v226z" />
    <glyph glyph-name="parenleft" unicode="(" horiz-adv-x="343" 
d="M116.5 66q-52.5 121 -52.5 256t52.5 256t124.5 202l82 -57q-67 -82 -108 -186t-41 -215t41 -215t108 -186l-82 -57q-72 81 -124.5 202z" />
    <glyph glyph-name="parenright" unicode=")" horiz-adv-x="343" 
d="M20 -79q67 82 108 186t41 215t-41 215t-108 186l82 57q72 -81 124.5 -202t52.5 -256t-52.5 -256t-124.5 -202z" />
    <glyph glyph-name="asterisk" unicode="*" horiz-adv-x="449" 
d="M78 408l74 101l-2 8l-110 38l27 81l109 -39l6 2v117h85v-117l6 -2l109 39l27 -81l-109 -38l-3 -8l74 -101l-68 -50l-75 103h-7l-75 -103z" />
    <glyph glyph-name="plus" unicode="+" horiz-adv-x="573" 
d="M510 224h-176v-176h-95v176h-176v94h176v176h95v-176h176v-94z" />
    <glyph glyph-name="comma" unicode="," horiz-adv-x="267" 
d="M52 -86l57 87q-21 6 -36.5 25t-15.5 45q0 32 22.5 54t54.5 22t54.5 -22t22.5 -54q0 -18 -7 -34t-21 -37l-80 -119z" />
    <glyph glyph-name="hyphen" unicode="-" horiz-adv-x="455" 
d="M63 357h329v-94h-329v94z" />
    <glyph glyph-name="period" unicode="." horiz-adv-x="266" 
d="M78.5 16.5q-22.5 22.5 -22.5 54.5t22.5 54t54.5 22t54.5 -22t22.5 -54t-22.5 -54.5t-54.5 -22.5t-54.5 22.5z" />
    <glyph glyph-name="slash" unicode="/" horiz-adv-x="465" 
d="M328 716h106l-297 -716h-106z" />
    <glyph glyph-name="zero" unicode="0" horiz-adv-x="662" 
d="M183 31.5q-64 47.5 -98.5 129t-34.5 181.5q0 101 34.5 182.5t98.5 128.5t148 47t147.5 -47t98 -128.5t34.5 -182.5q0 -100 -34.5 -181.5t-98.5 -129t-147 -47.5q-84 0 -148 47.5zM420.5 121.5q38.5 33.5 59 91t20.5 129.5t-20.5 130t-59 91t-89.5 33q-52 0 -90 -33
t-58.5 -91t-20.5 -130t20.5 -129.5t58.5 -91t90 -33.5q51 0 89.5 33.5z" />
    <glyph glyph-name="one" unicode="1" horiz-adv-x="412" 
d="M214 535l-112 -81l-56 85l201 145h77v-684h-110v535z" />
    <glyph glyph-name="two" unicode="2" horiz-adv-x="543" 
d="M48 104q32 32 126 126.5t125 128.5q42 45 57.5 73t15.5 67t-30 68t-81 29q-47 0 -76.5 -27.5t-38.5 -63.5l-100 41q10 36 37.5 71t73.5 59t106 24q65 0 115.5 -26.5t78 -72t27.5 -100.5q0 -59 -30.5 -113.5t-77.5 -101.5q-20 -19 -101 -100l-82 -82l2 -4h298v-100h-445
v104z" />
    <glyph glyph-name="three" unicode="3" horiz-adv-x="554" 
d="M131 28.5q-66 44.5 -91 130.5l102 42q14 -53 48.5 -82t83.5 -29q50 0 86 30.5t36 77.5q0 48 -38 78.5t-95 30.5h-59v101h53q49 0 82.5 26.5t33.5 72.5q0 41 -30 65.5t-76 24.5q-45 0 -71.5 -24t-38.5 -59l-101 42q20 57 74 100.5t138 43.5q62 0 111.5 -24t77.5 -66.5
t28 -95.5q0 -54 -26 -91.5t-64 -57.5v-6q50 -21 82 -64t32 -103t-30.5 -107t-84 -74t-120.5 -27q-77 0 -143 44.5z" />
    <glyph glyph-name="four" unicode="4" horiz-adv-x="611" 
d="M366 136h-320v86l311 462h119v-446h87v-102h-87v-136h-110v136zM366 238v283h-6l-191 -283h197z" />
    <glyph glyph-name="five" unicode="5" horiz-adv-x="576" 
d="M183.5 4.5q-48.5 20.5 -85.5 62t-52 102.5l99 39q13 -54 48.5 -87t87.5 -33q56 0 93 35.5t37 91.5t-36.5 92.5t-93.5 36.5q-32 0 -60 -14t-46 -39l-109 48l42 345h372v-100h-280l-25 -180l6 -1q52 41 121 41q58 0 108.5 -29t80.5 -81t30 -118t-31 -119t-85.5 -83
t-122.5 -30q-50 0 -98.5 20.5z" />
    <glyph glyph-name="six" unicode="6" horiz-adv-x="569" 
d="M161 16.5q-55 32.5 -85 86.5t-30 115q0 59 23 111.5t68 118.5l173 254l87 -60l-156 -217l4 -4q27 16 68 16q52 0 100.5 -29t79 -79.5t30.5 -113.5t-32.5 -116t-87 -84t-117.5 -31q-70 0 -125 32.5zM349 103.5q30 16.5 47.5 45.5t17.5 65t-18 65.5t-47.5 46t-63.5 16.5
t-64 -16.5t-48 -46t-18 -65.5t17.5 -65t47.5 -45.5t65 -16.5q34 0 64 16.5z" />
    <glyph glyph-name="seven" unicode="7" horiz-adv-x="545" 
d="M76 35l303 542l-2 3h-331v104h453v-110l-328 -590z" />
    <glyph glyph-name="eight" unicode="8" horiz-adv-x="570" 
d="M162.5 11q-54.5 27 -85.5 74.5t-31 104.5q0 56 30.5 99.5t77.5 67.5v6q-37 25 -61 62.5t-24 81.5q0 54 27.5 98.5t77 69.5t111.5 25t111.5 -25t77 -69.5t27.5 -98.5q0 -44 -24 -81.5t-61 -62.5v-6q47 -24 77.5 -67.5t30.5 -99.5q0 -57 -31 -104.5t-85.5 -74.5t-122.5 -27
t-122.5 27zM361.5 433.5q30.5 26.5 30.5 70.5q0 43 -30 68.5t-77 25.5t-77 -25.5t-30 -68.5q0 -44 30.5 -70.5t76.5 -26.5t76.5 26.5zM376.5 118.5q36.5 30.5 36.5 79.5q0 48 -36.5 79t-91.5 31t-91.5 -31t-36.5 -79q0 -49 36.5 -79.5t91.5 -30.5t91.5 30.5z" />
    <glyph glyph-name="nine" unicode="9" horiz-adv-x="569" 
d="M172 42l156 217l-4 4q-27 -16 -68 -16q-52 0 -100.5 29t-79 79.5t-30.5 113.5t32.5 116t87 84t117.5 31q70 0 125 -32.5t85 -86.5t30 -115q0 -59 -23 -111.5t-68 -118.5l-173 -254zM348 358.5q30 16.5 48 46t18 65.5t-17.5 65t-47.5 45.5t-65 16.5q-34 0 -64 -16.5
t-47.5 -45.5t-17.5 -65t18 -65.5t47.5 -46t63.5 -16.5t64 16.5z" />
    <glyph glyph-name="colon" unicode=":" horiz-adv-x="266" 
d="M78.5 387.5q-22.5 22.5 -22.5 54.5t22.5 54.5t54.5 22.5t54.5 -22.5t22.5 -54.5t-22.5 -54.5t-54.5 -22.5t-54.5 22.5zM78.5 16.5q-22.5 22.5 -22.5 54.5t22.5 54t54.5 22t54.5 -22t22.5 -54t-22.5 -54.5t-54.5 -22.5t-54.5 22.5z" />
    <glyph glyph-name="semicolon" unicode=";" horiz-adv-x="267" 
d="M79.5 387.5q-22.5 22.5 -22.5 54.5t22.5 54.5t54.5 22.5t54.5 -22.5t22.5 -54.5t-22.5 -54.5t-54.5 -22.5t-54.5 22.5zM52 -73l57 87q-21 6 -36.5 25t-15.5 45q0 32 22.5 54t54.5 22t54.5 -22t22.5 -54q0 -18 -7 -34t-21 -37l-80 -119z" />
    <glyph glyph-name="less" unicode="&#x3c;" horiz-adv-x="518" 
d="M56 229v84l402 188v-105l-277 -122v-6l277 -122v-105z" />
    <glyph glyph-name="equal" unicode="=" horiz-adv-x="585" 
d="M63 464h459v-95h-459v95zM63 269h459v-95h-459v95z" />
    <glyph glyph-name="greater" unicode="&#x3e;" horiz-adv-x="518" 
d="M60 146l277 122v6l-277 122v105l402 -188v-84l-402 -188v105z" />
    <glyph glyph-name="question" unicode="?" horiz-adv-x="519" 
d="M199 274q0 46 19 80t69 78q35 32 50.5 54t15.5 53q0 39 -26.5 64t-72.5 25q-44 0 -71 -26.5t-39 -63.5l-100 42q20 60 73.5 106t135.5 46q61 0 109 -24.5t74.5 -68t26.5 -97.5q0 -53 -25.5 -90.5t-67.5 -77.5q-33 -30 -46.5 -55t-13.5 -57v-29h-111v41zM199.5 16.5
q-22.5 22.5 -22.5 54.5t22.5 54t54.5 22t54 -22t22 -54t-22 -54.5t-54 -22.5t-54.5 22.5z" />
    <glyph glyph-name="at" unicode="@" horiz-adv-x="892" 
d="M247 -30.5q-90 51.5 -141.5 140t-51.5 194.5q0 105 51 193.5t141 140.5t202 52q110 0 199.5 -52t140 -140t50.5 -192q0 -92 -40.5 -151t-114.5 -59q-38 0 -68.5 19.5t-46.5 53.5q-23 -35 -58.5 -54t-80.5 -19q-54 0 -98 26t-70 72.5t-26 105.5q0 58 26 105t69.5 73
t94.5 26q37 0 67.5 -15t51.5 -41h6v42h84v-254q0 -26 14 -45.5t41 -19.5q36 0 51.5 39.5t15.5 95.5q0 82 -40.5 151.5t-111 110.5t-156.5 41q-85 0 -155 -39.5t-111 -109.5t-41 -156t41.5 -156t112 -109.5t153.5 -39.5q74 0 129 30l31 -77q-73 -34 -160 -34
q-111 0 -201 51.5zM515 214q33 32 33 86t-33 86t-79 32t-78.5 -32t-32.5 -86t32.5 -86t78.5 -32t79 32z" />
    <glyph glyph-name="A" unicode="A" horiz-adv-x="696" 
d="M284 716h128l269 -716h-124l-64 183h-289l-65 -183h-124zM455 287l-76 213l-28 83h-6l-28 -83l-76 -213h214z" />
    <glyph glyph-name="B" unicode="B" horiz-adv-x="628" 
d="M82 716h269q57 0 105.5 -25t77.5 -69t29 -97t-26.5 -92t-69.5 -59v-6q54 -19 87.5 -63t33.5 -103t-30.5 -105t-82 -71.5t-112.5 -25.5h-281v716zM346 416q48 0 77.5 30t29.5 69t-28.5 68.5t-74.5 29.5h-156v-197h152zM363 104q51 0 81.5 32t30.5 74q0 43 -31.5 74.5
t-84.5 31.5h-165v-212h169z" />
    <glyph glyph-name="C" unicode="C" horiz-adv-x="748" 
d="M230 33q-86 49 -135 135t-49 190t49 190t135 135t190 49q81 0 147.5 -30t117.5 -87l-80 -77q-37 44 -82 65.5t-103 21.5q-72 0 -131.5 -33t-94.5 -93.5t-35 -140.5t35 -140.5t94.5 -93.5t131.5 -33q120 0 204 100l81 -78q-52 -61 -125 -95t-160 -34q-104 0 -190 49z" />
    <glyph glyph-name="D" unicode="D" horiz-adv-x="723" 
d="M82 716h229q111 0 194 -45t127.5 -126.5t44.5 -186.5t-44.5 -186.5t-127.5 -126.5t-194 -45h-229v716zM309 107q120 0 187.5 66.5t67.5 184.5q0 117 -67.5 184t-187.5 67h-115v-502h115z" />
    <glyph glyph-name="E" unicode="E" horiz-adv-x="574" 
d="M82 716h435v-107h-323v-198h291v-106h-291v-198h323v-107h-435v716z" />
    <glyph glyph-name="F" unicode="F" horiz-adv-x="554" 
d="M82 716h435v-107h-323v-206h291v-106h-291v-297h-112v716z" />
    <glyph glyph-name="G" unicode="G" horiz-adv-x="821" 
d="M233 33q-86 49 -136.5 134.5t-50.5 190.5t50.5 190.5t136.5 134.5t188 49q81 0 151 -29t117 -81l-78 -78q-35 39 -83.5 60t-107.5 21q-69 0 -129 -33t-96 -94t-36 -140t36 -140t96 -94t130 -33q64 0 107 19t77 51q22 22 37.5 55t20.5 72h-243v100h349q5 -28 5 -58
q0 -68 -21 -130.5t-67 -108.5q-101 -107 -265 -107q-102 0 -188 49z" />
    <glyph glyph-name="H" unicode="H" horiz-adv-x="719" 
d="M82 716h112v-297h332v297h111v-716h-111v313h-332v-313h-112v716z" />
    <glyph glyph-name="I" unicode="I" horiz-adv-x="275" 
d="M82 716h112v-716h-112v716z" />
    <glyph glyph-name="J" unicode="J" horiz-adv-x="551" 
d="M113 28.5q-61 44.5 -86 124.5l104 43q31 -105 125 -105q52 0 83 35.5t31 93.5v496h111v-492q0 -76 -29 -130t-80 -82t-116 -28q-82 0 -143 44.5z" />
    <glyph glyph-name="K" unicode="K" horiz-adv-x="658" 
d="M82 716h112v-340h6l290 340h139v-6l-262 -302l285 -402v-6h-137l-224 321l-97 -112v-209h-112v716z" />
    <glyph glyph-name="L" unicode="L" horiz-adv-x="532" 
d="M82 716h112v-609h307v-107h-419v716z" />
    <glyph glyph-name="M" unicode="M" horiz-adv-x="886" 
d="M82 716h152l206 -543h6l206 543h152v-716h-111v401l6 129h-6l-205 -530h-90l-205 530h-6l6 -129v-401h-111v716z" />
    <glyph glyph-name="N" unicode="N" horiz-adv-x="728" 
d="M82 716h133l320 -521h6l-6 138v383h111v-716h-117l-336 548h-6l6 -138v-410h-111v716z" />
    <glyph glyph-name="O" unicode="O" horiz-adv-x="834" 
d="M228 33.5q-85 49.5 -133.5 135.5t-48.5 189t48.5 188.5t133.5 135.5t189 50t188.5 -50t133.5 -135.5t49 -188.5t-48.5 -189t-133.5 -135.5t-189 -49.5t-189 49.5zM547 125q59 34 93 94.5t34 138.5t-34 138.5t-93 94.5t-130 34t-130 -34t-93.5 -94.5t-34.5 -138.5
t34.5 -138.5t93.5 -94.5t130 -34t130 34z" />
    <glyph glyph-name="P" unicode="P" horiz-adv-x="595" 
d="M82 716h248q63 0 116.5 -28t85 -78t31.5 -113t-31.5 -113t-85 -78t-116.5 -28h-136v-278h-112v716zM332 384q37 0 64 16.5t41 42.5t14 54t-14 54t-41 42t-64 16h-138v-225h138z" />
    <glyph glyph-name="Q" unicode="Q" horiz-adv-x="834" 
d="M581 21q-76 -37 -164 -37q-104 0 -189 49.5t-133.5 135.5t-48.5 189t48.5 188.5t133.5 135.5t189 50t188.5 -50t133.5 -135.5t49 -188.5q0 -83 -32 -155.5t-90 -124.5l52 -79l-85 -56zM519 112l-81 122l85 58l81 -122q34 35 52 83t18 105q0 78 -34 138.5t-93 94.5
t-130 34t-130 -34t-93.5 -94.5t-34.5 -138.5t34.5 -138.5t93.5 -94.5t130 -34q54 0 102 21z" />
    <glyph glyph-name="R" unicode="R" horiz-adv-x="612" 
d="M82 716h252q64 0 117 -28t83.5 -78t30.5 -113q0 -72 -46.5 -128t-116.5 -75l-1 -5l196 -283v-6h-130l-189 280h-84v-280h-112v716zM331 384q50 0 85 32t35 82q0 28 -14 54t-40 42.5t-62 16.5h-141v-227h137z" />
    <glyph glyph-name="S" unicode="S" horiz-adv-x="577" 
d="M129 36q-71 52 -98 146l106 43q16 -59 56.5 -96.5t97.5 -37.5q53 0 90 27.5t37 75.5q0 44 -32.5 72.5t-113.5 57.5l-45 16q-72 25 -121 72t-49 124q0 53 29 98t80.5 71.5t116.5 26.5q94 0 150 -45.5t75 -102.5l-101 -43q-11 34 -42 60t-80 26t-82.5 -25t-33.5 -64
q0 -37 30 -61t94 -46l45 -15q92 -32 142.5 -83.5t50.5 -137.5q0 -70 -36 -117.5t-91.5 -70.5t-114.5 -23q-89 0 -160 52z" />
    <glyph glyph-name="T" unicode="T" horiz-adv-x="565" 
d="M227 609h-200v107h512v-107h-200v-609h-112v609z" />
    <glyph glyph-name="U" unicode="U" horiz-adv-x="680" 
d="M198.5 20q-61.5 36 -95.5 102t-34 153v441h111v-447q0 -79 41.5 -128.5t118.5 -49.5t118 49t41 129v447h112v-441q0 -86 -33 -152t-94 -102.5t-144 -36.5q-80 0 -141.5 36z" />
    <glyph glyph-name="V" unicode="V" horiz-adv-x="659" 
d="M14 716h123l160 -473l25 -81h6l26 81l168 473h122l-260 -716h-117z" />
    <glyph glyph-name="W" unicode="W" horiz-adv-x="965" 
d="M17 716h125l111 -461l12 -62h6l16 62l143 461h112l136 -461l16 -61h6l12 61l111 461h125l-189 -716h-119l-136 472l-15 64h-6l-17 -64l-142 -472h-116z" />
    <glyph glyph-name="X" unicode="X" horiz-adv-x="664" 
d="M256 372l-221 344h136l158 -255h6l157 255h137l-222 -344l238 -372h-136l-174 277h-6l-174 -277h-136z" />
    <glyph glyph-name="Y" unicode="Y" horiz-adv-x="619" 
d="M256 333l-241 383h133l161 -266h6l156 266h134l-237 -383v-333h-112v333z" />
    <glyph glyph-name="Z" unicode="Z" horiz-adv-x="593" 
d="M39 115l373 494h-357v107h487v-115l-371 -494h375v-107h-507v115z" />
    <glyph glyph-name="bracketleft" unicode="[" horiz-adv-x="344" 
d="M82 792h224v-91h-120v-734h120v-91h-224v916z" />
    <glyph glyph-name="backslash" unicode="\" horiz-adv-x="465" 
d="M31 716h106l297 -716h-106z" />
    <glyph glyph-name="bracketright" unicode="]" horiz-adv-x="344" 
d="M38 -33h120v734h-120v91h224v-916h-224v91z" />
    <glyph glyph-name="asciicircum" unicode="^" horiz-adv-x="491" 
d="M201 716h89l189 -306h-115l-116 201h-5l-116 -201h-115z" />
    <glyph glyph-name="underscore" unicode="_" horiz-adv-x="489" 
d="M0 -121h489v-95h-489v95z" />
    <glyph glyph-name="grave" unicode="`" horiz-adv-x="420" 
d="M96 720h124l48 -132h-92z" />
    <glyph glyph-name="a" unicode="a" horiz-adv-x="547" 
d="M126 5.5q-43 21.5 -67 61t-24 89.5q0 79 59.5 125t150.5 46q45 0 81 -8.5t57 -18.5v26q0 47 -35 76.5t-90 29.5q-39 0 -73.5 -17t-55.5 -47l-77 59q34 47 88 73t120 26q111 0 171 -54.5t60 -153.5v-318h-108v61h-5q-22 -33 -62 -55t-92 -22q-55 0 -98 21.5zM315 94
q32 19 50 51t18 69q-23 13 -53.5 21t-63.5 8q-62 0 -91 -24.5t-29 -63.5q0 -35 27 -57.5t70 -22.5q40 0 72 19z" />
    <glyph glyph-name="b" unicode="b" horiz-adv-x="618" 
d="M239 8q-43 24 -65 58h-5v-66h-105v716h110v-201l-5 -72h5q22 35 65 59t97 24q69 0 125 -35t88.5 -96.5t32.5 -139.5t-32.5 -139.5t-88.5 -96.5t-125 -35q-54 0 -97 24zM395 106q35 21 56 60t21 89t-21 88.5t-56 59.5t-75 21t-74.5 -21t-55.5 -59.5t-21 -88.5t21 -89
t55.5 -60t74.5 -21t75 21z" />
    <glyph glyph-name="c" unicode="c" horiz-adv-x="561" 
d="M163.5 19q-60.5 35 -94 96.5t-33.5 139.5t33.5 139.5t94 96.5t136.5 35q84 0 143 -38t84 -103l-101 -42q-34 81 -129 81q-41 0 -75.5 -21t-55 -59.5t-20.5 -88.5t20.5 -89t55 -60t75.5 -21q48 0 82.5 21.5t52.5 61.5l99 -43q-29 -65 -88 -103t-143 -38q-76 0 -136.5 35z
" />
    <glyph glyph-name="d" unicode="d" horiz-adv-x="618" 
d="M157 19q-56 35 -88.5 96.5t-32.5 139.5t32.5 139.5t88.5 96.5t125 35q54 0 97 -24t65 -59h5l-5 72v201h110v-716h-105v66h-5q-22 -34 -65 -58t-97 -24q-69 0 -125 35zM372.5 106q34.5 21 55.5 60t21 89t-21 88.5t-55.5 59.5t-74.5 21t-75 -21t-56 -59.5t-21 -88.5t21 -89
t56 -60t75 -21t74.5 21z" />
    <glyph glyph-name="e" unicode="e" horiz-adv-x="576" 
d="M162.5 19q-59.5 35 -93 96.5t-33.5 138.5q0 73 32.5 135.5t90.5 99.5t132 37q77 0 133.5 -34t86 -93t29.5 -133q0 -14 -3 -35h-391q6 -71 50.5 -109.5t103.5 -38.5q47 0 81.5 21.5t55.5 58.5l93 -44q-36 -63 -94 -99t-139 -36q-75 0 -134.5 35zM428 315q-2 27 -17 53.5
t-45.5 44.5t-74.5 18q-53 0 -89.5 -31.5t-50.5 -84.5h277z" />
    <glyph glyph-name="f" unicode="f" horiz-adv-x="398" 
d="M121 413h-93v97h93v40q0 80 50 127t128 47q45 0 78 -11v-108q-18 7 -33.5 11.5t-35.5 4.5q-33 0 -55 -21t-22 -58v-32h128v-97h-128v-413h-110v413z" />
    <glyph glyph-name="g" unicode="g" horiz-adv-x="613" 
d="M138.5 -189q-61.5 43 -82.5 102l103 43q16 -40 51.5 -64.5t83.5 -24.5q70 0 109.5 41.5t39.5 116.5v47h-6q-25 -36 -66.5 -56.5t-95.5 -20.5q-64 0 -119 33t-87.5 93.5t-32.5 138.5t32.5 138.5t87.5 94t119 33.5q53 0 95 -21t67 -57h6v62h105v-482q0 -83 -32 -141.5
t-89.5 -88.5t-132.5 -30q-94 0 -155.5 43zM369 114.5q34 19.5 54 57t20 88.5q0 78 -42.5 121.5t-105.5 43.5q-41 0 -75 -19.5t-54 -56.5t-20 -89t20 -89t54 -56.5t75 -19.5q40 0 74 19.5z" />
    <glyph glyph-name="h" unicode="h" horiz-adv-x="585" 
d="M64 716h110v-195l-5 -78h5q22 36 65.5 59.5t93.5 23.5q93 0 142 -54.5t49 -148.5v-323h-110v308q0 58 -30.5 87t-79.5 29q-37 0 -66.5 -21t-46.5 -55.5t-17 -73.5v-274h-110v716z" />
    <glyph glyph-name="i" unicode="i" horiz-adv-x="255" 
d="M74.5 605.5q-21.5 21.5 -21.5 52.5t21.5 52.5t52.5 21.5t52.5 -21.5t21.5 -52.5t-21.5 -52.5t-52.5 -21.5t-52.5 21.5zM72 510h110v-510h-110v510z" />
    <glyph glyph-name="j" unicode="j" horiz-adv-x="255" 
d="M74.5 605.5q-21.5 21.5 -21.5 52.5t21.5 52.5t52.5 21.5t52.5 -21.5t21.5 -52.5t-21.5 -52.5t-52.5 -21.5t-52.5 21.5zM-27 -219v106q22 -12 47 -12q28 0 40 17t12 51v567h110v-569q0 -85 -41.5 -126t-111.5 -41q-32 0 -56 7z" />
    <glyph glyph-name="k" unicode="k" horiz-adv-x="534" 
d="M64 716h110v-417h3l209 211h138v-6l-198 -197l204 -301v-6h-131l-150 231l-75 -73v-158h-110v716z" />
    <glyph glyph-name="l" unicode="l" horiz-adv-x="239" 
d="M64 716h110v-716h-110v716z" />
    <glyph glyph-name="m" unicode="m" horiz-adv-x="896" 
d="M64 510h105v-67h5q23 37 65 60t90 23q55 0 96 -25.5t59 -67.5q26 42 69.5 67.5t102.5 25.5q88 0 133.5 -53.5t45.5 -145.5v-327h-110v308q0 116 -99 116q-53 0 -87 -43t-34 -106v-275h-110v308q0 116 -102 116q-52 0 -85.5 -43t-33.5 -106v-275h-110v510z" />
    <glyph glyph-name="n" unicode="n" horiz-adv-x="582" 
d="M64 510h105v-67h5q22 36 65.5 59.5t92.5 23.5q93 0 141.5 -54.5t48.5 -148.5v-323h-110v308q0 60 -29.5 88t-81.5 28q-37 0 -66 -20.5t-45 -54.5t-16 -73v-276h-110v510z" />
    <glyph glyph-name="o" unicode="o" horiz-adv-x="607" 
d="M165 19.5q-61 35.5 -95 97.5t-34 138t34 138t95 97.5t138 35.5t138 -36t95 -98t34 -137q0 -76 -34 -138t-95 -97.5t-138 -35.5t-138 35.5zM381 105.5q36 20.5 57.5 59t21.5 90.5t-21.5 90t-57.5 58.5t-78 20.5t-78 -20.5t-57.5 -58.5t-21.5 -90t21.5 -90.5t57.5 -59
t78 -20.5t78 20.5z" />
    <glyph glyph-name="p" unicode="p" horiz-adv-x="614" 
d="M60 510h105v-67h5q22 35 65 59t97 24q69 0 125 -35t88.5 -96.5t32.5 -139.5t-32.5 -139.5t-88.5 -96.5t-125 -35q-54 0 -97 24t-65 58h-5l5 -71v-211h-110v726zM391 106q35 21 56 60t21 89t-21 88.5t-56 59.5t-75 21t-74.5 -21t-55.5 -59.5t-21 -88.5t21 -89t55.5 -60
t74.5 -21t75 21z" />
    <glyph glyph-name="q" unicode="q" horiz-adv-x="614" 
d="M444 -5l5 71h-5q-22 -34 -65 -58t-97 -24q-69 0 -125 35t-88.5 96.5t-32.5 139.5t32.5 139.5t88.5 96.5t125 35q54 0 97 -24t65 -59h5v67h105v-726h-110v211zM372.5 106q34.5 21 55.5 60t21 89t-21 88.5t-55.5 59.5t-74.5 21t-75 -21t-56 -59.5t-21 -88.5t21 -89t56 -60
t75 -21t74.5 21z" />
    <glyph glyph-name="r" unicode="r" horiz-adv-x="404" 
d="M64 510h105v-75h5q17 39 59 64.5t89 25.5q37 0 62 -10v-114q-44 16 -79 16q-38 0 -67.5 -20t-46.5 -53.5t-17 -73.5v-270h-110v510z" />
    <glyph glyph-name="s" unicode="s" horiz-adv-x="490" 
d="M106 22.5q-56 38.5 -79 98.5l98 43q18 -40 50.5 -61t74.5 -21q41 0 69 14.5t28 43.5q0 28 -24 44t-74 28l-61 15q-61 15 -101 53t-40 96q0 45 26.5 79t71.5 52.5t98 18.5q71 0 125 -28.5t78 -82.5l-96 -42q-29 59 -106 59q-37 0 -62 -15t-25 -39q0 -23 19 -37.5t56 -24.5
l75 -19q75 -19 113.5 -57.5t38.5 -94.5q0 -48 -27.5 -84.5t-75.5 -56.5t-106 -20q-88 0 -144 38.5z" />
    <glyph glyph-name="t" unicode="t" horiz-adv-x="392" 
d="M209 3q-30 11 -49 29q-43 43 -43 117v264h-89v97h89v144h110v-144h124v-97h-124v-240q0 -41 16 -58q15 -20 52 -20q17 0 30 4.5t28 14.5v-107q-33 -15 -80 -15q-34 0 -64 11z" />
    <glyph glyph-name="u" unicode="u" horiz-adv-x="582" 
d="M108.5 39.5q-48.5 55.5 -48.5 154.5v316h110v-301q0 -62 29.5 -93t77.5 -31q39 0 69 20.5t46 54.5t16 73v277h110v-510h-104v66h-6q-21 -36 -65 -59t-93 -23q-93 0 -141.5 55.5z" />
    <glyph glyph-name="v" unicode="v" horiz-adv-x="546" 
d="M7 510h123l141 -368h4l144 368h120l-212 -510h-110z" />
    <glyph glyph-name="w" unicode="w" horiz-adv-x="806" 
d="M7 510h119l103 -365h4l115 365h113l114 -365h4l103 365h117l-163 -510h-116l-117 366h-3l-116 -366h-114z" />
    <glyph glyph-name="x" unicode="x" horiz-adv-x="514" 
d="M191 259l-176 251h128l113 -166h3l108 166h132l-178 -251l180 -259h-130l-114 172h-3l-111 -172h-130z" />
    <glyph glyph-name="y" unicode="y" horiz-adv-x="548" 
d="M220 28l-212 482h123l144 -347h4l140 347h121l-315 -726h-116z" />
    <glyph glyph-name="z" unicode="z" horiz-adv-x="501" 
d="M38 92l282 321h-274v97h409v-93l-282 -321h290v-96h-425v92z" />
    <glyph glyph-name="braceleft" unicode="{" horiz-adv-x="327" 
d="M139.5 -77q-46.5 47 -46.5 126v163q0 37 -19.5 56.5t-49.5 19.5v92q30 0 49.5 19.5t19.5 56.5v163q0 79 46.5 126t127.5 47h28v-91h-20q-33 0 -55 -23.5t-22 -62.5v-160q0 -49 -16.5 -77.5t-53.5 -40.5v-6q37 -11 53.5 -39.5t16.5 -78.5v-160q0 -39 22 -62.5t55 -23.5h20
v-91h-28q-81 0 -127.5 47z" />
    <glyph glyph-name="bar" unicode="|" horiz-adv-x="264" 
d="M82 792h101v-912h-101v912z" />
    <glyph glyph-name="braceright" unicode="}" horiz-adv-x="327" 
d="M32 -33h20q33 0 55 23.5t22 62.5v160q0 50 16.5 78.5t53.5 39.5v6q-37 12 -53.5 40.5t-16.5 77.5v160q0 39 -22 62.5t-55 23.5h-20v91h28q81 0 127.5 -47t46.5 -126v-163q0 -37 19.5 -56.5t49.5 -19.5v-92q-30 0 -49.5 -19.5t-19.5 -56.5v-163q0 -79 -46.5 -126
t-127.5 -47h-28v91z" />
    <glyph glyph-name="asciitilde" unicode="~" horiz-adv-x="552" 
d="M332.5 238q-29.5 9 -69.5 26q-33 14 -53.5 20.5t-35.5 6.5q-22 0 -35 -14t-15 -33h-86q0 65 36 104t90 39q27 0 56.5 -9.5t71.5 -26.5q6 -2 26.5 -10t35.5 -12t25 -4q22 0 34.5 13.5t14.5 33.5h87q0 -65 -36 -104t-91 -39q-26 0 -55.5 9z" />
    <glyph glyph-name="uni00A0" unicode="&#xa0;" horiz-adv-x="234" 
 />
    <glyph glyph-name="exclamdown" unicode="&#xa1;" horiz-adv-x="266" 
d="M78.5 394.5q-22.5 22.5 -22.5 54.5t22.5 54.5t54.5 22.5t54.5 -22.5t22.5 -54.5t-22.5 -54.5t-54.5 -22.5t-54.5 22.5zM77 1l11 281h90l11 -281v-217h-112v217z" />
    <glyph glyph-name="cent" unicode="&#xa2;" horiz-adv-x="544" 
d="M442.5 130.5q-46.5 -37.5 -113.5 -45.5v-85h-82v86q-62 10 -110 45.5t-74.5 90t-26.5 120.5t26.5 120.5t74.5 90t110 45.5v86h82v-85q66 -9 112 -46t70 -91l-96 -39q-27 63 -86 78v-318q32 8 56 28.5t37 51.5l92 -40q-25 -55 -71.5 -92.5zM171 241.5q30 -42.5 76 -57.5
v316q-46 -15 -76 -57.5t-30 -100.5t30 -100.5z" />
    <glyph glyph-name="sterling" unicode="&#xa3;" horiz-adv-x="539" 
d="M519 121q-20 -57 -61 -89t-105 -32h-314v92q47 20 71.5 57t24.5 80q0 10 -1 15h-93v88h60q-5 8 -23.5 39t-28.5 63.5t-10 66.5q0 53 26.5 98.5t74.5 73t109 27.5q83 0 133.5 -43t69.5 -102l-98 -40q-11 35 -36.5 59.5t-68.5 24.5q-47 0 -75 -30t-28 -71q0 -32 11 -57.5
t33 -63.5q21 -35 26 -45h134v-88h-111q0 -84 -56 -138l4 -5h165q32 0 50.5 14.5t28.5 43.5z" />
    <glyph glyph-name="currency" unicode="&#xa4;" horiz-adv-x="623" 
d="M70 147l59 58q-36 56 -36 120t36 120l-59 59l58 58l58 -57q55 39 125 39t125 -39l59 57l58 -58l-59 -58q35 -56 35 -121q0 -66 -35 -120l59 -58l-58 -59l-59 57q-57 -39 -125 -39t-125 39l-58 -57zM398.5 234.5q35.5 37.5 35.5 90.5t-35.5 90.5t-87.5 37.5
q-51 0 -86.5 -37.5t-35.5 -90.5t35.5 -90.5t86.5 -37.5q52 0 87.5 37.5z" />
    <glyph glyph-name="yen" unicode="&#xa5;" horiz-adv-x="607" 
d="M250 151h-169v94h169v74h-169v95h108l-173 270h130l123 -205l34 -65h5l33 65l120 205h130l-170 -270h105v-95h-165v-74h165v-94h-165v-151h-111v151z" />
    <glyph glyph-name="brokenbar" unicode="&#xa6;" horiz-adv-x="264" 
d="M82 756h101v-380h-101v380zM82 292h101v-412h-101v412z" />
    <glyph glyph-name="section" unicode="&#xa7;" horiz-adv-x="563" 
d="M514 -37q0 -60 -32 -104.5t-84 -67.5t-111 -23q-86 0 -152 52.5t-87 142.5l102 40q15 -59 51 -95.5t87 -36.5q48 0 81.5 25.5t33.5 65.5q0 44 -34.5 70.5t-116.5 52.5l-11 4q-171 54 -171 183q0 42 21 77.5t59 60.5q-80 54 -80 141q0 47 26.5 88.5t75 67t111.5 25.5
q56 0 100.5 -22.5t72 -57t37.5 -68.5l-101 -41q-9 34 -37.5 60t-71.5 26q-44 0 -72.5 -23.5t-28.5 -53.5q0 -31 26.5 -52t88.5 -42l14 -4q98 -32 151 -80.5t53 -132.5q0 -44 -17 -80t-46 -59q62 -55 62 -139zM313 174q27 -8 55 -21q16 15 26 37t10 42q0 47 -34 76.5
t-114 54.5q-3 2 -13 4q-30 -11 -47.5 -35.5t-17.5 -51.5q0 -34 27.5 -57t87.5 -43z" />
    <glyph glyph-name="dieresis" unicode="&#xa8;" horiz-adv-x="424" 
d="M78 614q-19 19 -19 45q0 27 19 45.5t45 18.5q27 0 45.5 -18.5t18.5 -45.5q0 -26 -18.5 -45t-45.5 -19q-26 0 -45 19zM257 614q-19 19 -19 45q0 27 18.5 45.5t44.5 18.5q28 0 46 -18.5t18 -45.5q0 -26 -18.5 -45t-45.5 -19q-25 0 -44 19z" />
    <glyph glyph-name="copyright" unicode="&#xa9;" horiz-adv-x="532" 
d="M151 303q-53 31 -84 84t-31 115t31 115t84 84t115 31t115 -31t84 -84t31 -115t-31 -115t-84 -84t-115 -31t-115 31zM357.5 344.5q41.5 24.5 66 66.5t24.5 91q0 50 -24.5 91.5t-66 66t-91.5 24.5q-49 0 -91 -24.5t-66.5 -66t-24.5 -91.5q0 -49 25 -90.5t66.5 -66.5
t90.5 -25q50 0 91.5 24.5zM185.5 418q-34.5 35 -34.5 84q0 50 34 84.5t85 34.5q28 0 48 -10t39 -29l-32 -29q-12 13 -23.5 18.5t-31.5 5.5q-29 0 -51 -21.5t-22 -53.5q0 -31 22 -53t51 -22q36 0 60 31l34 -27q-36 -48 -94 -48q-50 0 -84.5 35z" />
    <glyph glyph-name="ordfeminine" unicode="&#xaa;" horiz-adv-x="486" 
d="M123 290.5q-38 18.5 -60.5 52t-22.5 76.5q0 68 54 107.5t131 39.5q68 0 122 -26v14q0 42 -30 67.5t-74 25.5q-69 0 -100 -54l-86 43q21 42 68.5 69t115.5 27q91 0 148 -48.5t57 -138.5v-259h-99v55h-6q-21 -31 -55.5 -50t-79.5 -19t-83 18.5zM284.5 370q28.5 15 45.5 40
t17 55q-3 1 -28 13.5t-71 12.5q-52 0 -78 -20.5t-26 -53.5q0 -29 24 -45.5t57 -16.5q31 0 59.5 15z" />
    <glyph glyph-name="guillemotleft" unicode="&#xab;" horiz-adv-x="581" 
d="M40 271l207 224l63 -59l-155 -165l155 -165l-63 -59zM251 271l207 224l63 -59l-155 -165l155 -165l-63 -59z" />
    <glyph glyph-name="logicalnot" unicode="&#xac;" horiz-adv-x="595" 
d="M413 300h-357v94h449v-289h-92v195z" />
    <glyph glyph-name="uni00AD" unicode="&#xad;" horiz-adv-x="455" 
d="M63 357h329v-94h-329v94z" />
    <glyph glyph-name="registered" unicode="&#xae;" horiz-adv-x="532" 
d="M151 303q-53 31 -84 84t-31 115t31 115t84 84t115 31t115 -31t84 -84t31 -115t-31 -115t-84 -84t-115 -31t-115 31zM357.5 344.5q41.5 24.5 66 66.5t24.5 91q0 50 -24.5 91.5t-66 66t-91.5 24.5q-49 0 -91 -24.5t-66.5 -66t-24.5 -91.5q0 -49 25 -90.5t66.5 -66.5
t90.5 -25q50 0 91.5 24.5zM189 615h96q29 0 51 -21t22 -51q0 -23 -14.5 -41.5t-35.5 -24.5l-2 -2l60 -84v-2h-52l-55 84h-24v-84h-46v226zM281 515q13 0 22 8t9 20q0 11 -8.5 19.5t-21.5 8.5h-47v-56h46z" />
    <glyph glyph-name="macron" unicode="&#xaf;" horiz-adv-x="407" 
d="M60 702h287v-86h-287v86z" />
    <glyph glyph-name="degree" unicode="&#xb0;" horiz-adv-x="325" 
d="M97.5 459.5q-30.5 17.5 -48 47t-17.5 64.5t17.5 65t48 47t65.5 17t65 -17t47.5 -47t17.5 -65t-17.5 -64.5t-47.5 -47t-65 -17.5t-65.5 17.5zM203 529.5q16 17.5 16 41.5q0 25 -16 42t-40 17q-25 0 -41 -17t-16 -42q0 -24 16.5 -41.5t40.5 -17.5t40 17.5z" />
    <glyph glyph-name="plusminus" unicode="&#xb1;" horiz-adv-x="559" 
d="M232 305h-176v91h176v150h95v-150h176v-91h-176v-149h-95v149zM56 95h447v-95h-447v95z" />
    <glyph glyph-name="uni00B2" unicode="&#xb2;" horiz-adv-x="310" 
d="M27 412l131 131q21 22 31.5 37t10.5 33q0 17 -14 28.5t-33 11.5q-22 0 -37 -13.5t-20 -40.5l-72 29q10 44 46 70t82 26q53 0 90.5 -30t37.5 -78q0 -31 -18.5 -58.5t-44.5 -53.5q-23 -22 -48.5 -47.5l-35.5 -35.5h149v-71h-255v62z" />
    <glyph glyph-name="uni00B3" unicode="&#xb3;" horiz-adv-x="329" 
d="M74 367.5q-38 25.5 -50 74.5l73 27q7 -29 24.5 -43t39.5 -14q23 0 39.5 14t16.5 36q0 21 -17 33.5t-42 12.5h-40v64h36q23 0 37 11.5t14 31.5q0 17 -13 28t-32 11q-40 0 -55 -40l-69 28q13 38 45 60t80 22q54 0 88.5 -30t34.5 -74q0 -48 -44 -77q26 -14 41.5 -35.5
t15.5 -48.5q0 -53 -40 -85t-96 -32q-49 0 -87 25.5z" />
    <glyph glyph-name="acute" unicode="&#xb4;" horiz-adv-x="420" 
d="M199 720h125l-80 -132h-92z" />
    <glyph glyph-name="mu" unicode="&#xb5;" horiz-adv-x="582" 
d="M60 510h110v-300q0 -63 30 -94t77 -31q39 0 69 20.5t46 55t16 73.5v276h110v-510h-104v61h-6q-22 -35 -61 -56t-88 -21q-25 0 -48.5 9t-40.5 24h-5l5 -60v-173h-110v726z" />
    <glyph glyph-name="paragraph" unicode="&#xb6;" horiz-adv-x="633" 
d="M283 296h-35q-60 0 -111.5 25.5t-82 73.5t-30.5 111t30.5 111t82 73.5t111.5 25.5h305v-932h-96v835h-78v-835h-96v512z" />
    <glyph glyph-name="periodcentered" unicode="&#xb7;" horiz-adv-x="210" 
d="M50.5 269.5q-22.5 22.5 -22.5 54.5t22.5 54.5t54.5 22.5t54.5 -22.5t22.5 -54.5t-22.5 -54.5t-54.5 -22.5t-54.5 22.5z" />
    <glyph glyph-name="cedilla" unicode="&#xb8;" horiz-adv-x="405" 
d="M108 -218.5q-26 18.5 -37 47.5l58 25q4 -13 14 -22t24 -9q17 0 27.5 10.5t10.5 25.5q0 16 -10.5 27.5t-27.5 11.5t-30 -15l-53 24l35 93h62l-21 -48q12 2 19 2q38 0 65 -26.5t27 -68.5q0 -40 -29.5 -68t-74.5 -28q-33 0 -59 18.5z" />
    <glyph glyph-name="uni00B9" unicode="&#xb9;" horiz-adv-x="256" 
d="M117 616l-49 -42l-44 59l102 83h70v-366h-79v266z" />
    <glyph glyph-name="ordmasculine" unicode="&#xba;" horiz-adv-x="525" 
d="M145.5 302q-51.5 30 -80.5 82.5t-29 117.5t29 117.5t80.5 82.5t116.5 30t116.5 -30t81 -82.5t29.5 -117.5t-29.5 -117.5t-81 -82.5t-116.5 -30t-116.5 30zM323 383q29 17 46.5 48t17.5 71t-17.5 71t-46.5 48t-61 17t-60.5 -17t-46 -48t-17.5 -71t17.5 -71t46 -48
t60.5 -17t61 17z" />
    <glyph glyph-name="guillemotright" unicode="&#xbb;" horiz-adv-x="581" 
d="M60 106l155 165l-155 165l64 59l206 -224l-206 -224zM271 106l155 165l-155 165l64 59l206 -224l-206 -224z" />
    <glyph glyph-name="onequarter" unicode="&#xbc;" horiz-adv-x="752" 
d="M141 616l-49 -42l-44 59l102 83h70v-366h-79v266zM109 33l466 694l66 -45l-465 -694zM571 69h-172v55l172 242h77v-231h48v-66h-48v-69h-77v69zM571 135v120h-6l-86 -120h92z" />
    <glyph glyph-name="onehalf" unicode="&#xbd;" horiz-adv-x="791" 
d="M141 616l-49 -42l-44 59l102 83h70v-366h-79v266zM101 33l466 694l66 -45l-465 -694zM480 62l131 131q21 22 31.5 37t10.5 33q0 17 -14 28.5t-33 11.5q-22 0 -37 -13.5t-20 -40.5l-72 29q10 44 46 70t82 26q53 0 90.5 -30t37.5 -78q0 -31 -18.5 -58.5t-44.5 -53.5
q-23 -22 -48.5 -47.5l-35.5 -35.5h149v-71h-255v62z" />
    <glyph glyph-name="threequarters" unicode="&#xbe;" horiz-adv-x="834" 
d="M98 367.5q-38 25.5 -50 74.5l73 27q7 -29 24.5 -43t39.5 -14q23 0 39.5 14t16.5 36q0 21 -17 33.5t-42 12.5h-40v64h36q23 0 37 11.5t14 31.5q0 17 -13 28t-32 11q-40 0 -55 -40l-69 28q13 38 45 60t80 22q54 0 88.5 -30t34.5 -74q0 -48 -44 -77q26 -14 41.5 -35.5
t15.5 -48.5q0 -53 -40 -85t-96 -32q-49 0 -87 25.5zM179 33l466 694l66 -45l-465 -694zM653 69h-172v55l172 242h77v-231h48v-66h-48v-69h-77v69zM653 135v120h-6l-86 -120h92z" />
    <glyph glyph-name="questiondown" unicode="&#xbf;" horiz-adv-x="508" 
d="M200.5 394.5q-22.5 22.5 -22.5 54.5t22.5 54.5t54.5 22.5t54 -22.5t22 -54.5t-22 -54.5t-54 -22.5t-54.5 22.5zM146.5 -207.5q-48.5 24.5 -75 68t-26.5 97.5q0 53 25.5 90.5t67.5 77.5q33 30 47 55t14 57v44h111v-56q0 -46 -19.5 -79.5t-69.5 -78.5q-35 -32 -50 -54
t-15 -53q0 -39 26.5 -64t71.5 -25q44 0 71 26t40 64l99 -42q-20 -60 -73 -106t-135 -46q-61 0 -109.5 24.5z" />
    <glyph glyph-name="Agrave" unicode="&#xc0;" horiz-adv-x="696" 
d="M284 716h128l269 -716h-124l-64 183h-289l-65 -183h-124zM455 287l-76 213l-28 83h-6l-28 -83l-76 -213h214zM222 904h124l48 -132h-92z" />
    <glyph glyph-name="Aacute" unicode="&#xc1;" horiz-adv-x="696" 
d="M284 716h128l269 -716h-124l-64 183h-289l-65 -183h-124zM455 287l-76 213l-28 83h-6l-28 -83l-76 -213h214zM349 904h125l-80 -132h-92z" />
    <glyph glyph-name="Acircumflex" unicode="&#xc2;" horiz-adv-x="696" 
d="M284 716h128l269 -716h-124l-64 183h-289l-65 -183h-124zM455 287l-76 213l-28 83h-6l-28 -83l-76 -213h214zM192 785l108 121h96l108 -121v-7h-106l-45 60h-10l-45 -60h-106v7z" />
    <glyph glyph-name="Atilde" unicode="&#xc3;" horiz-adv-x="696" 
d="M284 716h128l269 -716h-124l-64 183h-289l-65 -183h-124zM455 287l-76 213l-28 83h-6l-28 -83l-76 -213h214zM367.5 783q-19.5 8 -41.5 21q-4 2 -16.5 8.5t-20.5 6.5q-27 0 -30 -32h-83q0 59 34 90.5t79 31.5q20 0 38 -7.5t46 -21.5q4 -2 15.5 -8.5t18.5 -6.5q29 0 30 32
h84q0 -59 -34.5 -90.5t-79.5 -31.5q-20 0 -39.5 8z" />
    <glyph glyph-name="Adieresis" unicode="&#xc4;" horiz-adv-x="696" 
d="M284 716h128l269 -716h-124l-64 183h-289l-65 -183h-124zM455 287l-76 213l-28 83h-6l-28 -83l-76 -213h214zM214 798q-19 19 -19 45q0 27 19 45.5t45 18.5q27 0 45.5 -18.5t18.5 -45.5q0 -26 -18.5 -45t-45.5 -19q-26 0 -45 19zM393 798q-19 19 -19 45q0 27 18.5 45.5
t44.5 18.5q28 0 46 -18.5t18 -45.5q0 -26 -18.5 -45t-45.5 -19q-25 0 -44 19z" />
    <glyph glyph-name="Aring" unicode="&#xc5;" horiz-adv-x="696" 
d="M681 0h-124l-64 183h-289l-65 -183h-124l253 672q-17 16 -26.5 38t-9.5 46q0 49 33.5 82.5t82.5 33.5q48 0 82 -34t34 -82q0 -49 -36 -83zM320 784.5q-12 -11.5 -12 -28.5q0 -16 12 -28t28 -12q17 0 28.5 12t11.5 28q0 17 -11.5 28.5t-28.5 11.5q-16 0 -28 -11.5z
M455 287l-76 213l-28 83h-6l-28 -83l-76 -213h214z" />
    <glyph glyph-name="AE" unicode="&#xc6;" horiz-adv-x="989" 
d="M432 716h500v-107h-323v-198h291v-106h-291v-198h323v-107h-435v184h-251l-107 -184h-132zM497 290v319h-7l-32 -59l-151 -260h190z" />
    <glyph glyph-name="Ccedilla" unicode="&#xc7;" horiz-adv-x="748" 
d="M584.5 20q-70.5 -34 -155.5 -36l-14 -32q12 2 19 2q38 0 65 -26.5t27 -68.5q0 -40 -29.5 -68t-74.5 -28q-33 0 -59 18.5t-37 47.5l58 25q4 -13 14 -22t24 -9q17 0 27.5 10.5t10.5 25.5q0 16 -10.5 27.5t-27.5 11.5t-30 -15l-53 24l30 80q-92 12 -165.5 63t-115.5 131.5
t-42 176.5q0 104 49 190t135 135t190 49q81 0 147.5 -30t117.5 -87l-80 -77q-37 44 -82 65.5t-103 21.5q-72 0 -131.5 -33t-94.5 -93.5t-35 -140.5t35 -140.5t94.5 -93.5t131.5 -33q120 0 204 100l81 -78q-50 -59 -120.5 -93z" />
    <glyph glyph-name="Egrave" unicode="&#xc8;" horiz-adv-x="574" 
d="M82 716h435v-107h-323v-198h291v-106h-291v-198h323v-107h-435v716zM173 904h124l48 -132h-92z" />
    <glyph glyph-name="Eacute" unicode="&#xc9;" horiz-adv-x="574" 
d="M82 716h435v-107h-323v-198h291v-106h-291v-198h323v-107h-435v716zM300 904h125l-80 -132h-92z" />
    <glyph glyph-name="Ecircumflex" unicode="&#xca;" horiz-adv-x="574" 
d="M82 716h435v-107h-323v-198h291v-106h-291v-198h323v-107h-435v716zM143 785l108 121h96l108 -121v-7h-106l-45 60h-10l-45 -60h-106v7z" />
    <glyph glyph-name="Edieresis" unicode="&#xcb;" horiz-adv-x="574" 
d="M82 716h435v-107h-323v-198h291v-106h-291v-198h323v-107h-435v716zM165 798q-19 19 -19 45q0 27 19 45.5t45 18.5q27 0 45.5 -18.5t18.5 -45.5q0 -26 -18.5 -45t-45.5 -19q-26 0 -45 19zM344 798q-19 19 -19 45q0 27 18.5 45.5t44.5 18.5q28 0 46 -18.5t18 -45.5
q0 -26 -18.5 -45t-45.5 -19q-25 0 -44 19z" />
    <glyph glyph-name="Igrave" unicode="&#xcc;" horiz-adv-x="275" 
d="M82 716h112v-716h-112v716zM12 904h124l48 -132h-92z" />
    <glyph glyph-name="Iacute" unicode="&#xcd;" horiz-adv-x="275" 
d="M82 716h112v-716h-112v716zM139 904h125l-80 -132h-92z" />
    <glyph glyph-name="Icircumflex" unicode="&#xce;" horiz-adv-x="275" 
d="M82 716h112v-716h-112v716zM-18 785l108 121h96l108 -121v-7h-106l-45 60h-10l-45 -60h-106v7z" />
    <glyph glyph-name="Idieresis" unicode="&#xcf;" horiz-adv-x="275" 
d="M17 800q-19 19 -19 44q0 26 19 44t44 18q27 0 45 -18t18 -44t-18 -44.5t-45 -18.5q-25 0 -44 19zM170.5 800q-18.5 19 -18.5 44q0 26 18.5 44t43.5 18q27 0 45 -18t18 -44t-18 -44.5t-45 -18.5q-25 0 -43.5 19zM82 716h112v-716h-112v716z" />
    <glyph glyph-name="Eth" unicode="&#xd0;" horiz-adv-x="779" 
d="M138 311h-76v92h76v313h230q111 0 193.5 -45t127 -126.5t44.5 -186.5t-44.5 -186.5t-127 -126.5t-193.5 -45h-230v311zM365 107q120 0 187.5 66.5t67.5 184.5q0 117 -67.5 184t-187.5 67h-115v-206h192v-92h-192v-204h115z" />
    <glyph glyph-name="Ntilde" unicode="&#xd1;" horiz-adv-x="728" 
d="M82 716h133l320 -521h6l-6 138v383h111v-716h-117l-336 548h-6l6 -138v-410h-111v716zM394.5 783q-19.5 8 -41.5 21q-4 2 -16.5 8.5t-20.5 6.5q-27 0 -30 -32h-83q0 59 34 90.5t79 31.5q20 0 38 -7.5t46 -21.5q4 -2 15.5 -8.5t18.5 -6.5q29 0 30 32h84q0 -59 -34.5 -90.5
t-79.5 -31.5q-20 0 -39.5 8z" />
    <glyph glyph-name="Ograve" unicode="&#xd2;" horiz-adv-x="834" 
d="M228 33.5q-85 49.5 -133.5 135.5t-48.5 189t48.5 188.5t133.5 135.5t189 50t188.5 -50t133.5 -135.5t49 -188.5t-48.5 -189t-133.5 -135.5t-189 -49.5t-189 49.5zM547 125q59 34 93 94.5t34 138.5t-34 138.5t-93 94.5t-130 34t-130 -34t-93.5 -94.5t-34.5 -138.5
t34.5 -138.5t93.5 -94.5t130 -34t130 34zM291 904h124l48 -132h-92z" />
    <glyph glyph-name="Oacute" unicode="&#xd3;" horiz-adv-x="834" 
d="M228 33.5q-85 49.5 -133.5 135.5t-48.5 189t48.5 188.5t133.5 135.5t189 50t188.5 -50t133.5 -135.5t49 -188.5t-48.5 -189t-133.5 -135.5t-189 -49.5t-189 49.5zM547 125q59 34 93 94.5t34 138.5t-34 138.5t-93 94.5t-130 34t-130 -34t-93.5 -94.5t-34.5 -138.5
t34.5 -138.5t93.5 -94.5t130 -34t130 34zM418 904h125l-80 -132h-92z" />
    <glyph glyph-name="Ocircumflex" unicode="&#xd4;" horiz-adv-x="834" 
d="M228 33.5q-85 49.5 -133.5 135.5t-48.5 189t48.5 188.5t133.5 135.5t189 50t188.5 -50t133.5 -135.5t49 -188.5t-48.5 -189t-133.5 -135.5t-189 -49.5t-189 49.5zM547 125q59 34 93 94.5t34 138.5t-34 138.5t-93 94.5t-130 34t-130 -34t-93.5 -94.5t-34.5 -138.5
t34.5 -138.5t93.5 -94.5t130 -34t130 34zM261 785l108 121h96l108 -121v-7h-106l-45 60h-10l-45 -60h-106v7z" />
    <glyph glyph-name="Otilde" unicode="&#xd5;" horiz-adv-x="834" 
d="M228 33.5q-85 49.5 -133.5 135.5t-48.5 189t48.5 188.5t133.5 135.5t189 50t188.5 -50t133.5 -135.5t49 -188.5t-48.5 -189t-133.5 -135.5t-189 -49.5t-189 49.5zM547 125q59 34 93 94.5t34 138.5t-34 138.5t-93 94.5t-130 34t-130 -34t-93.5 -94.5t-34.5 -138.5
t34.5 -138.5t93.5 -94.5t130 -34t130 34zM436.5 783q-19.5 8 -41.5 21q-4 2 -16.5 8.5t-20.5 6.5q-27 0 -30 -32h-83q0 59 34 90.5t79 31.5q20 0 38 -7.5t46 -21.5q4 -2 15.5 -8.5t18.5 -6.5q29 0 30 32h84q0 -59 -34.5 -90.5t-79.5 -31.5q-20 0 -39.5 8z" />
    <glyph glyph-name="Odieresis" unicode="&#xd6;" horiz-adv-x="834" 
d="M228 33.5q-85 49.5 -133.5 135.5t-48.5 189t48.5 188.5t133.5 135.5t189 50t188.5 -50t133.5 -135.5t49 -188.5t-48.5 -189t-133.5 -135.5t-189 -49.5t-189 49.5zM547 125q59 34 93 94.5t34 138.5t-34 138.5t-93 94.5t-130 34t-130 -34t-93.5 -94.5t-34.5 -138.5
t34.5 -138.5t93.5 -94.5t130 -34t130 34zM283 798q-19 19 -19 45q0 27 19 45.5t45 18.5q27 0 45.5 -18.5t18.5 -45.5q0 -26 -18.5 -45t-45.5 -19q-26 0 -45 19zM462 798q-19 19 -19 45q0 27 18.5 45.5t44.5 18.5q28 0 46 -18.5t18 -45.5q0 -26 -18.5 -45t-45.5 -19
q-25 0 -44 19z" />
    <glyph glyph-name="multiply" unicode="&#xd7;" horiz-adv-x="588" 
d="M67 115l161 156l-161 156l65 65l162 -157l162 157l65 -65l-161 -156l161 -156l-65 -65l-162 157l-162 -157z" />
    <glyph glyph-name="Oslash" unicode="&#xd8;" horiz-adv-x="834" 
d="M752 522q36 -76 36 -164q0 -103 -48.5 -189t-133.5 -135.5t-189 -49.5q-85 0 -159 34l-37 -60l-76 49l37 59q-64 52 -100 128t-36 164q0 103 48.5 188.5t133.5 135.5t189 50q86 0 159 -35l38 61l75 -49l-37 -59q64 -52 100 -128zM180.5 246q21.5 -51 59.5 -87l279 446
q-49 20 -102 20q-71 0 -130 -34t-93.5 -94.5t-34.5 -138.5q0 -61 21.5 -112zM547 125q59 34 93 94.5t34 138.5q0 60 -21 111t-59 87l-278 -446q49 -19 101 -19q71 0 130 34z" />
    <glyph glyph-name="Ugrave" unicode="&#xd9;" horiz-adv-x="680" 
d="M198.5 20q-61.5 36 -95.5 102t-34 153v441h111v-447q0 -79 41.5 -128.5t118.5 -49.5t118 49t41 129v447h112v-441q0 -86 -33 -152t-94 -102.5t-144 -36.5q-80 0 -141.5 36zM214 904h124l48 -132h-92z" />
    <glyph glyph-name="Uacute" unicode="&#xda;" horiz-adv-x="680" 
d="M198.5 20q-61.5 36 -95.5 102t-34 153v441h111v-447q0 -79 41.5 -128.5t118.5 -49.5t118 49t41 129v447h112v-441q0 -86 -33 -152t-94 -102.5t-144 -36.5q-80 0 -141.5 36zM341 904h125l-80 -132h-92z" />
    <glyph glyph-name="Ucircumflex" unicode="&#xdb;" horiz-adv-x="680" 
d="M198.5 20q-61.5 36 -95.5 102t-34 153v441h111v-447q0 -79 41.5 -128.5t118.5 -49.5t118 49t41 129v447h112v-441q0 -86 -33 -152t-94 -102.5t-144 -36.5q-80 0 -141.5 36zM184 785l108 121h96l108 -121v-7h-106l-45 60h-10l-45 -60h-106v7z" />
    <glyph glyph-name="Udieresis" unicode="&#xdc;" horiz-adv-x="680" 
d="M198.5 20q-61.5 36 -95.5 102t-34 153v441h111v-447q0 -79 41.5 -128.5t118.5 -49.5t118 49t41 129v447h112v-441q0 -86 -33 -152t-94 -102.5t-144 -36.5q-80 0 -141.5 36zM206 798q-19 19 -19 45q0 27 19 45.5t45 18.5q27 0 45.5 -18.5t18.5 -45.5q0 -26 -18.5 -45
t-45.5 -19q-26 0 -45 19zM385 798q-19 19 -19 45q0 27 18.5 45.5t44.5 18.5q28 0 46 -18.5t18 -45.5q0 -26 -18.5 -45t-45.5 -19q-25 0 -44 19z" />
    <glyph glyph-name="Yacute" unicode="&#xdd;" horiz-adv-x="619" 
d="M256 333l-241 383h133l161 -266h6l156 266h134l-237 -383v-333h-112v333zM310 904h125l-80 -132h-92z" />
    <glyph glyph-name="Thorn" unicode="&#xde;" horiz-adv-x="595" 
d="M82 716h112v-116h136q63 0 116.5 -28t85 -78t31.5 -113t-31.5 -113t-85 -78t-116.5 -28h-136v-162h-112v716zM332 268q37 0 64 16.5t41 42.5t14 54t-14 54t-41 42.5t-64 16.5h-138v-226h138z" />
    <glyph glyph-name="germandbls" unicode="&#xdf;" horiz-adv-x="590" 
d="M264 -4v103q30 -5 52 -5q52 0 87 34t35 86q0 33 -18.5 60.5t-49 43t-65.5 15.5h-32v99h23q52 0 81.5 28t29.5 74q0 41 -30.5 68t-74.5 27q-52 0 -81 -32.5t-29 -85.5v-511h-112v512q0 63 26.5 113t77 78.5t118.5 28.5q61 0 110 -24.5t76.5 -68.5t27.5 -100q0 -52 -23 -90
t-60 -59v-6q54 -23 85 -67t31 -108q0 -63 -29.5 -112.5t-82 -77t-118.5 -27.5q-28 0 -55 4z" />
    <glyph glyph-name="agrave" unicode="&#xe0;" horiz-adv-x="547" 
d="M126 5.5q-43 21.5 -67 61t-24 89.5q0 79 59.5 125t150.5 46q45 0 81 -8.5t57 -18.5v26q0 47 -35 76.5t-90 29.5q-39 0 -73.5 -17t-55.5 -47l-77 59q34 47 88 73t120 26q111 0 171 -54.5t60 -153.5v-318h-108v61h-5q-22 -33 -62 -55t-92 -22q-55 0 -98 21.5zM315 94
q32 19 50 51t18 69q-23 13 -53.5 21t-63.5 8q-62 0 -91 -24.5t-29 -63.5q0 -35 27 -57.5t70 -22.5q40 0 72 19zM142 739h124l48 -131h-92z" />
    <glyph glyph-name="aacute" unicode="&#xe1;" horiz-adv-x="547" 
d="M126 5.5q-43 21.5 -67 61t-24 89.5q0 79 59.5 125t150.5 46q45 0 81 -8.5t57 -18.5v26q0 47 -35 76.5t-90 29.5q-39 0 -73.5 -17t-55.5 -47l-77 59q34 47 88 73t120 26q111 0 171 -54.5t60 -153.5v-318h-108v61h-5q-22 -33 -62 -55t-92 -22q-55 0 -98 21.5zM315 94
q32 19 50 51t18 69q-23 13 -53.5 21t-63.5 8q-62 0 -91 -24.5t-29 -63.5q0 -35 27 -57.5t70 -22.5q40 0 72 19zM269 739h125l-80 -131h-92z" />
    <glyph glyph-name="acircumflex" unicode="&#xe2;" horiz-adv-x="547" 
d="M126 5.5q-43 21.5 -67 61t-24 89.5q0 79 59.5 125t150.5 46q45 0 81 -8.5t57 -18.5v26q0 47 -35 76.5t-90 29.5q-39 0 -73.5 -17t-55.5 -47l-77 59q34 47 88 73t120 26q111 0 171 -54.5t60 -153.5v-318h-108v61h-5q-22 -33 -62 -55t-92 -22q-55 0 -98 21.5zM315 94
q32 19 50 51t18 69q-23 13 -53.5 21t-63.5 8q-62 0 -91 -24.5t-29 -63.5q0 -35 27 -57.5t70 -22.5q40 0 72 19zM112 615l108 121h96l108 -121v-7h-106l-45 59h-10l-45 -59h-106v7z" />
    <glyph glyph-name="atilde" unicode="&#xe3;" horiz-adv-x="547" 
d="M126 5.5q-43 21.5 -67 61t-24 89.5q0 79 59.5 125t150.5 46q45 0 81 -8.5t57 -18.5v26q0 47 -35 76.5t-90 29.5q-39 0 -73.5 -17t-55.5 -47l-77 59q34 47 88 73t120 26q111 0 171 -54.5t60 -153.5v-318h-108v61h-5q-22 -33 -62 -55t-92 -22q-55 0 -98 21.5zM315 94
q32 19 50 51t18 69q-23 13 -53.5 21t-63.5 8q-62 0 -91 -24.5t-29 -63.5q0 -35 27 -57.5t70 -22.5q40 0 72 19zM287.5 619q-19.5 8 -41.5 21q-4 2 -16.5 8.5t-20.5 6.5q-27 0 -30 -33h-83q0 60 34 91.5t79 31.5q20 0 38 -7.5t46 -21.5q4 -2 15.5 -8.5t18.5 -6.5q29 0 30 32
h84q0 -59 -34.5 -90.5t-79.5 -31.5q-20 0 -39.5 8z" />
    <glyph glyph-name="adieresis" unicode="&#xe4;" horiz-adv-x="547" 
d="M126 5.5q-43 21.5 -67 61t-24 89.5q0 79 59.5 125t150.5 46q45 0 81 -8.5t57 -18.5v26q0 47 -35 76.5t-90 29.5q-39 0 -73.5 -17t-55.5 -47l-77 59q34 47 88 73t120 26q111 0 171 -54.5t60 -153.5v-318h-108v61h-5q-22 -33 -62 -55t-92 -22q-55 0 -98 21.5zM315 94
q32 19 50 51t18 69q-23 13 -53.5 21t-63.5 8q-62 0 -91 -24.5t-29 -63.5q0 -35 27 -57.5t70 -22.5q40 0 72 19zM134 634q-19 19 -19 45q0 27 18.5 45t45.5 18t45.5 -18t18.5 -45q0 -26 -18.5 -45t-45.5 -19q-26 0 -45 19zM312.5 634q-18.5 19 -18.5 45q0 27 18.5 45t44.5 18
q28 0 46 -18t18 -45t-18.5 -45.5t-45.5 -18.5q-26 0 -44.5 19z" />
    <glyph glyph-name="aring" unicode="&#xe5;" horiz-adv-x="547" 
d="M126 5.5q-43 21.5 -67 61t-24 89.5q0 79 59.5 125t150.5 46q45 0 81 -8.5t57 -18.5v26q0 47 -35 76.5t-90 29.5q-39 0 -73.5 -17t-55.5 -47l-77 59q34 47 88 73t120 26q111 0 171 -54.5t60 -153.5v-318h-108v61h-5q-22 -33 -62 -55t-92 -22q-55 0 -98 21.5zM315 94
q32 19 50 51t18 69q-23 13 -53.5 21t-63.5 8q-62 0 -91 -24.5t-29 -63.5q0 -35 27 -57.5t70 -22.5q40 0 72 19zM193 617q-31 31 -31 75t31 74.5t75 30.5t75 -30.5t31 -74.5t-31 -75t-75 -31t-75 31zM296 663.5q12 12.5 12 28.5t-12 27.5t-28 11.5t-28 -11.5t-12 -27.5
q0 -17 12 -29t28 -12t28 12.5z" />
    <glyph glyph-name="ae" unicode="&#xe6;" horiz-adv-x="920" 
d="M127 5.5q-44 21.5 -68 61t-24 89.5q0 79 59.5 125t150.5 46q45 0 80.5 -8.5t57.5 -19.5v24q0 49 -33.5 79t-88.5 30q-38 0 -65 -17t-42 -47l-88 42q25 55 77.5 85.5t118.5 30.5q131 0 191 -88q31 41 77.5 64t103.5 23q78 0 134 -33.5t85.5 -92.5t29.5 -133q0 -24 -3 -35
h-391q6 -71 50.5 -109.5t103.5 -38.5q48 0 82.5 21.5t55.5 58.5l92 -44q-36 -63 -94 -99t-139 -36q-68 0 -122 31t-87 84q-39 -60 -88.5 -87.5t-114.5 -27.5q-57 0 -101 21.5zM772 315q-2 27 -17.5 53.5t-46 44t-74.5 17.5q-53 0 -89 -31t-50 -84h277zM315 94q32 19 50 51
t18 69q-23 13 -53.5 21t-63.5 8q-62 0 -91 -24.5t-29 -63.5q0 -35 27 -57.5t70 -22.5q40 0 72 19z" />
    <glyph glyph-name="ccedilla" unicode="&#xe7;" horiz-adv-x="561" 
d="M446.5 24q-56.5 -38 -136.5 -40l-14 -32q12 2 19 2q38 0 65 -26.5t27 -68.5q0 -40 -29.5 -68t-74.5 -28q-33 0 -59 18.5t-37 47.5l58 25q4 -13 14 -22t24 -9q17 0 27.5 10.5t10.5 25.5q0 16 -10.5 27.5t-27.5 11.5t-30 -15l-53 24l31 81q-64 11 -112.5 47.5t-75.5 93.5
t-27 126q0 78 33.5 139.5t94 96.5t136.5 35q84 0 143 -38t84 -103l-101 -42q-34 81 -129 81q-41 0 -75.5 -21t-55 -59.5t-20.5 -88.5t20.5 -89t55 -60t75.5 -21q48 0 82.5 21.5t52.5 61.5l99 -43q-28 -63 -84.5 -101z" />
    <glyph glyph-name="egrave" unicode="&#xe8;" horiz-adv-x="576" 
d="M162.5 19q-59.5 35 -93 96.5t-33.5 138.5q0 73 32.5 135.5t90.5 99.5t132 37q77 0 133.5 -34t86 -93t29.5 -133q0 -14 -3 -35h-391q6 -71 50.5 -109.5t103.5 -38.5q47 0 81.5 21.5t55.5 58.5l93 -44q-36 -63 -94 -99t-139 -36q-75 0 -134.5 35zM428 315q-2 27 -17 53.5
t-45.5 44.5t-74.5 18q-53 0 -89.5 -31.5t-50.5 -84.5h277zM165 739h124l48 -131h-92z" />
    <glyph glyph-name="eacute" unicode="&#xe9;" horiz-adv-x="576" 
d="M162.5 19q-59.5 35 -93 96.5t-33.5 138.5q0 73 32.5 135.5t90.5 99.5t132 37q77 0 133.5 -34t86 -93t29.5 -133q0 -14 -3 -35h-391q6 -71 50.5 -109.5t103.5 -38.5q47 0 81.5 21.5t55.5 58.5l93 -44q-36 -63 -94 -99t-139 -36q-75 0 -134.5 35zM428 315q-2 27 -17 53.5
t-45.5 44.5t-74.5 18q-53 0 -89.5 -31.5t-50.5 -84.5h277zM292 739h125l-80 -131h-92z" />
    <glyph glyph-name="ecircumflex" unicode="&#xea;" horiz-adv-x="576" 
d="M162.5 19q-59.5 35 -93 96.5t-33.5 138.5q0 73 32.5 135.5t90.5 99.5t132 37q77 0 133.5 -34t86 -93t29.5 -133q0 -14 -3 -35h-391q6 -71 50.5 -109.5t103.5 -38.5q47 0 81.5 21.5t55.5 58.5l93 -44q-36 -63 -94 -99t-139 -36q-75 0 -134.5 35zM428 315q-2 27 -17 53.5
t-45.5 44.5t-74.5 18q-53 0 -89.5 -31.5t-50.5 -84.5h277zM135 615l108 121h96l108 -121v-7h-106l-45 59h-10l-45 -59h-106v7z" />
    <glyph glyph-name="edieresis" unicode="&#xeb;" horiz-adv-x="576" 
d="M162.5 19q-59.5 35 -93 96.5t-33.5 138.5q0 73 32.5 135.5t90.5 99.5t132 37q77 0 133.5 -34t86 -93t29.5 -133q0 -14 -3 -35h-391q6 -71 50.5 -109.5t103.5 -38.5q47 0 81.5 21.5t55.5 58.5l93 -44q-36 -63 -94 -99t-139 -36q-75 0 -134.5 35zM428 315q-2 27 -17 53.5
t-45.5 44.5t-74.5 18q-53 0 -89.5 -31.5t-50.5 -84.5h277zM157 634q-19 19 -19 45q0 27 18.5 45t45.5 18t45.5 -18t18.5 -45q0 -26 -18.5 -45t-45.5 -19q-26 0 -45 19zM335.5 634q-18.5 19 -18.5 45q0 27 18.5 45t44.5 18q28 0 46 -18t18 -45t-18.5 -45.5t-45.5 -18.5
q-26 0 -44.5 19z" />
    <glyph glyph-name="igrave" unicode="&#xec;" horiz-adv-x="255" 
d="M72 510h110v-510h-110v510zM1 739h124l48 -131h-92z" />
    <glyph glyph-name="iacute" unicode="&#xed;" horiz-adv-x="255" 
d="M72 510h110v-510h-110v510zM128 739h125l-80 -131h-92z" />
    <glyph glyph-name="icircumflex" unicode="&#xee;" horiz-adv-x="255" 
d="M72 510h110v-510h-110v510zM-29 615l108 121h96l108 -121v-7h-106l-45 59h-10l-45 -59h-106v7z" />
    <glyph glyph-name="idieresis" unicode="&#xef;" horiz-adv-x="255" 
d="M8 635q-19 19 -19 44q0 26 19 44t44 18q26 0 44.5 -18t18.5 -44t-18.5 -44.5t-44.5 -18.5q-25 0 -44 19zM159 635q-19 19 -19 44q0 26 18.5 44t44.5 18t44 -18t18 -44t-18 -44.5t-44 -18.5q-25 0 -44 19zM72 510h110v-510h-110v510z" />
    <glyph glyph-name="eth" unicode="&#xf0;" horiz-adv-x="595" 
d="M170.5 18.5q-57.5 34.5 -90.5 93t-33 127.5q0 71 33 129t88 90.5t117 32.5q39 0 70.5 -13t50.5 -31l5 4q-14 34 -36 59.5t-53 47.5l-121 -53l-31 73l69 30q-53 24 -101 34l36 88q99 -26 172 -74l102 45l31 -72l-63 -29q66 -64 99 -151t33 -190q0 -81 -32 -143.5
t-89.5 -97t-130.5 -34.5q-68 0 -125.5 34.5zM367.5 105.5q32.5 19.5 51.5 54t19 79.5q0 44 -19 78.5t-51 54t-70 19.5q-39 0 -71.5 -19.5t-51.5 -54t-19 -78.5t19 -79t51 -54.5t70 -19.5q39 0 71.5 19.5z" />
    <glyph glyph-name="ntilde" unicode="&#xf1;" horiz-adv-x="582" 
d="M64 510h105v-67h5q22 36 65.5 59.5t92.5 23.5q93 0 141.5 -54.5t48.5 -148.5v-323h-110v308q0 60 -29.5 88t-81.5 28q-37 0 -66 -20.5t-45 -54.5t-16 -73v-276h-110v510zM323.5 619q-19.5 8 -41.5 21q-4 2 -16.5 8.5t-20.5 6.5q-27 0 -30 -33h-83q0 60 34 91.5t79 31.5
q20 0 38 -7.5t46 -21.5q4 -2 15.5 -8.5t18.5 -6.5q29 0 30 32h84q0 -59 -34.5 -90.5t-79.5 -31.5q-20 0 -39.5 8z" />
    <glyph glyph-name="ograve" unicode="&#xf2;" horiz-adv-x="607" 
d="M165 19.5q-61 35.5 -95 97.5t-34 138t34 138t95 97.5t138 35.5t138 -36t95 -98t34 -137q0 -76 -34 -138t-95 -97.5t-138 -35.5t-138 35.5zM381 105.5q36 20.5 57.5 59t21.5 90.5t-21.5 90t-57.5 58.5t-78 20.5t-78 -20.5t-57.5 -58.5t-21.5 -90t21.5 -90.5t57.5 -59
t78 -20.5t78 20.5zM177 739h124l48 -131h-92z" />
    <glyph glyph-name="oacute" unicode="&#xf3;" horiz-adv-x="607" 
d="M165 19.5q-61 35.5 -95 97.5t-34 138t34 138t95 97.5t138 35.5t138 -36t95 -98t34 -137q0 -76 -34 -138t-95 -97.5t-138 -35.5t-138 35.5zM381 105.5q36 20.5 57.5 59t21.5 90.5t-21.5 90t-57.5 58.5t-78 20.5t-78 -20.5t-57.5 -58.5t-21.5 -90t21.5 -90.5t57.5 -59
t78 -20.5t78 20.5zM304 739h125l-80 -131h-92z" />
    <glyph glyph-name="ocircumflex" unicode="&#xf4;" horiz-adv-x="607" 
d="M165 19.5q-61 35.5 -95 97.5t-34 138t34 138t95 97.5t138 35.5t138 -36t95 -98t34 -137q0 -76 -34 -138t-95 -97.5t-138 -35.5t-138 35.5zM381 105.5q36 20.5 57.5 59t21.5 90.5t-21.5 90t-57.5 58.5t-78 20.5t-78 -20.5t-57.5 -58.5t-21.5 -90t21.5 -90.5t57.5 -59
t78 -20.5t78 20.5zM147 615l108 121h96l108 -121v-7h-106l-45 59h-10l-45 -59h-106v7z" />
    <glyph glyph-name="otilde" unicode="&#xf5;" horiz-adv-x="607" 
d="M165 19.5q-61 35.5 -95 97.5t-34 138t34 138t95 97.5t138 35.5t138 -36t95 -98t34 -137q0 -76 -34 -138t-95 -97.5t-138 -35.5t-138 35.5zM381 105.5q36 20.5 57.5 59t21.5 90.5t-21.5 90t-57.5 58.5t-78 20.5t-78 -20.5t-57.5 -58.5t-21.5 -90t21.5 -90.5t57.5 -59
t78 -20.5t78 20.5zM322.5 619q-19.5 8 -41.5 21q-4 2 -16.5 8.5t-20.5 6.5q-27 0 -30 -33h-83q0 60 34 91.5t79 31.5q20 0 38 -7.5t46 -21.5q4 -2 15.5 -8.5t18.5 -6.5q29 0 30 32h84q0 -59 -34.5 -90.5t-79.5 -31.5q-20 0 -39.5 8z" />
    <glyph glyph-name="odieresis" unicode="&#xf6;" horiz-adv-x="607" 
d="M165 19.5q-61 35.5 -95 97.5t-34 138t34 138t95 97.5t138 35.5t138 -36t95 -98t34 -137q0 -76 -34 -138t-95 -97.5t-138 -35.5t-138 35.5zM381 105.5q36 20.5 57.5 59t21.5 90.5t-21.5 90t-57.5 58.5t-78 20.5t-78 -20.5t-57.5 -58.5t-21.5 -90t21.5 -90.5t57.5 -59
t78 -20.5t78 20.5zM169 634q-19 19 -19 45q0 27 18.5 45t45.5 18t45.5 -18t18.5 -45q0 -26 -18.5 -45t-45.5 -19q-26 0 -45 19zM347.5 634q-18.5 19 -18.5 45q0 27 18.5 45t44.5 18q28 0 46 -18t18 -45t-18.5 -45.5t-45.5 -18.5q-26 0 -44.5 19z" />
    <glyph glyph-name="divide" unicode="&#xf7;" horiz-adv-x="559" 
d="M226.5 408q-21.5 22 -21.5 53t21.5 52.5t52.5 21.5t53 -21.5t22 -52.5t-21.5 -53t-53.5 -22q-31 0 -52.5 22zM56 316h447v-90h-447v90zM226.5 28.5q-21.5 21.5 -21.5 52.5t21.5 53t52.5 22q32 0 53.5 -21.5t21.5 -53.5q0 -31 -22 -52.5t-53 -21.5t-52.5 21.5z" />
    <glyph glyph-name="oslash" unicode="&#xf8;" horiz-adv-x="607" 
d="M547 369.5q23 -53.5 23 -114.5q0 -76 -34 -138t-95 -97.5t-138 -35.5q-57 0 -106 20l-26 -41l-73 41l27 44q-42 37 -65.5 91t-23.5 116q0 76 34 138t95 97.5t138 35.5q59 0 107 -21l27 43l73 -42l-28 -45q42 -38 65 -91.5zM181 137l176 283q-25 9 -54 9q-43 0 -80 -21
t-59 -60.5t-22 -92.5q0 -71 39 -118zM383 101q37 21 59.5 60.5t22.5 93.5q0 70 -39 117l-176 -283q26 -9 53 -9q43 0 80 21z" />
    <glyph glyph-name="ugrave" unicode="&#xf9;" horiz-adv-x="582" 
d="M108.5 39.5q-48.5 55.5 -48.5 154.5v316h110v-301q0 -62 29.5 -93t77.5 -31q39 0 69 20.5t46 54.5t16 73v277h110v-510h-104v66h-6q-21 -36 -65 -59t-93 -23q-93 0 -141.5 55.5zM163 739h124l48 -131h-92z" />
    <glyph glyph-name="uacute" unicode="&#xfa;" horiz-adv-x="582" 
d="M108.5 39.5q-48.5 55.5 -48.5 154.5v316h110v-301q0 -62 29.5 -93t77.5 -31q39 0 69 20.5t46 54.5t16 73v277h110v-510h-104v66h-6q-21 -36 -65 -59t-93 -23q-93 0 -141.5 55.5zM290 739h125l-80 -131h-92z" />
    <glyph glyph-name="ucircumflex" unicode="&#xfb;" horiz-adv-x="582" 
d="M108.5 39.5q-48.5 55.5 -48.5 154.5v316h110v-301q0 -62 29.5 -93t77.5 -31q39 0 69 20.5t46 54.5t16 73v277h110v-510h-104v66h-6q-21 -36 -65 -59t-93 -23q-93 0 -141.5 55.5zM133 615l108 121h96l108 -121v-7h-106l-45 59h-10l-45 -59h-106v7z" />
    <glyph glyph-name="udieresis" unicode="&#xfc;" horiz-adv-x="582" 
d="M108.5 39.5q-48.5 55.5 -48.5 154.5v316h110v-301q0 -62 29.5 -93t77.5 -31q39 0 69 20.5t46 54.5t16 73v277h110v-510h-104v66h-6q-21 -36 -65 -59t-93 -23q-93 0 -141.5 55.5zM155 634q-19 19 -19 45q0 27 18.5 45t45.5 18t45.5 -18t18.5 -45q0 -26 -18.5 -45
t-45.5 -19q-26 0 -45 19zM333.5 634q-18.5 19 -18.5 45q0 27 18.5 45t44.5 18q28 0 46 -18t18 -45t-18.5 -45.5t-45.5 -18.5q-26 0 -44.5 19z" />
    <glyph glyph-name="yacute" unicode="&#xfd;" horiz-adv-x="548" 
d="M220 28l-212 482h123l144 -347h4l140 347h121l-315 -726h-116zM275 739h125l-80 -131h-92z" />
    <glyph glyph-name="thorn" unicode="&#xfe;" horiz-adv-x="615" 
d="M62 716h110v-204l-6 -69h6q21 35 64 59t98 24q68 0 124 -35t88.5 -96.5t32.5 -139.5t-32.5 -139.5t-88.5 -96.5t-124 -35q-54 0 -97.5 24t-64.5 58h-6l6 -68v-214h-110v932zM392 106q35 21 56 60t21 89t-21 88.5t-56 59.5t-75 21t-74.5 -21t-55.5 -59.5t-21 -88.5t21 -89
t55.5 -60t74.5 -21t75 21z" />
    <glyph glyph-name="ydieresis" unicode="&#xff;" horiz-adv-x="548" 
d="M220 28l-212 482h123l144 -347h4l140 347h121l-315 -726h-116zM140 634q-19 19 -19 45q0 27 18.5 45t45.5 18t45.5 -18t18.5 -45q0 -26 -18.5 -45t-45.5 -19q-26 0 -45 19zM318.5 634q-18.5 19 -18.5 45q0 27 18.5 45t44.5 18q28 0 46 -18t18 -45t-18.5 -45.5
t-45.5 -18.5q-26 0 -44.5 19z" />
    <glyph glyph-name="Amacron" unicode="&#x100;" horiz-adv-x="696" 
d="M284 716h128l269 -716h-124l-64 183h-289l-65 -183h-124zM455 287l-76 213l-28 83h-6l-28 -83l-76 -213h214zM204 886h287v-86h-287v86z" />
    <glyph glyph-name="amacron" unicode="&#x101;" horiz-adv-x="547" 
d="M126 5.5q-43 21.5 -67 61t-24 89.5q0 79 59.5 125t150.5 46q45 0 81 -8.5t57 -18.5v26q0 47 -35 76.5t-90 29.5q-39 0 -73.5 -17t-55.5 -47l-77 59q34 47 88 73t120 26q111 0 171 -54.5t60 -153.5v-318h-108v61h-5q-22 -33 -62 -55t-92 -22q-55 0 -98 21.5zM315 94
q32 19 50 51t18 69q-23 13 -53.5 21t-63.5 8q-62 0 -91 -24.5t-29 -63.5q0 -35 27 -57.5t70 -22.5q40 0 72 19zM124 721h287v-85h-287v85z" />
    <glyph glyph-name="Abreve" unicode="&#x102;" horiz-adv-x="696" 
d="M284 716h128l269 -716h-124l-64 183h-289l-65 -183h-124zM455 287l-76 213l-28 83h-6l-28 -83l-76 -213h214zM284 784q-31 17 -49.5 47t-18.5 66h83q0 -21 13.5 -36t36.5 -15q22 0 35.5 15t13.5 36h81q0 -37 -18 -66.5t-48 -46.5t-64 -17t-65 17z" />
    <glyph glyph-name="abreve" unicode="&#x103;" horiz-adv-x="547" 
d="M126 5.5q-43 21.5 -67 61t-24 89.5q0 79 59.5 125t150.5 46q45 0 81 -8.5t57 -18.5v26q0 47 -35 76.5t-90 29.5q-39 0 -73.5 -17t-55.5 -47l-77 59q34 47 88 73t120 26q111 0 171 -54.5t60 -153.5v-318h-108v61h-5q-22 -33 -62 -55t-92 -22q-55 0 -98 21.5zM315 94
q32 19 50 51t18 69q-23 13 -53.5 21t-63.5 8q-62 0 -91 -24.5t-29 -63.5q0 -35 27 -57.5t70 -22.5q40 0 72 19zM204 620q-31 17 -49.5 47t-18.5 66h83q0 -21 13.5 -36.5t36.5 -15.5q22 0 35.5 15.5t13.5 36.5h81q0 -37 -18 -66.5t-48 -46.5t-64 -17t-65 17z" />
    <glyph glyph-name="Aogonek" unicode="&#x104;" horiz-adv-x="696" 
d="M549 -191q-34 33 -34 84q0 34 14.5 58t38.5 47l-1 2h-10l-64 183h-289l-65 -183h-124l269 716h128l269 -716q-34 -25 -52 -46t-18 -47q0 -20 11.5 -33t31.5 -13t40 10v-86q-23 -9 -54 -9q-57 0 -91 33zM455 287l-76 213l-28 83h-6l-28 -83l-76 -213h214z" />
    <glyph glyph-name="aogonek" unicode="&#x105;" horiz-adv-x="547" 
d="M358 -191.5q-34 32.5 -34 81.5q0 36 18.5 63t43.5 44l-3 3v61h-5q-22 -33 -62 -55t-92 -22q-55 0 -98 21.5t-67 61t-24 89.5q0 79 59.5 125t150.5 46q45 0 81 -8.5t57 -18.5v26q0 47 -35 76.5t-90 29.5q-39 0 -73.5 -17t-55.5 -47l-77 59q34 47 88 73t120 26
q111 0 171 -54.5t60 -153.5v-318q-34 -24 -52.5 -45.5t-18.5 -47.5q0 -20 12 -33t32 -13q19 0 39 10v-86q-23 -9 -53 -9q-58 0 -92 32.5zM315 94q32 19 50 51t18 69q-23 13 -53.5 21t-63.5 8q-62 0 -91 -24.5t-29 -63.5q0 -35 27 -57.5t70 -22.5q40 0 72 19z" />
    <glyph glyph-name="Cacute" unicode="&#x106;" horiz-adv-x="748" 
d="M230 33q-86 49 -135 135t-49 190t49 190t135 135t190 49q81 0 147.5 -30t117.5 -87l-80 -77q-37 44 -82 65.5t-103 21.5q-72 0 -131.5 -33t-94.5 -93.5t-35 -140.5t35 -140.5t94.5 -93.5t131.5 -33q120 0 204 100l81 -78q-52 -61 -125 -95t-160 -34q-104 0 -190 49z
M413 904h125l-80 -132h-92z" />
    <glyph glyph-name="cacute" unicode="&#x107;" horiz-adv-x="561" 
d="M163.5 19q-60.5 35 -94 96.5t-33.5 139.5t33.5 139.5t94 96.5t136.5 35q84 0 143 -38t84 -103l-101 -42q-34 81 -129 81q-41 0 -75.5 -21t-55 -59.5t-20.5 -88.5t20.5 -89t55 -60t75.5 -21q48 0 82.5 21.5t52.5 61.5l99 -43q-29 -65 -88 -103t-143 -38q-76 0 -136.5 35z
M300 739h125l-80 -131h-92z" />
    <glyph glyph-name="Ccircumflex" unicode="&#x108;" horiz-adv-x="748" 
d="M230 33q-86 49 -135 135t-49 190t49 190t135 135t190 49q81 0 147.5 -30t117.5 -87l-80 -77q-37 44 -82 65.5t-103 21.5q-72 0 -131.5 -33t-94.5 -93.5t-35 -140.5t35 -140.5t94.5 -93.5t131.5 -33q120 0 204 100l81 -78q-52 -61 -125 -95t-160 -34q-104 0 -190 49z
M256 785l108 121h96l108 -121v-7h-106l-45 60h-10l-45 -60h-106v7z" />
    <glyph glyph-name="ccircumflex" unicode="&#x109;" horiz-adv-x="561" 
d="M163.5 19q-60.5 35 -94 96.5t-33.5 139.5t33.5 139.5t94 96.5t136.5 35q84 0 143 -38t84 -103l-101 -42q-34 81 -129 81q-41 0 -75.5 -21t-55 -59.5t-20.5 -88.5t20.5 -89t55 -60t75.5 -21q48 0 82.5 21.5t52.5 61.5l99 -43q-29 -65 -88 -103t-143 -38q-76 0 -136.5 35z
M143 615l108 121h96l108 -121v-7h-106l-45 59h-10l-45 -59h-106v7z" />
    <glyph glyph-name="Cdotaccent" unicode="&#x10a;" horiz-adv-x="748" 
d="M230 33q-86 49 -135 135t-49 190t49 190t135 135t190 49q81 0 147.5 -30t117.5 -87l-80 -77q-37 44 -82 65.5t-103 21.5q-72 0 -131.5 -33t-94.5 -93.5t-35 -140.5t35 -140.5t94.5 -93.5t131.5 -33q120 0 204 100l81 -78q-52 -61 -125 -95t-160 -34q-104 0 -190 49z
M369 813.5q-18 18.5 -18 42.5q0 25 18 43t43 18t42.5 -17.5t17.5 -43.5q0 -24 -17.5 -42.5t-42.5 -18.5t-43 18.5z" />
    <glyph glyph-name="cdotaccent" unicode="&#x10b;" horiz-adv-x="561" 
d="M163.5 19q-60.5 35 -94 96.5t-33.5 139.5t33.5 139.5t94 96.5t136.5 35q84 0 143 -38t84 -103l-101 -42q-34 81 -129 81q-41 0 -75.5 -21t-55 -59.5t-20.5 -88.5t20.5 -89t55 -60t75.5 -21q48 0 82.5 21.5t52.5 61.5l99 -43q-29 -65 -88 -103t-143 -38q-76 0 -136.5 35z
M252.5 629q-19.5 20 -19.5 46q0 28 19.5 47t46.5 19q28 0 46.5 -19t18.5 -47q0 -27 -19 -46.5t-46 -19.5t-46.5 20z" />
    <glyph glyph-name="Ccaron" unicode="&#x10c;" horiz-adv-x="748" 
d="M230 33q-86 49 -135 135t-49 190t49 190t135 135t190 49q81 0 147.5 -30t117.5 -87l-80 -77q-37 44 -82 65.5t-103 21.5q-72 0 -131.5 -33t-94.5 -93.5t-35 -140.5t35 -140.5t94.5 -93.5t131.5 -33q120 0 204 100l81 -78q-52 -61 -125 -95t-160 -34q-104 0 -190 49z
M256 899v7h106l45 -59h10l45 59h106v-7l-108 -121h-96z" />
    <glyph glyph-name="ccaron" unicode="&#x10d;" horiz-adv-x="561" 
d="M163.5 19q-60.5 35 -94 96.5t-33.5 139.5t33.5 139.5t94 96.5t136.5 35q84 0 143 -38t84 -103l-101 -42q-34 81 -129 81q-41 0 -75.5 -21t-55 -59.5t-20.5 -88.5t20.5 -89t55 -60t75.5 -21q48 0 82.5 21.5t52.5 61.5l99 -43q-29 -65 -88 -103t-143 -38q-76 0 -136.5 35z
M143 729v7h106l45 -60h10l45 60h106v-7l-108 -121h-96z" />
    <glyph glyph-name="Dcaron" unicode="&#x10e;" horiz-adv-x="723" 
d="M82 716h229q111 0 194 -45t127.5 -126.5t44.5 -186.5t-44.5 -186.5t-127.5 -126.5t-194 -45h-229v716zM309 107q120 0 187.5 66.5t67.5 184.5q0 117 -67.5 184t-187.5 67h-115v-502h115zM179 899v7h106l45 -59h10l45 59h106v-7l-108 -121h-96z" />
    <glyph glyph-name="dcaron" unicode="&#x10f;" horiz-adv-x="715" 
d="M157 19q-56 35 -88.5 96.5t-32.5 139.5t32.5 139.5t88.5 96.5t125 35q54 0 97 -24t65 -59h5l-5 72v201h110v-716h-105v66h-5q-22 -34 -65 -58t-97 -24q-69 0 -125 35zM372.5 106q34.5 21 55.5 60t21 89t-21 88.5t-55.5 59.5t-74.5 21t-75 -21t-56 -59.5t-21 -88.5t21 -89
t56 -60t75 -21t74.5 21zM613 716h118l-37 -195h-81v195z" />
    <glyph glyph-name="Dcroat" unicode="&#x110;" horiz-adv-x="718" 
d="M77 327h-77v90h77v299h230q111 0 193.5 -45t127 -126.5t44.5 -186.5t-44.5 -186.5t-127 -126.5t-193.5 -45h-230v327zM304 107q121 0 188 66.5t67 184.5t-67 184.5t-188 66.5h-115v-192h182v-90h-182v-220h115z" />
    <glyph glyph-name="dcroat" unicode="&#x111;" horiz-adv-x="616" 
d="M615 576h-61v-576h-105v66h-5q-22 -34 -65 -58t-97 -24q-69 0 -125 35t-88.5 96.5t-32.5 139.5t32.5 139.5t88.5 96.5t125 35q54 0 97 -24t65 -59h5l-5 69v64h-145v81h145v59h110v-59h61v-81zM372.5 106q34.5 21 55.5 60t21 89t-21 88.5t-55.5 59.5t-74.5 21t-75 -21
t-56 -59.5t-21 -88.5t21 -89t56 -60t75 -21t74.5 21z" />
    <glyph glyph-name="Emacron" unicode="&#x112;" horiz-adv-x="574" 
d="M82 716h435v-107h-323v-198h291v-106h-291v-198h323v-107h-435v716zM155 886h287v-86h-287v86z" />
    <glyph glyph-name="emacron" unicode="&#x113;" horiz-adv-x="576" 
d="M162.5 19q-59.5 35 -93 96.5t-33.5 138.5q0 73 32.5 135.5t90.5 99.5t132 37q77 0 133.5 -34t86 -93t29.5 -133q0 -14 -3 -35h-391q6 -71 50.5 -109.5t103.5 -38.5q47 0 81.5 21.5t55.5 58.5l93 -44q-36 -63 -94 -99t-139 -36q-75 0 -134.5 35zM428 315q-2 27 -17 53.5
t-45.5 44.5t-74.5 18q-53 0 -89.5 -31.5t-50.5 -84.5h277zM147 721h287v-85h-287v85z" />
    <glyph glyph-name="Ebreve" unicode="&#x114;" horiz-adv-x="574" 
d="M82 716h435v-107h-323v-198h291v-106h-291v-198h323v-107h-435v716zM235 784q-31 17 -49.5 47t-18.5 66h83q0 -21 13.5 -36t36.5 -15q22 0 35.5 15t13.5 36h81q0 -37 -18 -66.5t-48 -46.5t-64 -17t-65 17z" />
    <glyph glyph-name="ebreve" unicode="&#x115;" horiz-adv-x="576" 
d="M162.5 19q-59.5 35 -93 96.5t-33.5 138.5q0 73 32.5 135.5t90.5 99.5t132 37q77 0 133.5 -34t86 -93t29.5 -133q0 -14 -3 -35h-391q6 -71 50.5 -109.5t103.5 -38.5q47 0 81.5 21.5t55.5 58.5l93 -44q-36 -63 -94 -99t-139 -36q-75 0 -134.5 35zM428 315q-2 27 -17 53.5
t-45.5 44.5t-74.5 18q-53 0 -89.5 -31.5t-50.5 -84.5h277zM227 620q-31 17 -49.5 47t-18.5 66h83q0 -21 13.5 -36.5t36.5 -15.5q22 0 35.5 15.5t13.5 36.5h81q0 -37 -18 -66.5t-48 -46.5t-64 -17t-65 17z" />
    <glyph glyph-name="Edotaccent" unicode="&#x116;" horiz-adv-x="574" 
d="M82 716h435v-107h-323v-198h291v-106h-291v-198h323v-107h-435v716zM256 813.5q-18 18.5 -18 42.5q0 25 18 43t43 18t42.5 -17.5t17.5 -43.5q0 -24 -17.5 -42.5t-42.5 -18.5t-43 18.5z" />
    <glyph glyph-name="edotaccent" unicode="&#x117;" horiz-adv-x="576" 
d="M162.5 19q-59.5 35 -93 96.5t-33.5 138.5q0 73 32.5 135.5t90.5 99.5t132 37q77 0 133.5 -34t86 -93t29.5 -133q0 -14 -3 -35h-391q6 -71 50.5 -109.5t103.5 -38.5q47 0 81.5 21.5t55.5 58.5l93 -44q-36 -63 -94 -99t-139 -36q-75 0 -134.5 35zM428 315q-2 27 -17 53.5
t-45.5 44.5t-74.5 18q-53 0 -89.5 -31.5t-50.5 -84.5h277zM244.5 629q-19.5 20 -19.5 46q0 28 19.5 47t46.5 19q28 0 46.5 -19t18.5 -47q0 -27 -19 -46.5t-46 -19.5t-46.5 20z" />
    <glyph glyph-name="Eogonek" unicode="&#x118;" horiz-adv-x="574" 
d="M384 -191.5q-34 32.5 -34 81.5q0 63 63 110h-331v716h435v-107h-323v-198h291v-106h-291v-198h323v-107q-34 -24 -52.5 -45.5t-18.5 -47.5q0 -20 12 -33t32 -13q19 0 39 10v-86q-23 -9 -54 -9q-57 0 -91 32.5z" />
    <glyph glyph-name="eogonek" unicode="&#x119;" horiz-adv-x="576" 
d="M280 -192q-34 32 -34 78q0 57 48 98h-1q-74 1 -132.5 36t-91.5 96.5t-33 137.5q0 73 32.5 135.5t90.5 99.5t132 37q77 0 133.5 -34t86 -93t29.5 -133q0 -14 -3 -35h-391q6 -71 50.5 -109.5t103.5 -38.5q47 0 81.5 21.5t55.5 58.5l93 -44q-30 -53 -96 -100
q-54 -38 -73 -61t-19 -51q0 -20 11.5 -33t31.5 -13t40 10v-86q-23 -9 -54 -9q-57 0 -91 32zM428 315q-2 27 -17 53.5t-45.5 44.5t-74.5 18q-53 0 -89.5 -31.5t-50.5 -84.5h277z" />
    <glyph glyph-name="Ecaron" unicode="&#x11a;" horiz-adv-x="574" 
d="M82 716h435v-107h-323v-198h291v-106h-291v-198h323v-107h-435v716zM143 899v7h106l45 -59h10l45 59h106v-7l-108 -121h-96z" />
    <glyph glyph-name="ecaron" unicode="&#x11b;" horiz-adv-x="576" 
d="M162.5 19q-59.5 35 -93 96.5t-33.5 138.5q0 73 32.5 135.5t90.5 99.5t132 37q77 0 133.5 -34t86 -93t29.5 -133q0 -14 -3 -35h-391q6 -71 50.5 -109.5t103.5 -38.5q47 0 81.5 21.5t55.5 58.5l93 -44q-36 -63 -94 -99t-139 -36q-75 0 -134.5 35zM428 315q-2 27 -17 53.5
t-45.5 44.5t-74.5 18q-53 0 -89.5 -31.5t-50.5 -84.5h277zM135 729v7h106l45 -60h10l45 60h106v-7l-108 -121h-96z" />
    <glyph glyph-name="Gcircumflex" unicode="&#x11c;" horiz-adv-x="821" 
d="M233 33q-86 49 -136.5 134.5t-50.5 190.5t50.5 190.5t136.5 134.5t188 49q81 0 151 -29t117 -81l-78 -78q-35 39 -83.5 60t-107.5 21q-69 0 -129 -33t-96 -94t-36 -140t36 -140t96 -94t130 -33q64 0 107 19t77 51q22 22 37.5 55t20.5 72h-243v100h349q5 -28 5 -58
q0 -68 -21 -130.5t-67 -108.5q-101 -107 -265 -107q-102 0 -188 49zM265 785l108 121h96l108 -121v-7h-106l-45 60h-10l-45 -60h-106v7z" />
    <glyph glyph-name="gcircumflex" unicode="&#x11d;" horiz-adv-x="613" 
d="M138.5 -189q-61.5 43 -82.5 102l103 43q16 -40 51.5 -64.5t83.5 -24.5q70 0 109.5 41.5t39.5 116.5v47h-6q-25 -36 -66.5 -56.5t-95.5 -20.5q-64 0 -119 33t-87.5 93.5t-32.5 138.5t32.5 138.5t87.5 94t119 33.5q53 0 95 -21t67 -57h6v62h105v-482q0 -83 -32 -141.5
t-89.5 -88.5t-132.5 -30q-94 0 -155.5 43zM369 114.5q34 19.5 54 57t20 88.5q0 78 -42.5 121.5t-105.5 43.5q-41 0 -75 -19.5t-54 -56.5t-20 -89t20 -89t54 -56.5t75 -19.5q40 0 74 19.5zM145 615l108 121h96l108 -121v-7h-106l-45 59h-10l-45 -59h-106v7z" />
    <glyph glyph-name="Gbreve" unicode="&#x11e;" horiz-adv-x="821" 
d="M233 33q-86 49 -136.5 134.5t-50.5 190.5t50.5 190.5t136.5 134.5t188 49q81 0 151 -29t117 -81l-78 -78q-35 39 -83.5 60t-107.5 21q-69 0 -129 -33t-96 -94t-36 -140t36 -140t96 -94t130 -33q64 0 107 19t77 51q22 22 37.5 55t20.5 72h-243v100h349q5 -28 5 -58
q0 -68 -21 -130.5t-67 -108.5q-101 -107 -265 -107q-102 0 -188 49zM357 784q-31 17 -49.5 47t-18.5 66h83q0 -21 13.5 -36t36.5 -15q22 0 35.5 15t13.5 36h81q0 -37 -18 -66.5t-48 -46.5t-64 -17t-65 17z" />
    <glyph glyph-name="gbreve" unicode="&#x11f;" horiz-adv-x="613" 
d="M138.5 -189q-61.5 43 -82.5 102l103 43q16 -40 51.5 -64.5t83.5 -24.5q70 0 109.5 41.5t39.5 116.5v47h-6q-25 -36 -66.5 -56.5t-95.5 -20.5q-64 0 -119 33t-87.5 93.5t-32.5 138.5t32.5 138.5t87.5 94t119 33.5q53 0 95 -21t67 -57h6v62h105v-482q0 -83 -32 -141.5
t-89.5 -88.5t-132.5 -30q-94 0 -155.5 43zM369 114.5q34 19.5 54 57t20 88.5q0 78 -42.5 121.5t-105.5 43.5q-41 0 -75 -19.5t-54 -56.5t-20 -89t20 -89t54 -56.5t75 -19.5q40 0 74 19.5zM237 620q-31 17 -49.5 47t-18.5 66h83q0 -21 13.5 -36.5t36.5 -15.5q22 0 35.5 15.5
t13.5 36.5h81q0 -37 -18 -66.5t-48 -46.5t-64 -17t-65 17z" />
    <glyph glyph-name="Gdotaccent" unicode="&#x120;" horiz-adv-x="821" 
d="M233 33q-86 49 -136.5 134.5t-50.5 190.5t50.5 190.5t136.5 134.5t188 49q81 0 151 -29t117 -81l-78 -78q-35 39 -83.5 60t-107.5 21q-69 0 -129 -33t-96 -94t-36 -140t36 -140t96 -94t130 -33q64 0 107 19t77 51q22 22 37.5 55t20.5 72h-243v100h349q5 -28 5 -58
q0 -68 -21 -130.5t-67 -108.5q-101 -107 -265 -107q-102 0 -188 49zM378 813.5q-18 18.5 -18 42.5q0 25 18 43t43 18t42.5 -17.5t17.5 -43.5q0 -24 -17.5 -42.5t-42.5 -18.5t-43 18.5z" />
    <glyph glyph-name="gdotaccent" unicode="&#x121;" horiz-adv-x="613" 
d="M138.5 -189q-61.5 43 -82.5 102l103 43q16 -40 51.5 -64.5t83.5 -24.5q70 0 109.5 41.5t39.5 116.5v47h-6q-25 -36 -66.5 -56.5t-95.5 -20.5q-64 0 -119 33t-87.5 93.5t-32.5 138.5t32.5 138.5t87.5 94t119 33.5q53 0 95 -21t67 -57h6v62h105v-482q0 -83 -32 -141.5
t-89.5 -88.5t-132.5 -30q-94 0 -155.5 43zM369 114.5q34 19.5 54 57t20 88.5q0 78 -42.5 121.5t-105.5 43.5q-41 0 -75 -19.5t-54 -56.5t-20 -89t20 -89t54 -56.5t75 -19.5q40 0 74 19.5zM254.5 629q-19.5 20 -19.5 46q0 28 19.5 47t46.5 19q28 0 46.5 -19t18.5 -47
q0 -27 -19 -46.5t-46 -19.5t-46.5 20z" />
    <glyph glyph-name="uni0122" unicode="&#x122;" horiz-adv-x="821" 
d="M233 33q-86 49 -136.5 134.5t-50.5 190.5t50.5 190.5t136.5 134.5t188 49q81 0 151 -29t117 -81l-78 -78q-35 39 -83.5 60t-107.5 21q-69 0 -129 -33t-96 -94t-36 -140t36 -140t96 -94t130 -33q64 0 107 19t77 51q22 22 37.5 55t20.5 72h-243v100h349q5 -28 5 -58
q0 -68 -21 -130.5t-67 -108.5q-101 -107 -265 -107q-102 0 -188 49zM348 -233l43 62q-20 5 -32 21.5t-12 37.5q0 25 18.5 44.5t45.5 19.5q29 0 47 -19t18 -47q0 -22 -13 -45l-70 -104z" />
    <glyph glyph-name="uni0123" unicode="&#x123;" horiz-adv-x="613" 
d="M138.5 -189q-61.5 43 -82.5 102l103 43q16 -40 51.5 -64.5t83.5 -24.5q70 0 109.5 41.5t39.5 116.5v47h-6q-25 -36 -66.5 -56.5t-95.5 -20.5q-64 0 -119 33t-87.5 93.5t-32.5 138.5t32.5 138.5t87.5 94t119 33.5q53 0 95 -21t67 -57h6v62h105v-482q0 -83 -32 -141.5
t-89.5 -88.5t-132.5 -30q-94 0 -155.5 43zM369 114.5q34 19.5 54 57t20 88.5q0 78 -42.5 121.5t-105.5 43.5q-41 0 -75 -19.5t-54 -56.5t-20 -89t20 -89t54 -56.5t75 -19.5q40 0 74 19.5zM357 777l-43 -62q20 -5 32 -21.5t12 -37.5q0 -25 -18.5 -44.5t-45.5 -19.5
q-29 0 -47 19t-18 47q0 22 13 45l70 104z" />
    <glyph glyph-name="Hcircumflex" unicode="&#x124;" horiz-adv-x="719" 
d="M82 716h112v-297h332v297h111v-716h-111v313h-332v-313h-112v716zM204 785l108 121h96l108 -121v-7h-106l-45 60h-10l-45 -60h-106v7z" />
    <glyph glyph-name="hcircumflex" unicode="&#x125;" horiz-adv-x="585" 
d="M64 716h110v-195l-5 -78h5q22 36 65.5 59.5t93.5 23.5q93 0 142 -54.5t49 -148.5v-323h-110v308q0 58 -30.5 87t-79.5 29q-37 0 -66.5 -21t-46.5 -55.5t-17 -73.5v-274h-110v716zM142 779l108 121h96l108 -121v-7h-106l-45 59h-10l-45 -59h-106v7z" />
    <glyph glyph-name="Hbar" unicode="&#x126;" horiz-adv-x="719" 
d="M701 500h-64v-500h-111v313h-332v-313h-112v500h-64v84h64v132h112v-132h332v132h111v-132h64v-84zM526 500h-332v-81h332v81z" />
    <glyph glyph-name="hbar" unicode="&#x127;" horiz-adv-x="585" 
d="M475 471.5q49 -54.5 49 -148.5v-323h-110v308q0 58 -30.5 87t-79.5 29q-37 0 -66.5 -21t-46.5 -55.5t-17 -73.5v-274h-110v576h-61v81h61v59h110v-59h146v-81h-146v-55l-5 -78h5q22 36 65.5 59.5t93.5 23.5q93 0 142 -54.5z" />
    <glyph glyph-name="Itilde" unicode="&#x128;" horiz-adv-x="275" 
d="M82 716h112v-716h-112v716zM157.5 783q-19.5 8 -41.5 21q-4 2 -16.5 8.5t-20.5 6.5q-27 0 -30 -32h-83q0 59 34 90.5t79 31.5q20 0 38 -7.5t46 -21.5q4 -2 15.5 -8.5t18.5 -6.5q29 0 30 32h84q0 -59 -34.5 -90.5t-79.5 -31.5q-20 0 -39.5 8z" />
    <glyph glyph-name="itilde" unicode="&#x129;" horiz-adv-x="255" 
d="M72 510h110v-510h-110v510zM146.5 619q-19.5 8 -41.5 21q-4 2 -16.5 8.5t-20.5 6.5q-27 0 -30 -33h-83q0 60 34 91.5t79 31.5q20 0 38 -7.5t46 -21.5q4 -2 15.5 -8.5t18.5 -6.5q29 0 30 32h84q0 -59 -34.5 -90.5t-79.5 -31.5q-20 0 -39.5 8z" />
    <glyph glyph-name="Imacron" unicode="&#x12a;" horiz-adv-x="275" 
d="M8 886h260v-86h-260v86zM82 716h112v-716h-112v716z" />
    <glyph glyph-name="imacron" unicode="&#x12b;" horiz-adv-x="255" 
d="M72 510h110v-510h-110v510zM-17 721h287v-85h-287v85z" />
    <glyph glyph-name="Ibreve" unicode="&#x12c;" horiz-adv-x="275" 
d="M82 716h112v-716h-112v716zM74 784q-31 17 -49.5 47t-18.5 66h83q0 -21 13.5 -36t36.5 -15q22 0 35.5 15t13.5 36h81q0 -37 -18 -66.5t-48 -46.5t-64 -17t-65 17z" />
    <glyph glyph-name="ibreve" unicode="&#x12d;" horiz-adv-x="255" 
d="M72 510h110v-510h-110v510zM63 620q-31 17 -49.5 47t-18.5 66h83q0 -21 13.5 -36.5t36.5 -15.5q22 0 35.5 15.5t13.5 36.5h81q0 -37 -18 -66.5t-48 -46.5t-64 -17t-65 17z" />
    <glyph glyph-name="Iogonek" unicode="&#x12e;" horiz-adv-x="275" 
d="M61.5 -191.5q-33.5 32.5 -33.5 81.5q0 59 59 108l-1 2h-4v716h112v-716q-34 -24 -52.5 -45.5t-18.5 -47.5q0 -20 12 -33t32 -13t39 10v-86q-23 -9 -53 -9q-58 0 -91.5 32.5z" />
    <glyph glyph-name="iogonek" unicode="&#x12f;" horiz-adv-x="255" 
d="M74.5 605.5q-21.5 21.5 -21.5 52.5t21.5 52.5t52.5 21.5t52.5 -21.5t21.5 -52.5t-21.5 -52.5t-52.5 -21.5t-52.5 21.5zM50 -191.5q-34 32.5 -34 81.5q0 58 59 107l-3 3v510h110v-510q-34 -25 -52 -46t-18 -47q0 -20 12 -33t32 -13q19 0 39 10v-86q-23 -9 -54 -9
q-57 0 -91 32.5z" />
    <glyph glyph-name="Idotaccent" unicode="&#x130;" horiz-adv-x="275" 
d="M82 716h112v-716h-112v716zM95 813.5q-18 18.5 -18 42.5q0 25 18 43t43 18t42.5 -17.5t17.5 -43.5q0 -24 -17.5 -42.5t-42.5 -18.5t-43 18.5z" />
    <glyph glyph-name="dotlessi" unicode="&#x131;" horiz-adv-x="255" 
d="M72 510h110v-510h-110v510z" />
    <glyph glyph-name="Jcircumflex" unicode="&#x134;" horiz-adv-x="551" 
d="M113 28.5q-61 44.5 -86 124.5l104 43q31 -105 125 -105q52 0 83 35.5t31 93.5v496h111v-492q0 -76 -29 -130t-80 -82t-116 -28q-82 0 -143 44.5zM269 785l108 121h96l108 -121v-7h-106l-45 60h-10l-45 -60h-106v7z" />
    <glyph glyph-name="jcircumflex" unicode="&#x135;" horiz-adv-x="255" 
d="M-27 -219v106q22 -12 47 -12q28 0 40 17t12 51v567h110v-569q0 -85 -41.5 -126t-111.5 -41q-32 0 -56 7zM-29 615l108 121h96l108 -121v-7h-106l-45 59h-10l-45 -59h-106v7z" />
    <glyph glyph-name="uni0136" unicode="&#x136;" horiz-adv-x="658" 
d="M82 716h112v-340h6l290 340h139v-6l-262 -302l285 -402v-6h-137l-224 321l-97 -112v-209h-112v716zM268 -233l43 62q-20 5 -32 21.5t-12 37.5q0 25 18.5 44.5t45.5 19.5q29 0 47 -19t18 -47q0 -22 -13 -45l-70 -104z" />
    <glyph glyph-name="uni0137" unicode="&#x137;" horiz-adv-x="534" 
d="M64 716h110v-417h3l209 211h138v-6l-198 -197l204 -301v-6h-131l-150 231l-75 -73v-158h-110v716zM213 -233l43 62q-20 5 -32 21.5t-12 37.5q0 25 18.5 44.5t45.5 19.5q29 0 47 -19t18 -47q0 -22 -13 -45l-70 -104z" />
    <glyph glyph-name="kgreenlandic" unicode="&#x138;" horiz-adv-x="518" 
d="M64 510h110v-225h6l190 225h134v-6l-206 -236l216 -262v-6h-133l-201 250h-6v-250h-110v510z" />
    <glyph glyph-name="Lacute" unicode="&#x139;" horiz-adv-x="532" 
d="M82 716h112v-609h307v-107h-419v716zM139 904h125l-80 -132h-92z" />
    <glyph glyph-name="lacute" unicode="&#x13a;" horiz-adv-x="239" 
d="M64 716h110v-716h-110v716zM120 903h125l-80 -131h-92z" />
    <glyph glyph-name="uni013B" unicode="&#x13b;" horiz-adv-x="532" 
d="M82 716h112v-609h307v-107h-419v716zM228 -233l43 62q-20 5 -32 21.5t-12 37.5q0 25 18.5 44.5t45.5 19.5q29 0 47 -19t18 -47q0 -22 -13 -45l-70 -104z" />
    <glyph glyph-name="uni013C" unicode="&#x13c;" horiz-adv-x="239" 
d="M64 716h110v-716h-110v716zM56 -233l43 62q-20 5 -32 21.5t-12 37.5q0 25 18.5 44.5t45.5 19.5q29 0 47 -19t18 -47q0 -22 -13 -45l-70 -104z" />
    <glyph glyph-name="Lcaron" unicode="&#x13d;" horiz-adv-x="532" 
d="M82 716h112v-609h307v-107h-419v716zM336 716h118l-37 -195h-81v195z" />
    <glyph glyph-name="lcaron" unicode="&#x13e;" horiz-adv-x="360" 
d="M64 716h110v-716h-110v716zM258 716h118l-37 -195h-81v195z" />
    <glyph glyph-name="Ldot" unicode="&#x13f;" horiz-adv-x="532" 
d="M82 716h112v-609h307v-107h-419v716zM308.5 289.5q-22.5 22.5 -22.5 54.5t22.5 54.5t54.5 22.5t54.5 -22.5t22.5 -54.5t-22.5 -54.5t-54.5 -22.5t-54.5 22.5z" />
    <glyph glyph-name="Lslash" unicode="&#x141;" horiz-adv-x="609" 
d="M160 262l-60 -36l-50 80l110 68v342h111v-268l119 74l49 -79l-168 -104v-232h307v-107h-418v262z" />
    <glyph glyph-name="lslash" unicode="&#x142;" horiz-adv-x="404" 
d="M143 292l-50 -36l-56 73l106 78v309h110v-233l67 49l56 -74l-123 -90v-368h-110v292z" />
    <glyph glyph-name="Nacute" unicode="&#x143;" horiz-adv-x="728" 
d="M82 716h133l320 -521h6l-6 138v383h111v-716h-117l-336 548h-6l6 -138v-410h-111v716zM376 904h125l-80 -132h-92z" />
    <glyph glyph-name="nacute" unicode="&#x144;" horiz-adv-x="582" 
d="M64 510h105v-67h5q22 36 65.5 59.5t92.5 23.5q93 0 141.5 -54.5t48.5 -148.5v-323h-110v308q0 60 -29.5 88t-81.5 28q-37 0 -66 -20.5t-45 -54.5t-16 -73v-276h-110v510zM305 739h125l-80 -131h-92z" />
    <glyph glyph-name="uni0145" unicode="&#x145;" horiz-adv-x="728" 
d="M82 716h133l320 -521h6l-6 138v383h111v-716h-117l-336 548h-6l6 -138v-410h-111v716zM301 -233l43 62q-20 5 -32 21.5t-12 37.5q0 25 18.5 44.5t45.5 19.5q29 0 47 -19t18 -47q0 -22 -13 -45l-70 -104z" />
    <glyph glyph-name="uni0146" unicode="&#x146;" horiz-adv-x="582" 
d="M64 510h105v-67h5q22 36 65.5 59.5t92.5 23.5q93 0 141.5 -54.5t48.5 -148.5v-323h-110v308q0 60 -29.5 88t-81.5 28q-37 0 -66 -20.5t-45 -54.5t-16 -73v-276h-110v510zM231 -233l43 62q-20 5 -32 21.5t-12 37.5q0 25 18.5 44.5t45.5 19.5q29 0 47 -19t18 -47
q0 -22 -13 -45l-70 -104z" />
    <glyph glyph-name="Ncaron" unicode="&#x147;" horiz-adv-x="728" 
d="M82 716h133l320 -521h6l-6 138v383h111v-716h-117l-336 548h-6l6 -138v-410h-111v716zM219 899v7h106l45 -59h10l45 59h106v-7l-108 -121h-96z" />
    <glyph glyph-name="ncaron" unicode="&#x148;" horiz-adv-x="582" 
d="M64 510h105v-67h5q22 36 65.5 59.5t92.5 23.5q93 0 141.5 -54.5t48.5 -148.5v-323h-110v308q0 60 -29.5 88t-81.5 28q-37 0 -66 -20.5t-45 -54.5t-16 -73v-276h-110v510zM148 729v7h106l45 -60h10l45 60h106v-7l-108 -121h-96z" />
    <glyph glyph-name="Eng" unicode="&#x14a;" horiz-adv-x="728" 
d="M437 -220v106q20 -11 46 -11q28 0 40 17t12 51v60l-342 545h-6l6 -138v-410h-111v716h133l320 -517h6l-6 138v379h111v-775q0 -85 -42.5 -126t-112.5 -41q-32 0 -54 6z" />
    <glyph glyph-name="eng" unicode="&#x14b;" horiz-adv-x="582" 
d="M312 -219v106q22 -12 48 -12q27 0 39.5 17t12.5 51v365q0 60 -29.5 88t-81.5 28q-37 0 -66 -20.5t-45 -54.5t-16 -73v-276h-110v510h105v-67h5q22 36 65.5 59.5t92.5 23.5q93 0 141.5 -54.5t48.5 -148.5v-382q0 -85 -42 -126t-112 -41q-31 0 -56 7z" />
    <glyph glyph-name="Omacron" unicode="&#x14c;" horiz-adv-x="834" 
d="M228 33.5q-85 49.5 -133.5 135.5t-48.5 189t48.5 188.5t133.5 135.5t189 50t188.5 -50t133.5 -135.5t49 -188.5t-48.5 -189t-133.5 -135.5t-189 -49.5t-189 49.5zM547 125q59 34 93 94.5t34 138.5t-34 138.5t-93 94.5t-130 34t-130 -34t-93.5 -94.5t-34.5 -138.5
t34.5 -138.5t93.5 -94.5t130 -34t130 34zM273 886h287v-86h-287v86z" />
    <glyph glyph-name="omacron" unicode="&#x14d;" horiz-adv-x="607" 
d="M165 19.5q-61 35.5 -95 97.5t-34 138t34 138t95 97.5t138 35.5t138 -36t95 -98t34 -137q0 -76 -34 -138t-95 -97.5t-138 -35.5t-138 35.5zM381 105.5q36 20.5 57.5 59t21.5 90.5t-21.5 90t-57.5 58.5t-78 20.5t-78 -20.5t-57.5 -58.5t-21.5 -90t21.5 -90.5t57.5 -59
t78 -20.5t78 20.5zM159 721h287v-85h-287v85z" />
    <glyph glyph-name="Obreve" unicode="&#x14e;" horiz-adv-x="834" 
d="M228 33.5q-85 49.5 -133.5 135.5t-48.5 189t48.5 188.5t133.5 135.5t189 50t188.5 -50t133.5 -135.5t49 -188.5t-48.5 -189t-133.5 -135.5t-189 -49.5t-189 49.5zM547 125q59 34 93 94.5t34 138.5t-34 138.5t-93 94.5t-130 34t-130 -34t-93.5 -94.5t-34.5 -138.5
t34.5 -138.5t93.5 -94.5t130 -34t130 34zM353 784q-31 17 -49.5 47t-18.5 66h83q0 -21 13.5 -36t36.5 -15q22 0 35.5 15t13.5 36h81q0 -37 -18 -66.5t-48 -46.5t-64 -17t-65 17z" />
    <glyph glyph-name="obreve" unicode="&#x14f;" horiz-adv-x="607" 
d="M165 19.5q-61 35.5 -95 97.5t-34 138t34 138t95 97.5t138 35.5t138 -36t95 -98t34 -137q0 -76 -34 -138t-95 -97.5t-138 -35.5t-138 35.5zM381 105.5q36 20.5 57.5 59t21.5 90.5t-21.5 90t-57.5 58.5t-78 20.5t-78 -20.5t-57.5 -58.5t-21.5 -90t21.5 -90.5t57.5 -59
t78 -20.5t78 20.5zM239 620q-31 17 -49.5 47t-18.5 66h83q0 -21 13.5 -36.5t36.5 -15.5q22 0 35.5 15.5t13.5 36.5h81q0 -37 -18 -66.5t-48 -46.5t-64 -17t-65 17z" />
    <glyph glyph-name="Ohungarumlaut" unicode="&#x150;" horiz-adv-x="834" 
d="M228 33.5q-85 49.5 -133.5 135.5t-48.5 189t48.5 188.5t133.5 135.5t189 50t188.5 -50t133.5 -135.5t49 -188.5t-48.5 -189t-133.5 -135.5t-189 -49.5t-189 49.5zM547 125q59 34 93 94.5t34 138.5t-34 138.5t-93 94.5t-130 34t-130 -34t-93.5 -94.5t-34.5 -138.5
t34.5 -138.5t93.5 -94.5t130 -34t130 34zM328 904h125l-80 -132h-92zM509 904h125l-80 -132h-92z" />
    <glyph glyph-name="ohungarumlaut" unicode="&#x151;" horiz-adv-x="607" 
d="M165 19.5q-61 35.5 -95 97.5t-34 138t34 138t95 97.5t138 35.5t138 -36t95 -98t34 -137q0 -76 -34 -138t-95 -97.5t-138 -35.5t-138 35.5zM381 105.5q36 20.5 57.5 59t21.5 90.5t-21.5 90t-57.5 58.5t-78 20.5t-78 -20.5t-57.5 -58.5t-21.5 -90t21.5 -90.5t57.5 -59
t78 -20.5t78 20.5zM214 740h125l-80 -132h-92zM395 740h125l-80 -132h-92z" />
    <glyph glyph-name="OE" unicode="&#x152;" horiz-adv-x="1162" 
d="M226 34q-84 50 -132 135.5t-48 188.5t48.5 188.5t132 135.5t184.5 50q83 0 148.5 -29.5t107.5 -81.5h3v95h435v-107h-323v-198h291v-106h-291v-198h323v-107h-435v94h-3q-42 -52 -107.5 -81t-148.5 -29q-101 0 -185 50zM547 125q59 34 93 94.5t34 138.5t-34 138.5
t-93 94.5t-130 34t-130 -34t-93.5 -94.5t-34.5 -138.5t34.5 -138.5t93.5 -94.5t130 -34t130 34z" />
    <glyph glyph-name="oe" unicode="&#x153;" horiz-adv-x="1001" 
d="M165 19.5q-61 35.5 -95 97.5t-34 138t34 138t95 97.5t138 35.5q67 0 121.5 -29t90.5 -83q33 52 85 82t115 30q77 0 133.5 -34t86 -93t29.5 -133q0 -24 -3 -35h-391q6 -71 50.5 -109.5t103.5 -38.5q48 0 82.5 21.5t55.5 58.5l92 -44q-36 -63 -94 -99t-139 -36
q-66 0 -119.5 29.5t-87.5 82.5q-36 -54 -90 -83t-121 -29q-77 0 -138 35.5zM853 315q-2 27 -17.5 53.5t-46 44.5t-74.5 18q-52 0 -88.5 -31.5t-50.5 -84.5h277zM381 105.5q36 20.5 57.5 59t21.5 90.5t-21.5 90t-57.5 58.5t-78 20.5t-78 -20.5t-57.5 -58.5t-21.5 -90
t21.5 -90.5t57.5 -59t78 -20.5t78 20.5z" />
    <glyph glyph-name="Racute" unicode="&#x154;" horiz-adv-x="612" 
d="M82 716h252q64 0 117 -28t83.5 -78t30.5 -113q0 -72 -46.5 -128t-116.5 -75l-1 -5l196 -283v-6h-130l-189 280h-84v-280h-112v716zM331 384q50 0 85 32t35 82q0 28 -14 54t-40 42.5t-62 16.5h-141v-227h137zM296 904h125l-80 -132h-92z" />
    <glyph glyph-name="racute" unicode="&#x155;" horiz-adv-x="404" 
d="M64 510h105v-75h5q17 39 59 64.5t89 25.5q37 0 62 -10v-114q-44 16 -79 16q-38 0 -67.5 -20t-46.5 -53.5t-17 -73.5v-270h-110v510zM221 739h125l-80 -131h-92z" />
    <glyph glyph-name="uni0156" unicode="&#x156;" horiz-adv-x="612" 
d="M82 716h252q64 0 117 -28t83.5 -78t30.5 -113q0 -72 -46.5 -128t-116.5 -75l-1 -5l196 -283v-6h-130l-189 280h-84v-280h-112v716zM331 384q50 0 85 32t35 82q0 28 -14 54t-40 42.5t-62 16.5h-141v-227h137zM243 -233l43 62q-20 5 -32 21.5t-12 37.5q0 25 18.5 44.5
t45.5 19.5q29 0 47 -19t18 -47q0 -22 -13 -45l-70 -104z" />
    <glyph glyph-name="uni0157" unicode="&#x157;" horiz-adv-x="404" 
d="M64 510h105v-75h5q17 39 59 64.5t89 25.5q37 0 62 -10v-114q-44 16 -79 16q-38 0 -67.5 -20t-46.5 -53.5t-17 -73.5v-270h-110v510zM56 -233l43 62q-20 5 -32 21.5t-12 37.5q0 25 18.5 44.5t45.5 19.5q29 0 47 -19t18 -47q0 -22 -13 -45l-70 -104z" />
    <glyph glyph-name="Rcaron" unicode="&#x158;" horiz-adv-x="612" 
d="M82 716h252q64 0 117 -28t83.5 -78t30.5 -113q0 -72 -46.5 -128t-116.5 -75l-1 -5l196 -283v-6h-130l-189 280h-84v-280h-112v716zM331 384q50 0 85 32t35 82q0 28 -14 54t-40 42.5t-62 16.5h-141v-227h137zM139 899v7h106l45 -59h10l45 59h106v-7l-108 -121h-96z" />
    <glyph glyph-name="rcaron" unicode="&#x159;" horiz-adv-x="404" 
d="M64 510h105v-75h5q17 39 59 64.5t89 25.5q37 0 62 -10v-114q-44 16 -79 16q-38 0 -67.5 -20t-46.5 -53.5t-17 -73.5v-270h-110v510zM64 729v7h106l45 -60h10l45 60h106v-7l-108 -121h-96z" />
    <glyph glyph-name="Sacute" unicode="&#x15a;" horiz-adv-x="577" 
d="M129 36q-71 52 -98 146l106 43q16 -59 56.5 -96.5t97.5 -37.5q53 0 90 27.5t37 75.5q0 44 -32.5 72.5t-113.5 57.5l-45 16q-72 25 -121 72t-49 124q0 53 29 98t80.5 71.5t116.5 26.5q94 0 150 -45.5t75 -102.5l-101 -43q-11 34 -42 60t-80 26t-82.5 -25t-33.5 -64
q0 -37 30 -61t94 -46l45 -15q92 -32 142.5 -83.5t50.5 -137.5q0 -70 -36 -117.5t-91.5 -70.5t-114.5 -23q-89 0 -160 52zM285 904h125l-80 -132h-92z" />
    <glyph glyph-name="sacute" unicode="&#x15b;" horiz-adv-x="490" 
d="M106 22.5q-56 38.5 -79 98.5l98 43q18 -40 50.5 -61t74.5 -21q41 0 69 14.5t28 43.5q0 28 -24 44t-74 28l-61 15q-61 15 -101 53t-40 96q0 45 26.5 79t71.5 52.5t98 18.5q71 0 125 -28.5t78 -82.5l-96 -42q-29 59 -106 59q-37 0 -62 -15t-25 -39q0 -23 19 -37.5t56 -24.5
l75 -19q75 -19 113.5 -57.5t38.5 -94.5q0 -48 -27.5 -84.5t-75.5 -56.5t-106 -20q-88 0 -144 38.5zM245 739h125l-80 -131h-92z" />
    <glyph glyph-name="Scircumflex" unicode="&#x15c;" horiz-adv-x="577" 
d="M129 36q-71 52 -98 146l106 43q16 -59 56.5 -96.5t97.5 -37.5q53 0 90 27.5t37 75.5q0 44 -32.5 72.5t-113.5 57.5l-45 16q-72 25 -121 72t-49 124q0 53 29 98t80.5 71.5t116.5 26.5q94 0 150 -45.5t75 -102.5l-101 -43q-11 34 -42 60t-80 26t-82.5 -25t-33.5 -64
q0 -37 30 -61t94 -46l45 -15q92 -32 142.5 -83.5t50.5 -137.5q0 -70 -36 -117.5t-91.5 -70.5t-114.5 -23q-89 0 -160 52zM128 785l108 121h96l108 -121v-7h-106l-45 60h-10l-45 -60h-106v7z" />
    <glyph glyph-name="scircumflex" unicode="&#x15d;" horiz-adv-x="490" 
d="M106 22.5q-56 38.5 -79 98.5l98 43q18 -40 50.5 -61t74.5 -21q41 0 69 14.5t28 43.5q0 28 -24 44t-74 28l-61 15q-61 15 -101 53t-40 96q0 45 26.5 79t71.5 52.5t98 18.5q71 0 125 -28.5t78 -82.5l-96 -42q-29 59 -106 59q-37 0 -62 -15t-25 -39q0 -23 19 -37.5t56 -24.5
l75 -19q75 -19 113.5 -57.5t38.5 -94.5q0 -48 -27.5 -84.5t-75.5 -56.5t-106 -20q-88 0 -144 38.5zM88 615l108 121h96l108 -121v-7h-106l-45 59h-10l-45 -59h-106v7z" />
    <glyph glyph-name="Scedilla" unicode="&#x15e;" horiz-adv-x="577" 
d="M498.5 82.5q-32.5 -46.5 -83.5 -70.5t-108 -27l-14 -33q12 2 19 2q38 0 65 -26.5t27 -68.5q0 -40 -29.5 -68t-74.5 -28q-33 0 -59 18.5t-37 47.5l58 25q4 -13 14 -22t24 -9q17 0 27.5 10.5t10.5 25.5q0 16 -10.5 27.5t-27.5 11.5t-30 -15l-53 24l30 80q-76 12 -134.5 62
t-81.5 133l106 43q16 -59 56.5 -96.5t97.5 -37.5q53 0 90 27.5t37 75.5q0 44 -32.5 72.5t-113.5 57.5l-45 16q-72 25 -121 72t-49 124q0 53 29 98t80.5 71.5t116.5 26.5q94 0 150 -45.5t75 -102.5l-101 -43q-11 34 -42 60t-80 26t-82.5 -25t-33.5 -64q0 -37 30 -61t94 -46
l45 -15q92 -32 142.5 -83.5t50.5 -137.5q0 -66 -32.5 -112.5z" />
    <glyph glyph-name="scedilla" unicode="&#x15f;" horiz-adv-x="490" 
d="M407 34.5q-52 -43.5 -133 -49.5l-14 -33q12 2 19 2q38 0 65 -26.5t27 -68.5q0 -40 -29.5 -68t-74.5 -28q-33 0 -59 18.5t-37 47.5l58 25q4 -13 14 -22t24 -9q17 0 27.5 10.5t10.5 25.5q0 16 -10.5 27.5t-27.5 11.5t-30 -15l-53 24l30 79q-72 8 -119.5 45t-67.5 90l98 43
q18 -40 50.5 -61t74.5 -21q41 0 69 14.5t28 43.5q0 28 -24 44t-74 28l-61 15q-61 15 -101 53t-40 96q0 45 26.5 79t71.5 52.5t98 18.5q71 0 125 -28.5t78 -82.5l-96 -42q-29 59 -106 59q-37 0 -62 -15t-25 -39q0 -23 19 -37.5t56 -24.5l75 -19q75 -19 113.5 -57.5
t38.5 -94.5q0 -67 -52 -110.5z" />
    <glyph glyph-name="Scaron" unicode="&#x160;" horiz-adv-x="577" 
d="M129 36q-71 52 -98 146l106 43q16 -59 56.5 -96.5t97.5 -37.5q53 0 90 27.5t37 75.5q0 44 -32.5 72.5t-113.5 57.5l-45 16q-72 25 -121 72t-49 124q0 53 29 98t80.5 71.5t116.5 26.5q94 0 150 -45.5t75 -102.5l-101 -43q-11 34 -42 60t-80 26t-82.5 -25t-33.5 -64
q0 -37 30 -61t94 -46l45 -15q92 -32 142.5 -83.5t50.5 -137.5q0 -70 -36 -117.5t-91.5 -70.5t-114.5 -23q-89 0 -160 52zM128 899v7h106l45 -59h10l45 59h106v-7l-108 -121h-96z" />
    <glyph glyph-name="scaron" unicode="&#x161;" horiz-adv-x="490" 
d="M106 22.5q-56 38.5 -79 98.5l98 43q18 -40 50.5 -61t74.5 -21q41 0 69 14.5t28 43.5q0 28 -24 44t-74 28l-61 15q-61 15 -101 53t-40 96q0 45 26.5 79t71.5 52.5t98 18.5q71 0 125 -28.5t78 -82.5l-96 -42q-29 59 -106 59q-37 0 -62 -15t-25 -39q0 -23 19 -37.5t56 -24.5
l75 -19q75 -19 113.5 -57.5t38.5 -94.5q0 -48 -27.5 -84.5t-75.5 -56.5t-106 -20q-88 0 -144 38.5zM88 729v7h106l45 -60h10l45 60h106v-7l-108 -121h-96z" />
    <glyph glyph-name="uni0162" unicode="&#x162;" horiz-adv-x="565" 
d="M236 -218.5q-26 18.5 -37 47.5l58 25q4 -13 14.5 -22t24.5 -9q16 0 26.5 10.5t10.5 25.5q0 16 -10.5 27.5t-26.5 11.5q-18 0 -31 -15l-53 24l35 93h-20v609h-200v107h512v-107h-200v-609h-30l-21 -48q12 2 19 2q38 0 65 -26.5t27 -68.5q0 -40 -29.5 -68t-73.5 -28
q-34 0 -60 18.5z" />
    <glyph glyph-name="uni0163" unicode="&#x163;" horiz-adv-x="392" 
d="M252 -7l-19 -41q10 2 19 2q38 0 64.5 -26.5t26.5 -68.5q0 -40 -29 -68t-74 -28q-33 0 -59 18.5t-37 47.5l57 25q5 -14 15 -23t24 -9q17 0 27.5 11t10.5 26q0 16 -10.5 27.5t-27.5 11.5t-30 -15l-53 24l41 100q-24 11 -38 25q-43 43 -43 117v264h-89v97h89v144h110v-144
h124v-97h-124v-240q0 -41 16 -58q15 -20 52 -20q17 0 30 4.5t28 14.5v-107q-33 -15 -80 -15q-14 0 -21 1z" />
    <glyph glyph-name="Tcaron" unicode="&#x164;" horiz-adv-x="565" 
d="M227 609h-200v107h512v-107h-200v-609h-112v609zM127 899v7h106l45 -59h10l45 59h106v-7l-108 -121h-96z" />
    <glyph glyph-name="tcaron" unicode="&#x165;" horiz-adv-x="384" 
d="M280 716h104l-26 -147h-78v147zM209 3q-30 11 -49 29q-43 43 -43 117v264h-89v97h89v144h110v-144h124v-97h-124v-240q0 -41 16 -58q15 -20 52 -20q17 0 30 4.5t28 14.5v-107q-33 -15 -80 -15q-34 0 -64 11z" />
    <glyph glyph-name="Tbar" unicode="&#x166;" horiz-adv-x="565" 
d="M339 609v-191h127v-88h-127v-330h-112v330h-128v88h128v191h-200v107h512v-107h-200z" />
    <glyph glyph-name="tbar" unicode="&#x167;" horiz-adv-x="392" 
d="M325 99.5q13 4.5 28 14.5v-107q-33 -15 -80 -15q-34 0 -64 11t-49 29q-43 43 -43 117v78h-89v91h89v95h-89v97h89v144h110v-144h124v-97h-124v-95h118v-91h-118v-54q0 -41 16 -58q15 -20 52 -20q17 0 30 4.5z" />
    <glyph glyph-name="Utilde" unicode="&#x168;" horiz-adv-x="680" 
d="M198.5 20q-61.5 36 -95.5 102t-34 153v441h111v-447q0 -79 41.5 -128.5t118.5 -49.5t118 49t41 129v447h112v-441q0 -86 -33 -152t-94 -102.5t-144 -36.5q-80 0 -141.5 36zM359.5 783q-19.5 8 -41.5 21q-4 2 -16.5 8.5t-20.5 6.5q-27 0 -30 -32h-83q0 59 34 90.5t79 31.5
q20 0 38 -7.5t46 -21.5q4 -2 15.5 -8.5t18.5 -6.5q29 0 30 32h84q0 -59 -34.5 -90.5t-79.5 -31.5q-20 0 -39.5 8z" />
    <glyph glyph-name="utilde" unicode="&#x169;" horiz-adv-x="582" 
d="M108.5 39.5q-48.5 55.5 -48.5 154.5v316h110v-301q0 -62 29.5 -93t77.5 -31q39 0 69 20.5t46 54.5t16 73v277h110v-510h-104v66h-6q-21 -36 -65 -59t-93 -23q-93 0 -141.5 55.5zM308.5 619q-19.5 8 -41.5 21q-4 2 -16.5 8.5t-20.5 6.5q-27 0 -30 -33h-83q0 60 34 91.5
t79 31.5q20 0 38 -7.5t46 -21.5q4 -2 15.5 -8.5t18.5 -6.5q29 0 30 32h84q0 -59 -34.5 -90.5t-79.5 -31.5q-20 0 -39.5 8z" />
    <glyph glyph-name="Umacron" unicode="&#x16a;" horiz-adv-x="680" 
d="M198.5 20q-61.5 36 -95.5 102t-34 153v441h111v-447q0 -79 41.5 -128.5t118.5 -49.5t118 49t41 129v447h112v-441q0 -86 -33 -152t-94 -102.5t-144 -36.5q-80 0 -141.5 36zM196 886h287v-86h-287v86z" />
    <glyph glyph-name="umacron" unicode="&#x16b;" horiz-adv-x="582" 
d="M108.5 39.5q-48.5 55.5 -48.5 154.5v316h110v-301q0 -62 29.5 -93t77.5 -31q39 0 69 20.5t46 54.5t16 73v277h110v-510h-104v66h-6q-21 -36 -65 -59t-93 -23q-93 0 -141.5 55.5zM145 721h287v-85h-287v85z" />
    <glyph glyph-name="Ubreve" unicode="&#x16c;" horiz-adv-x="680" 
d="M198.5 20q-61.5 36 -95.5 102t-34 153v441h111v-447q0 -79 41.5 -128.5t118.5 -49.5t118 49t41 129v447h112v-441q0 -86 -33 -152t-94 -102.5t-144 -36.5q-80 0 -141.5 36zM276 784q-31 17 -49.5 47t-18.5 66h83q0 -21 13.5 -36t36.5 -15q22 0 35.5 15t13.5 36h81
q0 -37 -18 -66.5t-48 -46.5t-64 -17t-65 17z" />
    <glyph glyph-name="ubreve" unicode="&#x16d;" horiz-adv-x="582" 
d="M108.5 39.5q-48.5 55.5 -48.5 154.5v316h110v-301q0 -62 29.5 -93t77.5 -31q39 0 69 20.5t46 54.5t16 73v277h110v-510h-104v66h-6q-21 -36 -65 -59t-93 -23q-93 0 -141.5 55.5zM225 620q-31 17 -49.5 47t-18.5 66h83q0 -21 13.5 -36.5t36.5 -15.5q22 0 35.5 15.5
t13.5 36.5h81q0 -37 -18 -66.5t-48 -46.5t-64 -17t-65 17z" />
    <glyph glyph-name="Uring" unicode="&#x16e;" horiz-adv-x="680" 
d="M198.5 20q-61.5 36 -95.5 102t-34 153v441h111v-447q0 -79 41.5 -128.5t118.5 -49.5t118 49t41 129v447h112v-441q0 -86 -33 -152t-94 -102.5t-144 -36.5q-80 0 -141.5 36zM265 781q-31 31 -31 75t31 75t75 31t75 -31t31 -75q0 -43 -31.5 -74.5t-74.5 -31.5q-44 0 -75 31
zM368 828q12 12 12 28t-12 28t-28 12q-17 0 -28.5 -11.5t-11.5 -28.5q0 -16 11.5 -28t28.5 -12q16 0 28 12z" />
    <glyph glyph-name="uring" unicode="&#x16f;" horiz-adv-x="582" 
d="M108.5 39.5q-48.5 55.5 -48.5 154.5v316h110v-301q0 -62 29.5 -93t77.5 -31q39 0 69 20.5t46 54.5t16 73v277h110v-510h-104v66h-6q-21 -36 -65 -59t-93 -23q-93 0 -141.5 55.5zM214 617q-31 31 -31 75t31 74.5t75 30.5t75 -30.5t31 -74.5t-31 -75t-75 -31t-75 31z
M317 663.5q12 12.5 12 28.5t-12 27.5t-28 11.5t-28 -11.5t-12 -27.5q0 -17 12 -29t28 -12t28 12.5z" />
    <glyph glyph-name="Uhungarumlaut" unicode="&#x170;" horiz-adv-x="680" 
d="M198.5 20q-61.5 36 -95.5 102t-34 153v441h111v-447q0 -79 41.5 -128.5t118.5 -49.5t118 49t41 129v447h112v-441q0 -86 -33 -152t-94 -102.5t-144 -36.5q-80 0 -141.5 36zM251 904h125l-80 -132h-92zM432 904h125l-80 -132h-92z" />
    <glyph glyph-name="uhungarumlaut" unicode="&#x171;" horiz-adv-x="582" 
d="M108.5 39.5q-48.5 55.5 -48.5 154.5v316h110v-301q0 -62 29.5 -93t77.5 -31q39 0 69 20.5t46 54.5t16 73v277h110v-510h-104v66h-6q-21 -36 -65 -59t-93 -23q-93 0 -141.5 55.5zM200 740h125l-80 -132h-92zM381 740h125l-80 -132h-92z" />
    <glyph glyph-name="Uogonek" unicode="&#x172;" horiz-adv-x="680" 
d="M326.5 -191.5q-33.5 32.5 -33.5 81.5q0 52 49 95h-13q-77 2 -136 38.5t-91.5 101.5t-32.5 150v441h111v-447q0 -79 41.5 -128.5t118.5 -49.5t118 49t41 129v447h112v-441q0 -82 -29.5 -145t-84.5 -100q-49 -34 -79 -63t-30 -60q0 -20 12 -33t32 -13t39 10v-86
q-23 -9 -53 -9q-58 0 -91.5 32.5z" />
    <glyph glyph-name="uogonek" unicode="&#x173;" horiz-adv-x="582" 
d="M385.5 -191.5q-33.5 32.5 -33.5 81.5q0 36 18.5 62.5t44.5 44.5l-1 3v66h-6q-21 -36 -65 -59t-93 -23q-93 0 -141.5 55.5t-48.5 154.5v316h110v-301q0 -62 29.5 -93t77.5 -31q39 0 69 20.5t46 54.5t16 73v277h110v-510q-34 -24 -52.5 -45.5t-18.5 -47.5q0 -20 12 -33
t32 -13t39 10v-86q-23 -9 -53 -9q-58 0 -91.5 32.5z" />
    <glyph glyph-name="Wcircumflex" unicode="&#x174;" horiz-adv-x="965" 
d="M17 716h125l111 -461l12 -62h6l16 62l143 461h112l136 -461l16 -61h6l12 61l111 461h125l-189 -716h-119l-136 472l-15 64h-6l-17 -64l-142 -472h-116zM330 785l108 121h96l108 -121v-7h-106l-45 60h-10l-45 -60h-106v7z" />
    <glyph glyph-name="wcircumflex" unicode="&#x175;" horiz-adv-x="806" 
d="M7 510h119l103 -365h4l115 365h113l114 -365h4l103 365h117l-163 -510h-116l-117 366h-3l-116 -366h-114zM247 615l108 121h96l108 -121v-7h-106l-45 59h-10l-45 -59h-106v7z" />
    <glyph glyph-name="Ycircumflex" unicode="&#x176;" horiz-adv-x="619" 
d="M256 333l-241 383h133l161 -266h6l156 266h134l-237 -383v-333h-112v333zM153 785l108 121h96l108 -121v-7h-106l-45 60h-10l-45 -60h-106v7z" />
    <glyph glyph-name="ycircumflex" unicode="&#x177;" horiz-adv-x="548" 
d="M220 28l-212 482h123l144 -347h4l140 347h121l-315 -726h-116zM118 615l108 121h96l108 -121v-7h-106l-45 59h-10l-45 -59h-106v7z" />
    <glyph glyph-name="Ydieresis" unicode="&#x178;" horiz-adv-x="619" 
d="M256 333l-241 383h133l161 -266h6l156 266h134l-237 -383v-333h-112v333zM175 798q-19 19 -19 45q0 27 19 45.5t45 18.5q27 0 45.5 -18.5t18.5 -45.5q0 -26 -18.5 -45t-45.5 -19q-26 0 -45 19zM354 798q-19 19 -19 45q0 27 18.5 45.5t44.5 18.5q28 0 46 -18.5t18 -45.5
q0 -26 -18.5 -45t-45.5 -19q-25 0 -44 19z" />
    <glyph glyph-name="Zacute" unicode="&#x179;" horiz-adv-x="593" 
d="M39 115l373 494h-357v107h487v-115l-371 -494h375v-107h-507v115zM299 904h125l-80 -132h-92z" />
    <glyph glyph-name="zacute" unicode="&#x17a;" horiz-adv-x="501" 
d="M38 92l282 321h-274v97h409v-93l-282 -321h290v-96h-425v92zM252 739h125l-80 -131h-92z" />
    <glyph glyph-name="Zdotaccent" unicode="&#x17b;" horiz-adv-x="593" 
d="M39 115l373 494h-357v107h487v-115l-371 -494h375v-107h-507v115zM255 813.5q-18 18.5 -18 42.5q0 25 18 43t43 18t42.5 -17.5t17.5 -43.5q0 -24 -17.5 -42.5t-42.5 -18.5t-43 18.5z" />
    <glyph glyph-name="zdotaccent" unicode="&#x17c;" horiz-adv-x="501" 
d="M38 92l282 321h-274v97h409v-93l-282 -321h290v-96h-425v92zM204.5 629q-19.5 20 -19.5 46q0 28 19.5 47t46.5 19q28 0 46.5 -19t18.5 -47q0 -27 -19 -46.5t-46 -19.5t-46.5 20z" />
    <glyph glyph-name="Zcaron" unicode="&#x17d;" horiz-adv-x="593" 
d="M39 115l373 494h-357v107h487v-115l-371 -494h375v-107h-507v115zM142 899v7h106l45 -59h10l45 59h106v-7l-108 -121h-96z" />
    <glyph glyph-name="zcaron" unicode="&#x17e;" horiz-adv-x="501" 
d="M38 92l282 321h-274v97h409v-93l-282 -321h290v-96h-425v92zM95 729v7h106l45 -60h10l45 60h106v-7l-108 -121h-96z" />
    <glyph glyph-name="florin" unicode="&#x192;" horiz-adv-x="599" 
d="M448 601q-22 -17 -29 -49l-28 -139h121v-98h-140l-77 -388q-13 -65 -57 -106t-113 -41q-21 0 -36 2.5t-33 8.5v106q31 -15 63 -15q28 0 47.5 18t25.5 51l72 364h-98v98h118l29 148q14 73 63.5 116t123.5 43q22 0 35 -2t27 -7v-108q-27 15 -61 15q-31 0 -53 -17z" />
    <glyph glyph-name="Aringacute" unicode="&#x1fa;" horiz-adv-x="696" 
d="M681 0h-124l-64 183h-289l-65 -183h-124l253 672q-17 16 -26.5 38t-9.5 46q0 39 23 69.5t59 41.5l31 75h104l-47 -83q28 -15 45 -42.5t17 -60.5q0 -49 -36 -83zM320 728q12 -12 28 -12q17 0 28.5 12t11.5 28q0 17 -11.5 28.5t-28.5 11.5q-16 0 -28 -11.5t-12 -28.5
q0 -16 12 -28zM455 287l-76 213l-28 83h-6l-28 -83l-76 -213h214z" />
    <glyph glyph-name="aringacute" unicode="&#x1fb;" horiz-adv-x="547" 
d="M285 893h35l-33 -37h-9zM193 617q-31 31 -31 75t31 74.5t75 30.5t75 -30.5t31 -74.5t-31 -75t-75 -31t-75 31zM296 663.5q12 12.5 12 28.5t-12 27.5t-28 11.5t-28 -11.5t-12 -27.5q0 -17 12 -29t28 -12t28 12.5zM126 5.5q-43 21.5 -67 61t-24 89.5q0 79 59.5 125
t150.5 46q45 0 81 -8.5t57 -18.5v26q0 47 -35 76.5t-90 29.5q-39 0 -73.5 -17t-55.5 -47l-77 59q34 47 88 73t120 26q111 0 171 -54.5t60 -153.5v-318h-108v61h-5q-22 -33 -62 -55t-92 -22q-55 0 -98 21.5zM315 94q32 19 50 51t18 69q-23 13 -53.5 21t-63.5 8
q-62 0 -91 -24.5t-29 -63.5q0 -35 27 -57.5t70 -22.5q40 0 72 19z" />
    <glyph glyph-name="AEacute" unicode="&#x1fc;" horiz-adv-x="989" 
d="M432 716h500v-107h-323v-198h291v-106h-291v-198h323v-107h-435v184h-251l-107 -184h-132zM497 290v319h-7l-32 -59l-151 -260h190zM682 904h125l-80 -132h-92z" />
    <glyph glyph-name="aeacute" unicode="&#x1fd;" horiz-adv-x="920" 
d="M127 5.5q-44 21.5 -68 61t-24 89.5q0 79 59.5 125t150.5 46q45 0 80.5 -8.5t57.5 -19.5v24q0 49 -33.5 79t-88.5 30q-38 0 -65 -17t-42 -47l-88 42q25 55 77.5 85.5t118.5 30.5q131 0 191 -88q31 41 77.5 64t103.5 23q78 0 134 -33.5t85.5 -92.5t29.5 -133q0 -24 -3 -35
h-391q6 -71 50.5 -109.5t103.5 -38.5q48 0 82.5 21.5t55.5 58.5l92 -44q-36 -63 -94 -99t-139 -36q-68 0 -122 31t-87 84q-39 -60 -88.5 -87.5t-114.5 -27.5q-57 0 -101 21.5zM772 315q-2 27 -17.5 53.5t-46 44t-74.5 17.5q-53 0 -89 -31t-50 -84h277zM315 94q32 19 50 51
t18 69q-23 13 -53.5 21t-63.5 8q-62 0 -91 -24.5t-29 -63.5q0 -35 27 -57.5t70 -22.5q40 0 72 19zM454 739h125l-80 -131h-92z" />
    <glyph glyph-name="Oslashacute" unicode="&#x1fe;" horiz-adv-x="834" 
d="M752 522q36 -76 36 -164q0 -103 -48.5 -189t-133.5 -135.5t-189 -49.5q-85 0 -159 34l-37 -60l-76 49l37 59q-64 52 -100 128t-36 164q0 103 48.5 188.5t133.5 135.5t189 50q86 0 159 -35l38 61l75 -49l-37 -59q64 -52 100 -128zM180.5 246q21.5 -51 59.5 -87l279 446
q-49 20 -102 20q-71 0 -130 -34t-93.5 -94.5t-34.5 -138.5q0 -61 21.5 -112zM547 125q59 34 93 94.5t34 138.5q0 60 -21 111t-59 87l-278 -446q49 -19 101 -19q71 0 130 34zM418 904h125l-80 -132h-92z" />
    <glyph glyph-name="oslashacute" unicode="&#x1ff;" horiz-adv-x="607" 
d="M547 369.5q23 -53.5 23 -114.5q0 -76 -34 -138t-95 -97.5t-138 -35.5q-57 0 -106 20l-26 -41l-73 41l27 44q-42 37 -65.5 91t-23.5 116q0 76 34 138t95 97.5t138 35.5q59 0 107 -21l27 43l73 -42l-28 -45q42 -38 65 -91.5zM181 137l176 283q-25 9 -54 9q-43 0 -80 -21
t-59 -60.5t-22 -92.5q0 -71 39 -118zM383 101q37 21 59.5 60.5t22.5 93.5q0 70 -39 117l-176 -283q26 -9 53 -9q43 0 80 21zM304 739h125l-80 -131h-92z" />
    <glyph glyph-name="uni0218" unicode="&#x218;" horiz-adv-x="577" 
d="M129 36q-71 52 -98 146l106 43q16 -59 56.5 -96.5t97.5 -37.5q53 0 90 27.5t37 75.5q0 44 -32.5 72.5t-113.5 57.5l-45 16q-72 25 -121 72t-49 124q0 53 29 98t80.5 71.5t116.5 26.5q94 0 150 -45.5t75 -102.5l-101 -43q-11 34 -42 60t-80 26t-82.5 -25t-33.5 -64
q0 -37 30 -61t94 -46l45 -15q92 -32 142.5 -83.5t50.5 -137.5q0 -70 -36 -117.5t-91.5 -70.5t-114.5 -23q-89 0 -160 52zM226 -233l43 62q-20 5 -32 21.5t-12 37.5q0 25 18.5 44.5t45.5 19.5q29 0 47 -19t18 -47q0 -22 -13 -45l-70 -104z" />
    <glyph glyph-name="uni0219" unicode="&#x219;" horiz-adv-x="490" 
d="M106 22.5q-56 38.5 -79 98.5l98 43q18 -40 50.5 -61t74.5 -21q41 0 69 14.5t28 43.5q0 28 -24 44t-74 28l-61 15q-61 15 -101 53t-40 96q0 45 26.5 79t71.5 52.5t98 18.5q71 0 125 -28.5t78 -82.5l-96 -42q-29 59 -106 59q-37 0 -62 -15t-25 -39q0 -23 19 -37.5t56 -24.5
l75 -19q75 -19 113.5 -57.5t38.5 -94.5q0 -48 -27.5 -84.5t-75.5 -56.5t-106 -20q-88 0 -144 38.5zM187 -233l43 62q-20 5 -32 21.5t-12 37.5q0 25 18.5 44.5t45.5 19.5q29 0 47 -19t18 -47q0 -22 -13 -45l-70 -104z" />
    <glyph glyph-name="uni021A" unicode="&#x21a;" horiz-adv-x="565" 
d="M227 609h-200v107h512v-107h-200v-609h-112v609zM220 -233l43 62q-20 5 -32 21.5t-12 37.5q0 25 18.5 44.5t45.5 19.5q29 0 47 -19t18 -47q0 -22 -13 -45l-70 -104z" />
    <glyph glyph-name="uni021B" unicode="&#x21b;" horiz-adv-x="392" 
d="M209 3q-30 11 -49 29q-43 43 -43 117v264h-89v97h89v144h110v-144h124v-97h-124v-240q0 -41 16 -58q15 -20 52 -20q17 0 30 4.5t28 14.5v-107q-33 -15 -80 -15q-34 0 -64 11zM186 -233l43 62q-20 5 -32 21.5t-12 37.5q0 25 18.5 44.5t45.5 19.5q29 0 47 -19t18 -47
q0 -22 -13 -45l-70 -104z" />
    <glyph glyph-name="uni0237" unicode="&#x237;" horiz-adv-x="255" 
d="M-27 -219v106q22 -12 47 -12q28 0 40 17t12 51v567h110v-569q0 -85 -41.5 -126t-111.5 -41q-32 0 -56 7z" />
    <glyph glyph-name="uni0259" unicode="&#x259;" horiz-adv-x="576" 
d="M413.5 491q59.5 -35 93 -96.5t33.5 -138.5q0 -73 -32.5 -135.5t-90.5 -99.5t-132 -37q-77 0 -133.5 34t-86 93t-29.5 133q0 14 3 35h391q-6 71 -50.5 109.5t-103.5 38.5q-47 0 -81.5 -21.5t-55.5 -58.5l-93 44q36 63 94 99t139 36q75 0 134.5 -35zM148 195
q2 -27 17 -53.5t45.5 -44.5t74.5 -18q53 0 89.5 31.5t50.5 84.5h-277z" />
    <glyph glyph-name="circumflex" unicode="&#x2c6;" horiz-adv-x="426" 
d="M57 595l108 121h96l108 -121v-7h-106l-45 60h-10l-45 -60h-106v7z" />
    <glyph glyph-name="caron" unicode="&#x2c7;" horiz-adv-x="426" 
d="M57 709v7h106l45 -59h10l45 59h106v-7l-108 -121h-96z" />
    <glyph glyph-name="breve" unicode="&#x2d8;" horiz-adv-x="407" 
d="M140 600q-31 17 -49.5 47t-18.5 66h83q0 -21 13.5 -36t36.5 -15q22 0 35.5 15t13.5 36h81q0 -37 -18 -66.5t-48 -46.5t-64 -17t-65 17z" />
    <glyph glyph-name="dotaccent" unicode="&#x2d9;" horiz-adv-x="249" 
d="M78.5 609.5q-19.5 19.5 -19.5 45.5q0 28 19.5 47t46.5 19q28 0 46.5 -19t18.5 -47q0 -27 -19 -46t-46 -19t-46.5 19.5z" />
    <glyph glyph-name="ring" unicode="&#x2da;" horiz-adv-x="404" 
d="M127 597q-31 31 -31 75t31 75t75 31t75 -31t31 -75q0 -43 -31 -74.5t-75 -31.5t-75 31zM230 644q12 12 12 28t-12 28t-28 12t-28 -11.5t-12 -28.5q0 -16 12 -28t28 -12t28 12z" />
    <glyph glyph-name="ogonek" unicode="&#x2db;" horiz-adv-x="412" 
d="M122 -191.5q-34 32.5 -34 81.5q0 61 62 110h104q-34 -25 -52 -46t-18 -47q0 -20 11.5 -33t31.5 -13t40 10v-86q-23 -9 -54 -9q-57 0 -91 32.5z" />
    <glyph glyph-name="tilde" unicode="&#x2dc;" horiz-adv-x="409" 
d="M223.5 599q-19.5 8 -41.5 21q-4 2 -16.5 8.5t-20.5 6.5q-27 0 -30 -32h-83q0 59 34 90.5t79 31.5q20 0 38 -7.5t46 -21.5q4 -2 15.5 -8.5t18.5 -6.5q29 0 30 32h84q0 -59 -34.5 -90.5t-79.5 -31.5q-20 0 -39.5 8z" />
    <glyph glyph-name="hungarumlaut" unicode="&#x2dd;" horiz-adv-x="435" 
d="M119 720h125l-80 -132h-92zM300 720h125l-80 -132h-92z" />
    <glyph glyph-name="gravecomb" unicode="&#x300;" horiz-adv-x="0" 
d="M-324 739h124l48 -131h-92z" />
    <glyph glyph-name="acutecomb" unicode="&#x301;" horiz-adv-x="0" 
d="M-221 739h125l-80 -131h-92z" />
    <glyph glyph-name="uni0302" unicode="&#x302;" horiz-adv-x="0" 
d="M-369 615l108 121h96l108 -121v-7h-106l-45 59h-10l-45 -59h-106v7z" />
    <glyph glyph-name="tildecomb" unicode="&#x303;" horiz-adv-x="0" 
d="M-185.5 619q-19.5 8 -41.5 21q-4 2 -16.5 8.5t-20.5 6.5q-27 0 -30 -33h-83q0 60 34 91.5t79 31.5q20 0 38 -7.5t46 -21.5q4 -2 15.5 -8.5t18.5 -6.5q29 0 30 32h84q0 -59 -34.5 -90.5t-79.5 -31.5q-20 0 -39.5 8z" />
    <glyph glyph-name="uni0304" unicode="&#x304;" horiz-adv-x="0" 
d="M-347 721h287v-85h-287v85z" />
    <glyph glyph-name="uni0306" unicode="&#x306;" horiz-adv-x="0" 
d="M-267 620q-31 17 -49.5 47t-18.5 66h83q0 -21 13.5 -36.5t36.5 -15.5q22 0 35.5 15.5t13.5 36.5h81q0 -37 -18 -66.5t-48 -46.5t-64 -17t-65 17z" />
    <glyph glyph-name="uni0307" unicode="&#x307;" horiz-adv-x="0" 
d="M-170.5 629q-19.5 20 -19.5 46q0 28 19.5 47t46.5 19q28 0 46.5 -19t18.5 -47q0 -27 -19 -46.5t-46 -19.5t-46.5 20z" />
    <glyph glyph-name="uni0308" unicode="&#x308;" horiz-adv-x="0" 
d="M-346 634q-19 19 -19 45q0 27 18.5 45t45.5 18t45.5 -18t18.5 -45q0 -26 -18.5 -45t-45.5 -19q-26 0 -45 19zM-167.5 634q-18.5 19 -18.5 45q0 27 18.5 45t44.5 18q28 0 46 -18t18 -45t-18.5 -45.5t-45.5 -18.5q-26 0 -44.5 19z" />
    <glyph glyph-name="uni030A" unicode="&#x30a;" horiz-adv-x="0" 
d="M-277 617q-31 31 -31 75t31 74.5t75 30.5t75 -30.5t31 -74.5t-31 -75t-75 -31t-75 31zM-174 663.5q12 12.5 12 28.5t-12 27.5t-28 11.5t-28 -11.5t-12 -27.5q0 -17 12 -29t28 -12t28 12.5z" />
    <glyph glyph-name="uni030B" unicode="&#x30b;" horiz-adv-x="0" 
d="M-316 740h125l-80 -132h-92zM-135 740h125l-80 -132h-92z" />
    <glyph glyph-name="uni030C" unicode="&#x30c;" horiz-adv-x="0" 
d="M-369 729v7h106l45 -60h10l45 60h106v-7l-108 -121h-96z" />
    <glyph glyph-name="uni0312" unicode="&#x312;" horiz-adv-x="0" 
d="M-143 777l-43 -62q20 -5 32 -21.5t12 -37.5q0 -25 -18.5 -44.5t-45.5 -19.5q-29 0 -47 19t-18 47q0 22 13 45l70 104z" />
    <glyph glyph-name="uni0326" unicode="&#x326;" horiz-adv-x="0" 
d="M-273 -233l43 62q-20 5 -32 21.5t-12 37.5q0 25 18.5 44.5t45.5 19.5q29 0 47 -19t18 -47q0 -22 -13 -45l-70 -104z" />
    <glyph glyph-name="uni0327" unicode="&#x327;" horiz-adv-x="0" 
d="M-297 -218.5q-26 18.5 -37 47.5l58 25q4 -13 14 -22t24 -9q17 0 27.5 10.5t10.5 25.5q0 16 -10.5 27.5t-27.5 11.5t-30 -15l-53 24l35 93h62l-21 -48q12 2 19 2q38 0 65 -26.5t27 -68.5q0 -40 -29.5 -68t-74.5 -28q-33 0 -59 18.5z" />
    <glyph glyph-name="uni0328" unicode="&#x328;" horiz-adv-x="0" 
d="M-290 -191.5q-34 32.5 -34 81.5q0 61 62 110h104q-34 -25 -52 -46t-18 -47q0 -20 11.5 -33t31.5 -13t40 10v-86q-23 -9 -54 -9q-57 0 -91 32.5z" />
    <glyph glyph-name="uni0374" unicode="&#x374;" horiz-adv-x="294" 
d="M119 716h135l-127 -215h-87z" />
    <glyph glyph-name="uni0375" unicode="&#x375;" horiz-adv-x="294" 
d="M162 122h92l-79 -215h-135z" />
    <glyph glyph-name="uni037E" unicode="&#x37e;" horiz-adv-x="267" 
d="M79.5 387.5q-22.5 22.5 -22.5 54.5t22.5 54.5t54.5 22.5t54 -22.5t22 -54.5t-22 -54.5t-54 -22.5t-54.5 22.5zM52 -73l57 87q-21 6 -36.5 25t-15.5 45q0 32 22.5 54t54.5 22t54.5 -22t22.5 -54q0 -18 -7 -34t-21 -37l-80 -119z" />
    <glyph glyph-name="tonos" unicode="&#x384;" horiz-adv-x="420" 
d="M175 736h125l-79 -132h-92z" />
    <glyph glyph-name="dieresistonos" unicode="&#x385;" horiz-adv-x="430" 
d="M180 752h69v-144h-69v144zM49.5 638q-17.5 18 -17.5 41q0 24 17.5 41t41.5 17q25 0 41.5 -16.5t16.5 -41.5q0 -24 -17 -41.5t-41 -17.5t-41.5 18zM298.5 638q-17.5 18 -17.5 41q0 24 17 41t41 17q25 0 42 -16.5t17 -41.5q0 -24 -17.5 -41.5t-41.5 -17.5q-23 0 -40.5 18z
" />
    <glyph glyph-name="Alphatonos" unicode="&#x386;" horiz-adv-x="696" 
d="M95 720h125l-80 -132h-92zM284 716h128l269 -716h-124l-64 183h-289l-65 -183h-124zM455 287l-76 213l-28 83h-6l-28 -83l-76 -213h214z" />
    <glyph glyph-name="anoteleia" unicode="&#x387;" horiz-adv-x="210" 
d="M50.5 269.5q-22.5 22.5 -22.5 54.5t22.5 54.5t54.5 22.5t54.5 -22.5t22.5 -54.5t-22.5 -54.5t-54.5 -22.5t-54.5 22.5z" />
    <glyph glyph-name="Epsilontonos" unicode="&#x388;" horiz-adv-x="630" 
d="M-26 720h125l-80 -132h-92zM137 716h435v-107h-323v-198h291v-106h-291v-198h323v-107h-435v716z" />
    <glyph glyph-name="Etatonos" unicode="&#x389;" horiz-adv-x="775" 
d="M-26 720h125l-80 -132h-92zM137 716h112v-297h332v297h111v-716h-111v313h-332v-313h-112v716z" />
    <glyph glyph-name="Iotatonos" unicode="&#x38a;" horiz-adv-x="331" 
d="M-26 720h125l-80 -132h-92zM137 716h112v-716h-112v716z" />
    <glyph glyph-name="Omicrontonos" unicode="&#x38c;" horiz-adv-x="802" 
d="M-26 720h125l-80 -132h-92zM196 33.5q-85 49.5 -133.5 135.5t-48.5 189t48.5 188.5t133.5 135.5t189 50t188.5 -50t133.5 -135.5t49 -188.5t-48.5 -189t-133.5 -135.5t-189 -49.5t-189 49.5zM515 125q59 34 93 94.5t34 138.5t-34 138.5t-93 94.5t-130 34t-130 -34
t-93.5 -94.5t-34.5 -138.5t34.5 -138.5t93.5 -94.5t130 -34t130 34z" />
    <glyph glyph-name="Upsilontonos" unicode="&#x38e;" horiz-adv-x="718" 
d="M-26 720h125l-80 -132h-92zM355 333l-241 383h133l161 -266h6l156 266h134l-237 -383v-333h-112v333z" />
    <glyph glyph-name="Omegatonos" unicode="&#x38f;" horiz-adv-x="780" 
d="M-26 720h125l-80 -132h-92zM34 102h146v6q-73 40 -116.5 113t-43.5 168q0 92 46 171t127.5 125.5t181.5 46.5t181 -47t127 -125.5t46 -170.5q0 -95 -43.5 -168t-116.5 -113v-6h146v-102h-287v145q82 21 135 86t53 154q0 68 -32.5 122.5t-88 86t-120.5 31.5
q-66 0 -121.5 -31.5t-88 -86t-32.5 -122.5q0 -89 53 -154t135 -86v-145h-287v102z" />
    <glyph glyph-name="iotadieresistonos" unicode="&#x390;" horiz-adv-x="255" 
d="M72 510h110v-510h-110v510zM92 752h69v-144h-69v144zM-38.5 638q-17.5 18 -17.5 41q0 24 17.5 41t41.5 17q25 0 41.5 -16.5t16.5 -41.5q0 -24 -17 -41.5t-41 -17.5t-41.5 18zM210.5 638q-17.5 18 -17.5 41q0 24 17 41t41 17q25 0 42 -16.5t17 -41.5q0 -24 -17.5 -41.5
t-41.5 -17.5q-23 0 -40.5 18z" />
    <glyph glyph-name="Alpha" unicode="&#x391;" horiz-adv-x="696" 
d="M284 716h128l269 -716h-124l-64 183h-289l-65 -183h-124zM455 287l-76 213l-28 83h-6l-28 -83l-76 -213h214z" />
    <glyph glyph-name="Beta" unicode="&#x392;" horiz-adv-x="628" 
d="M82 716h269q57 0 105.5 -25t77.5 -69t29 -97t-26.5 -92t-69.5 -59v-6q54 -19 87.5 -63t33.5 -103t-30.5 -105t-82 -71.5t-112.5 -25.5h-281v716zM346 416q48 0 77.5 30t29.5 69t-28.5 68.5t-74.5 29.5h-156v-197h152zM363 104q51 0 81.5 32t30.5 74q0 43 -31.5 74.5
t-84.5 31.5h-165v-212h169z" />
    <glyph glyph-name="Gamma" unicode="&#x393;" horiz-adv-x="527" 
d="M82 716h419v-107h-307v-609h-112v716z" />
    <glyph glyph-name="uni0394" unicode="&#x394;" horiz-adv-x="688" 
d="M280 716h128l265 -716h-658zM513 105l-166 473h-6l-166 -473h338z" />
    <glyph glyph-name="Epsilon" unicode="&#x395;" horiz-adv-x="574" 
d="M82 716h435v-107h-323v-198h291v-106h-291v-198h323v-107h-435v716z" />
    <glyph glyph-name="Zeta" unicode="&#x396;" horiz-adv-x="593" 
d="M39 115l373 494h-357v107h487v-115l-371 -494h375v-107h-507v115z" />
    <glyph glyph-name="Eta" unicode="&#x397;" horiz-adv-x="719" 
d="M82 716h112v-297h332v297h111v-716h-111v313h-332v-313h-112v716z" />
    <glyph glyph-name="Theta" unicode="&#x398;" horiz-adv-x="848" 
d="M228 33.5q-85 49.5 -133.5 135.5t-48.5 189t48.5 188.5t133.5 135.5t189 50t188.5 -50t133.5 -135.5t49 -188.5t-48.5 -189t-133.5 -135.5t-189 -49.5t-189 49.5zM547 125q59 34 93 94.5t34 138.5t-34 138.5t-93 94.5t-130 34t-130 -34t-93.5 -94.5t-34.5 -138.5
t34.5 -138.5t93.5 -94.5t130 -34t130 34zM264 409h316v-102h-316v102z" />
    <glyph glyph-name="Iota" unicode="&#x399;" horiz-adv-x="275" 
d="M82 716h112v-716h-112v716z" />
    <glyph glyph-name="Kappa" unicode="&#x39a;" horiz-adv-x="648" 
d="M82 716h112v-347h6l283 347h141v-6l-299 -358l316 -346v-6h-148l-293 328h-6v-328h-112v716z" />
    <glyph glyph-name="Lambda" unicode="&#x39b;" horiz-adv-x="680" 
d="M276 716h128l261 -716h-124l-173 504l-25 79h-6l-25 -79l-173 -504h-124z" />
    <glyph glyph-name="Mu" unicode="&#x39c;" horiz-adv-x="886" 
d="M82 716h152l206 -543h6l206 543h152v-716h-111v401l6 129h-6l-205 -530h-90l-205 530h-6l6 -129v-401h-111v716z" />
    <glyph glyph-name="Nu" unicode="&#x39d;" horiz-adv-x="728" 
d="M82 716h133l320 -521h6l-6 138v383h111v-716h-117l-336 548h-6l6 -138v-410h-111v716z" />
    <glyph glyph-name="Xi" unicode="&#x39e;" horiz-adv-x="526" 
d="M34 716h458v-107h-458v107zM66 411h394v-106h-394v106zM34 107h458v-107h-458v107z" />
    <glyph glyph-name="Omicron" unicode="&#x39f;" horiz-adv-x="834" 
d="M228 33.5q-85 49.5 -133.5 135.5t-48.5 189t48.5 188.5t133.5 135.5t189 50t188.5 -50t133.5 -135.5t49 -188.5t-48.5 -189t-133.5 -135.5t-189 -49.5t-189 49.5zM547 125q59 34 93 94.5t34 138.5t-34 138.5t-93 94.5t-130 34t-130 -34t-93.5 -94.5t-34.5 -138.5
t34.5 -138.5t93.5 -94.5t130 -34t130 34z" />
    <glyph glyph-name="Pi" unicode="&#x3a0;" horiz-adv-x="696" 
d="M82 716h533v-716h-112v609h-309v-609h-112v716z" />
    <glyph glyph-name="Rho" unicode="&#x3a1;" horiz-adv-x="595" 
d="M82 716h248q63 0 116.5 -28t85 -78t31.5 -113t-31.5 -113t-85 -78t-116.5 -28h-136v-278h-112v716zM332 384q37 0 64 16.5t41 42.5t14 54t-14 54t-41 42t-64 16h-138v-225h138z" />
    <glyph glyph-name="Sigma" unicode="&#x3a3;" horiz-adv-x="527" 
d="M50 113l203 253l-203 237v113h445v-105h-316l207 -245l-207 -261h316v-105h-445v113z" />
    <glyph glyph-name="Tau" unicode="&#x3a4;" horiz-adv-x="565" 
d="M227 609h-200v107h512v-107h-200v-609h-112v609z" />
    <glyph glyph-name="Upsilon" unicode="&#x3a5;" horiz-adv-x="619" 
d="M256 333l-241 383h133l161 -266h6l156 266h134l-237 -383v-333h-112v333z" />
    <glyph glyph-name="Phi" unicode="&#x3a6;" horiz-adv-x="816" 
d="M732.5 216.5q-37.5 -64.5 -107 -106t-161.5 -51.5v-74h-112v74q-92 10 -161.5 51.5t-107 106t-37.5 141.5q0 78 37.5 142.5t107 105.5t161.5 51v74h112v-74q92 -10 161.5 -51t107 -105.5t37.5 -142.5q0 -77 -37.5 -141.5zM210.5 228q51.5 -52 141.5 -65v390
q-90 -13 -141.5 -65t-51.5 -130t51.5 -130zM605.5 228q51.5 52 51.5 130t-51.5 130t-141.5 65v-390q90 13 141.5 65z" />
    <glyph glyph-name="Chi" unicode="&#x3a7;" horiz-adv-x="664" 
d="M256 372l-221 344h136l158 -255h6l157 255h137l-222 -344l238 -372h-136l-174 277h-6l-174 -277h-136z" />
    <glyph glyph-name="Psi" unicode="&#x3a8;" horiz-adv-x="772" 
d="M330 156q-72 0 -132 36t-96 102.5t-36 153.5v268h112v-274q0 -79 39 -129t113 -50v453h112v-453q74 0 113.5 50t39.5 129v274h111v-268q0 -87 -35.5 -153.5t-96 -102.5t-132.5 -36v-156h-112v156z" />
    <glyph glyph-name="uni03A9" unicode="&#x3a9;" horiz-adv-x="811" 
d="M65 102h146v6q-73 40 -116.5 113t-43.5 168q0 92 46 171t127.5 125.5t181.5 46.5t181 -47t127 -125.5t46 -170.5q0 -95 -43.5 -168t-116.5 -113v-6h146v-102h-287v145q82 21 135 86t53 154q0 68 -32.5 122.5t-88 86t-120.5 31.5q-66 0 -121.5 -31.5t-88 -86t-32.5 -122.5
q0 -89 53 -154t135 -86v-145h-287v102z" />
    <glyph glyph-name="Iotadieresis" unicode="&#x3aa;" horiz-adv-x="275" 
d="M14 815q-18 18 -18 41q0 24 18 41.5t42 17.5q25 0 42 -17t17 -42q0 -24 -17.5 -41.5t-41.5 -17.5t-42 18zM179 815q-18 18 -18 41q0 24 17.5 41.5t41.5 17.5q25 0 42 -17t17 -42q0 -24 -17.5 -41.5t-41.5 -17.5q-23 0 -41 18zM82 716h112v-716h-112v716z" />
    <glyph glyph-name="Upsilondieresis" unicode="&#x3ab;" horiz-adv-x="619" 
d="M256 333l-241 383h133l161 -266h6l156 266h134l-237 -383v-333h-112v333zM178 798q-19 19 -19 45q0 27 19 45.5t45 18.5q27 0 45.5 -18.5t18.5 -45.5q0 -26 -18.5 -45t-45.5 -19q-26 0 -45 19zM357 798q-19 19 -19 45q0 27 18.5 45.5t44.5 18.5q28 0 46 -18.5t18 -45.5
q0 -26 -18.5 -45t-45.5 -19q-25 0 -44 19z" />
    <glyph glyph-name="alphatonos" unicode="&#x3ac;" horiz-adv-x="615" 
d="M157 19q-56 35 -88.5 96.5t-32.5 139.5t32.5 139.5t88.5 96.5t125 35q54 0 97 -24t65 -59h5v67h105v-510h-105v66h-5q-22 -34 -65 -58t-97 -24q-69 0 -125 35zM372.5 106q34.5 21 55.5 60t21 89t-21 88.5t-55.5 59.5t-74.5 21t-75 -21t-56 -59.5t-21 -88.5t21 -89t56 -60
t75 -21t74.5 21zM294 736h125l-79 -132h-92z" />
    <glyph glyph-name="epsilontonos" unicode="&#x3ad;" horiz-adv-x="515" 
d="M102 26.5q-58 42.5 -58 115.5q0 39 22 70t62 48v6q-65 33 -65 111q0 41 25 75t69.5 54t99.5 20q61 0 106 -19t84 -60l-69 -66q-26 27 -55 39t-66 12q-41 0 -65.5 -19t-24.5 -45q0 -32 23.5 -49.5t58.5 -17.5h75v-84h-80q-42 0 -66.5 -19.5t-24.5 -48.5q0 -31 29 -50
t77 -19q75 0 138 66l71 -70q-40 -44 -93 -68t-116 -24q-99 0 -157 42.5zM258 736h125l-79 -132h-92z" />
    <glyph glyph-name="etatonos" unicode="&#x3ae;" horiz-adv-x="582" 
d="M412 308q0 59 -30 87.5t-81 28.5q-37 0 -66 -20.5t-45 -54.5t-16 -73v-276h-110v510h105v-67h5q22 36 65.5 59.5t92.5 23.5q92 0 141 -54.5t49 -148.5v-539h-110v524zM304 736h125l-79 -132h-92z" />
    <glyph glyph-name="iotatonos" unicode="&#x3af;" horiz-adv-x="255" 
d="M72 510h110v-510h-110v510zM127 736h125l-79 -132h-92z" />
    <glyph glyph-name="upsilondieresistonos" unicode="&#x3b0;" horiz-adv-x="579" 
d="M173.5 13.5q-52.5 29.5 -83 81t-30.5 116.5v299h110v-276q0 -71 35.5 -110t90.5 -39q35 0 66.5 18.5t51 54t19.5 85.5q0 59 -25 128t-70 139h122q36 -59 59.5 -129t23.5 -140q0 -85 -35.5 -143t-93.5 -86t-125 -28q-63 0 -115.5 29.5zM246 752h69v-144h-69v144z
M115.5 638q-17.5 18 -17.5 41q0 24 17.5 41t41.5 17q25 0 41.5 -16.5t16.5 -41.5q0 -24 -17 -41.5t-41 -17.5t-41.5 18zM364.5 638q-17.5 18 -17.5 41q0 24 17 41t41 17q25 0 42 -16.5t17 -41.5q0 -24 -17.5 -41.5t-41.5 -17.5q-23 0 -40.5 18z" />
    <glyph glyph-name="alpha" unicode="&#x3b1;" horiz-adv-x="615" 
d="M157 19q-56 35 -88.5 96.5t-32.5 139.5t32.5 139.5t88.5 96.5t125 35q54 0 97 -24t65 -59h5v67h105v-510h-105v66h-5q-22 -34 -65 -58t-97 -24q-69 0 -125 35zM372.5 106q34.5 21 55.5 60t21 89t-21 88.5t-55.5 59.5t-74.5 21t-75 -21t-56 -59.5t-21 -88.5t21 -89t56 -60
t75 -21t74.5 21z" />
    <glyph glyph-name="beta" unicode="&#x3b2;" horiz-adv-x="590" 
d="M80 512q0 63 26.5 113t77 78.5t118.5 28.5q61 0 110 -24.5t76.5 -68.5t27.5 -100q0 -54 -23 -90.5t-60 -58.5v-6q53 -22 84.5 -67t31.5 -111q0 -64 -30 -114.5t-81 -79t-112 -28.5q-84 0 -134 64h-6l6 -72v-192h-112v728zM401.5 122.5q36.5 36.5 36.5 88.5q0 33 -18.5 61
t-48.5 44.5t-65 16.5h-36v99h26q52 0 81.5 28t29.5 74q0 42 -30.5 68.5t-74.5 26.5q-52 0 -81 -32.5t-29 -84.5v-296q0 -61 31 -95.5t90 -34.5q52 0 88.5 36.5z" />
    <glyph glyph-name="gamma" unicode="&#x3b3;" horiz-adv-x="576" 
d="M232 7l-224 503h123l155 -373h4l157 373h121l-226 -503v-223h-110v223z" />
    <glyph glyph-name="delta" unicode="&#x3b4;" horiz-adv-x="607" 
d="M165 19.5q-61 35.5 -95 97.5t-34 138q0 100 56 169.5t150 90.5l-160 116v85h431v-96h-248l187 -136q118 -86 118 -229q0 -76 -34 -138t-95 -97.5t-138 -35.5t-138 35.5zM381 105.5q36 20.5 57.5 59t21.5 90.5t-21.5 90t-57.5 58.5t-78 20.5t-78 -20.5t-57.5 -58.5
t-21.5 -90t21.5 -90.5t57.5 -59t78 -20.5t78 20.5z" />
    <glyph glyph-name="epsilon" unicode="&#x3b5;" horiz-adv-x="515" 
d="M102 26.5q-58 42.5 -58 115.5q0 39 22 70t62 48v6q-65 33 -65 111q0 41 25 75t69.5 54t99.5 20q61 0 106 -19t84 -60l-69 -66q-26 27 -55 39t-66 12q-41 0 -65.5 -19t-24.5 -45q0 -32 23.5 -49.5t58.5 -17.5h75v-84h-80q-42 0 -66.5 -19.5t-24.5 -48.5q0 -31 29 -50
t77 -19q75 0 138 66l71 -70q-40 -44 -93 -68t-116 -24q-99 0 -157 42.5z" />
    <glyph glyph-name="zeta" unicode="&#x3b6;" horiz-adv-x="511" 
d="M330 -75q22 0 33 10.5t11 27.5t-11 27t-33 10h-133q-79 0 -122 39.5t-43 102.5q0 37 17.5 68.5t50.5 55.5l206 147h-256v97h415v-94l-294 -212q-29 -23 -29 -52q0 -25 18.5 -40.5t48.5 -15.5h122q68 0 107.5 -35t39.5 -94q0 -63 -41.5 -99t-106.5 -36v93z" />
    <glyph glyph-name="eta" unicode="&#x3b7;" horiz-adv-x="582" 
d="M412 308q0 59 -30 87.5t-81 28.5q-37 0 -66 -20.5t-45 -54.5t-16 -73v-276h-110v510h105v-67h5q22 36 65.5 59.5t92.5 23.5q92 0 141 -54.5t49 -148.5v-539h-110v524z" />
    <glyph glyph-name="theta" unicode="&#x3b8;" horiz-adv-x="682" 
d="M185 31.5q-64 47.5 -98.5 129t-34.5 181.5q0 101 34.5 182.5t98.5 128.5t148 47t147.5 -47t98.5 -129t35 -182t-35 -181.5t-98.5 -129t-147.5 -47.5t-148 47.5zM497 405q-12 86 -55.5 138.5t-108.5 52.5t-108.5 -52.5t-55.5 -138.5h328zM450 151.5q45 63.5 51 163.5h-336
q6 -100 51 -163.5t117 -63.5t117 63.5z" />
    <glyph glyph-name="iota" unicode="&#x3b9;" horiz-adv-x="255" 
d="M72 510h110v-510h-110v510z" />
    <glyph glyph-name="kappa" unicode="&#x3ba;" horiz-adv-x="518" 
d="M64 510h110v-225h6l190 225h134v-6l-206 -236l216 -262v-6h-133l-201 250h-6v-250h-110v510z" />
    <glyph glyph-name="lambda" unicode="&#x3bb;" horiz-adv-x="532" 
d="M212 462l-111 244h116l307 -706h-121l-132 327h-4l-136 -327h-123z" />
    <glyph glyph-name="uni03BC" unicode="&#x3bc;" horiz-adv-x="582" 
d="M60 510h110v-300q0 -63 30 -94t77 -31q39 0 69 20.5t46 55t16 73.5v276h110v-510h-104v61h-6q-22 -35 -61 -56t-88 -21q-25 0 -48.5 9t-40.5 24h-5l5 -60v-173h-110v726z" />
    <glyph glyph-name="nu" unicode="&#x3bd;" horiz-adv-x="546" 
d="M7 510h123l141 -368h4l144 368h120l-212 -510h-110z" />
    <glyph glyph-name="xi" unicode="&#x3be;" horiz-adv-x="542" 
d="M361 -75q21 0 32.5 10.5t11.5 27.5q0 16 -11.5 26.5t-32.5 10.5h-83q-77 0 -132.5 26t-84.5 73t-29 109q0 63 32.5 104.5t82.5 63.5v6q-42 24 -66 58.5t-24 93.5q0 55 28.5 100.5t79 71.5t113.5 26q68 0 119.5 -25.5t94.5 -74.5l-77 -74q-29 38 -60.5 55t-72.5 17
q-51 0 -83 -28.5t-32 -72.5q0 -49 34 -77t85 -28h102v-99h-109q-58 0 -96.5 -31t-38.5 -80q0 -51 36.5 -80t104.5 -29h68q73 0 114.5 -38t41.5 -98q0 -64 -41 -100.5t-107 -36.5v93z" />
    <glyph glyph-name="omicron" unicode="&#x3bf;" horiz-adv-x="607" 
d="M165 19.5q-61 35.5 -95 97.5t-34 138t34 138t95 97.5t138 35.5t138 -36t95 -98t34 -137q0 -76 -34 -138t-95 -97.5t-138 -35.5t-138 35.5zM381 105.5q36 20.5 57.5 59t21.5 90.5t-21.5 90t-57.5 58.5t-78 20.5t-78 -20.5t-57.5 -58.5t-21.5 -90t21.5 -90.5t57.5 -59
t78 -20.5t78 20.5z" />
    <glyph glyph-name="pi" unicode="&#x3c0;" horiz-adv-x="728" 
d="M502.5 38q-44.5 46 -44.5 125v250h-206v-413h-110v413h-118v97h664v-97h-120v-243q0 -37 16.5 -57.5t45.5 -20.5q27 0 57 17v-107q-33 -10 -66 -10q-74 0 -118.5 46z" />
    <glyph glyph-name="rho" unicode="&#x3c1;" horiz-adv-x="617" 
d="M63 248q0 80 32.5 143.5t91 99t132.5 35.5q78 0 137.5 -35t91.5 -97t32 -139q0 -78 -31 -139.5t-86 -96.5t-123 -35q-55 0 -99 23.5t-68 58.5h-6l6 -68v-214h-110v464zM393.5 106q34.5 21 55.5 60t21 89t-21 88.5t-55.5 59.5t-74.5 21t-75 -21t-56 -59.5t-21 -88.5
t21 -89t56 -60t75 -21t74.5 21z" />
    <glyph glyph-name="sigma1" unicode="&#x3c2;" horiz-adv-x="557" 
d="M368 -91q23 0 35 10.5t12 27.5q0 16 -11.5 26.5t-32.5 10.5h-50q-92 0 -156 35.5t-96.5 97t-32.5 138.5q0 78 33.5 139.5t93.5 96.5t136 35q85 0 144 -37.5t84 -103.5l-101 -42q-16 41 -49 61t-80 20q-41 0 -75.5 -21t-55 -59.5t-20.5 -88.5q0 -48 21 -86.5t61 -61
t95 -22.5h42q70 0 112 -37t42 -97q0 -63 -41.5 -99t-109.5 -36v93z" />
    <glyph glyph-name="sigma" unicode="&#x3c3;" horiz-adv-x="623" 
d="M160.5 18q-59.5 34 -92 94t-32.5 135t32.5 135t92 94t136.5 34h309v-97h-46l-71 6v-6q68 -71 68 -166q0 -75 -32.5 -135t-91.5 -94t-136 -34t-136.5 34zM372 103.5q34 18.5 54.5 55.5t20.5 88t-20.5 87.5t-54.5 55t-75 18.5q-64 0 -107.5 -42.5t-43.5 -118.5
q0 -77 43.5 -119.5t107.5 -42.5q41 0 75 18.5z" />
    <glyph glyph-name="tau" unicode="&#x3c4;" horiz-adv-x="491" 
d="M190 408h-162v102h435v-102h-163v-408h-110v408z" />
    <glyph glyph-name="upsilon" unicode="&#x3c5;" horiz-adv-x="579" 
d="M173.5 13.5q-52.5 29.5 -83 81t-30.5 116.5v299h110v-276q0 -71 35.5 -110t90.5 -39q35 0 66.5 18.5t51 54t19.5 85.5q0 59 -25 128t-70 139h122q36 -59 59.5 -129t23.5 -140q0 -85 -35.5 -143t-93.5 -86t-125 -28q-63 0 -115.5 29.5z" />
    <glyph glyph-name="phi" unicode="&#x3c6;" horiz-adv-x="755" 
d="M668.5 134q-34.5 -59 -96 -97.5t-141.5 -48.5v-204h-111v203q-78 10 -139 47.5t-95 96.5t-34 132q0 99 49 160t123 103l49 -94q-49 -28 -79.5 -68t-30.5 -101q0 -71 43.5 -116t113.5 -58v283q0 76 42.5 115t108.5 39q67 0 120 -34.5t82.5 -93.5t29.5 -132t-34.5 -132z
M548 148.5q44 46.5 44 122.5q0 44 -15 79t-40 54.5t-55 19.5q-25 0 -38 -16t-13 -45v-274q73 13 117 59.5z" />
    <glyph glyph-name="chi" unicode="&#x3c7;" horiz-adv-x="514" 
d="M191 259l-176 251h128l113 -166h3l108 166h132l-178 -251l180 -259h-130l-114 172h-3l-111 -172h-130z" />
    <glyph glyph-name="psi" unicode="&#x3c8;" horiz-adv-x="729" 
d="M318 -16q-76 0 -134.5 32t-91 89.5t-32.5 131.5v273h110v-272q0 -74 43 -113.5t105 -39.5v425h111v-424q63 0 108 41.5t45 121.5q0 121 -75 261h117q31 -57 49.5 -127t18.5 -137q0 -85 -39 -144.5t-99.5 -88.5t-124.5 -29v-200h-111v200z" />
    <glyph glyph-name="omega" unicode="&#x3c9;" horiz-adv-x="817" 
d="M146 13.5q-50 29.5 -80 87.5t-30 141q0 135 76 268h125q-88 -142 -88 -266q0 -71 29 -113.5t79 -42.5q45 0 72.5 38t27.5 109v150h104v-150q0 -71 27.5 -109t71.5 -38q50 0 79 42.5t29 113.5q0 126 -87 266h124q76 -133 76 -268q0 -83 -30 -141t-80 -87.5t-110 -29.5
q-50 0 -89 24t-63 70q-25 -46 -64 -70t-89 -24q-60 0 -110 29.5z" />
    <glyph glyph-name="iotadieresis" unicode="&#x3ca;" horiz-adv-x="255" 
d="M8 635q-19 19 -19 44q0 26 19 44t44 18q26 0 44.5 -18t18.5 -44t-18.5 -44.5t-44.5 -18.5q-25 0 -44 19zM159 635q-19 19 -19 44q0 26 18.5 44t44.5 18t44 -18t18 -44t-18 -44.5t-44 -18.5q-25 0 -44 19zM72 510h110v-510h-110v510z" />
    <glyph glyph-name="upsilondieresis" unicode="&#x3cb;" horiz-adv-x="579" 
d="M173.5 13.5q-52.5 29.5 -83 81t-30.5 116.5v299h110v-276q0 -71 35.5 -110t90.5 -39q35 0 66.5 18.5t51 54t19.5 85.5q0 59 -25 128t-70 139h122q36 -59 59.5 -129t23.5 -140q0 -85 -35.5 -143t-93.5 -86t-125 -28q-63 0 -115.5 29.5zM147 634q-19 19 -19 45
q0 27 18.5 45t45.5 18t45.5 -18t18.5 -45q0 -26 -18.5 -45t-45.5 -19q-26 0 -45 19zM325.5 634q-18.5 19 -18.5 45q0 27 18.5 45t44.5 18q28 0 46 -18t18 -45t-18.5 -45.5t-45.5 -18.5q-26 0 -44.5 19z" />
    <glyph glyph-name="omicrontonos" unicode="&#x3cc;" horiz-adv-x="607" 
d="M165 19.5q-61 35.5 -95 97.5t-34 138t34 138t95 97.5t138 35.5t138 -36t95 -98t34 -137q0 -76 -34 -138t-95 -97.5t-138 -35.5t-138 35.5zM381 105.5q36 20.5 57.5 59t21.5 90.5t-21.5 90t-57.5 58.5t-78 20.5t-78 -20.5t-57.5 -58.5t-21.5 -90t21.5 -90.5t57.5 -59
t78 -20.5t78 20.5zM303 736h125l-79 -132h-92z" />
    <glyph glyph-name="upsilontonos" unicode="&#x3cd;" horiz-adv-x="579" 
d="M173.5 13.5q-52.5 29.5 -83 81t-30.5 116.5v299h110v-276q0 -71 35.5 -110t90.5 -39q35 0 66.5 18.5t51 54t19.5 85.5q0 59 -25 128t-70 139h122q36 -59 59.5 -129t23.5 -140q0 -85 -35.5 -143t-93.5 -86t-125 -28q-63 0 -115.5 29.5zM281 736h125l-79 -132h-92z" />
    <glyph glyph-name="omegatonos" unicode="&#x3ce;" horiz-adv-x="817" 
d="M146 13.5q-50 29.5 -80 87.5t-30 141q0 135 76 268h125q-88 -142 -88 -266q0 -71 29 -113.5t79 -42.5q45 0 72.5 38t27.5 109v150h104v-150q0 -71 27.5 -109t71.5 -38q50 0 79 42.5t29 113.5q0 126 -87 266h124q76 -133 76 -268q0 -83 -30 -141t-80 -87.5t-110 -29.5
q-50 0 -89 24t-63 70q-25 -46 -64 -70t-89 -24q-60 0 -110 29.5zM409 736h125l-79 -132h-92z" />
    <glyph glyph-name="theta1" unicode="&#x3d1;" horiz-adv-x="651" 
d="M172.5 14q-53.5 30 -83 83t-29.5 121v292h107v-277q0 -72 35.5 -110.5t94.5 -38.5q58 0 92.5 38.5t34.5 110.5v44q-60 14 -109 55.5t-78 101t-29 124.5q0 54 21 93.5t57.5 60t80.5 20.5q76 0 120 -48.5t44 -122.5v-193h89v-95h-89v-54q0 -70 -28.5 -123t-81.5 -82.5
t-124 -29.5t-124.5 30zM424 568q0 30 -15 49t-42 19q-24 0 -39.5 -21t-15.5 -57q0 -60 30.5 -111t81.5 -71v192z" />
    <glyph glyph-name="Upsilon1" unicode="&#x3d2;" horiz-adv-x="630" 
d="M259 315l-125 249q-16 31 -31 43.5t-33 12.5q-22 0 -47 -16v108q11 5 28.5 8.5t33.5 3.5q44 0 77 -22t63 -87l87 -184h6l87 184q30 65 63 87t77 22q16 0 33.5 -3.5t28.5 -8.5v-108q-25 16 -47 16q-18 0 -33 -12.5t-31 -43.5l-125 -249v-315h-112v315z" />
    <glyph glyph-name="uni03D3" unicode="&#x3d3;" horiz-adv-x="734" 
d="M-26 720h125l-80 -132h-92zM363 315l-125 249q-16 31 -31 43.5t-33 12.5q-22 0 -47 -16v108q11 5 28.5 8.5t33.5 3.5q44 0 77 -22t63 -87l87 -184h6l87 184q30 65 63 87t77 22q16 0 33.5 -3.5t28.5 -8.5v-108q-25 16 -47 16q-18 0 -33 -12.5t-31 -43.5l-125 -249v-315
h-112v315z" />
    <glyph glyph-name="uni03D4" unicode="&#x3d4;" horiz-adv-x="630" 
d="M259 315l-125 249q-16 31 -31 43.5t-33 12.5q-22 0 -47 -16v108q11 5 28.5 8.5t33.5 3.5q44 0 77 -22t63 -87l87 -184h6l87 184q30 65 63 87t77 22q16 0 33.5 -3.5t28.5 -8.5v-108q-25 16 -47 16q-18 0 -33 -12.5t-31 -43.5l-125 -249v-315h-112v315zM182 798
q-19 19 -19 45q0 27 19 45.5t45 18.5q27 0 45.5 -18.5t18.5 -45.5q0 -26 -18.5 -45t-45.5 -19q-26 0 -45 19zM361 798q-19 19 -19 45q0 27 18.5 45.5t44.5 18.5q28 0 46 -18.5t18 -45.5q0 -26 -18.5 -45t-45.5 -19q-25 0 -44 19z" />
    <glyph glyph-name="omega1" unicode="&#x3d6;" horiz-adv-x="914" 
d="M195 13.5q-50 29.5 -80 87.5t-30 141q0 85 36 176h-74v92h820v-92h-74q36 -87 36 -176q0 -83 -30 -141t-79.5 -87.5t-109.5 -29.5q-49 0 -88.5 24.5t-64.5 69.5q-24 -45 -63.5 -69.5t-88.5 -24.5q-60 0 -110 29.5zM377.5 126q27.5 38 27.5 109v99h104v-99
q0 -71 27.5 -109t71.5 -38q51 0 80 42.5t29 113.5q0 81 -41 174h-437q-42 -92 -42 -174q0 -71 29 -113.5t80 -42.5q44 0 71.5 38z" />
    <glyph glyph-name="uni0400" unicode="&#x400;" horiz-adv-x="574" 
d="M82 716h435v-107h-323v-198h291v-106h-291v-198h323v-107h-435v716zM173 904h124l48 -132h-92z" />
    <glyph glyph-name="uni0401" unicode="&#x401;" horiz-adv-x="574" 
d="M82 716h435v-107h-323v-198h291v-106h-291v-198h323v-107h-435v716zM165 798q-19 19 -19 45q0 27 19 45.5t45 18.5q27 0 45.5 -18.5t18.5 -45.5q0 -26 -18.5 -45t-45.5 -19q-26 0 -45 19zM344 798q-19 19 -19 45q0 27 18.5 45.5t44.5 18.5q28 0 46 -18.5t18 -45.5
q0 -26 -18.5 -45t-45.5 -19q-25 0 -44 19z" />
    <glyph glyph-name="uni0402" unicode="&#x402;" horiz-adv-x="775" 
d="M218 609h-191v107h497v-107h-194v-170l-6 -71h6q70 70 181 70q60 0 112 -27.5t84 -77.5t32 -116q0 -70 -29.5 -118.5t-79.5 -73t-113 -25.5h-29v103h25q52 0 82.5 32t30.5 80q0 52 -38 85.5t-99 33.5q-51 0 -93 -21t-66 -56v-257h-112v609z" />
    <glyph glyph-name="uni0403" unicode="&#x403;" horiz-adv-x="527" 
d="M82 716h419v-107h-307v-609h-112v716zM292 904h125l-80 -132h-92z" />
    <glyph glyph-name="uni0404" unicode="&#x404;" horiz-adv-x="745" 
d="M702 113q-51 -61 -125 -95t-161 -34q-105 0 -189.5 49t-132.5 134.5t-48 190.5t48 190.5t132.5 134.5t189.5 49q81 0 148.5 -30.5t117.5 -86.5l-79 -77q-71 87 -188 87q-64 0 -118.5 -26.5t-91 -75.5t-46.5 -115h324v-100h-324q10 -66 46.5 -115t91 -75.5t118.5 -26.5
q63 0 115.5 26t91.5 73z" />
    <glyph glyph-name="uni0405" unicode="&#x405;" horiz-adv-x="577" 
d="M129 36q-71 52 -98 146l106 43q16 -59 56.5 -96.5t97.5 -37.5q53 0 90 27.5t37 75.5q0 44 -32.5 72.5t-113.5 57.5l-45 16q-72 25 -121 72t-49 124q0 53 29 98t80.5 71.5t116.5 26.5q94 0 150 -45.5t75 -102.5l-101 -43q-11 34 -42 60t-80 26t-82.5 -25t-33.5 -64
q0 -37 30 -61t94 -46l45 -15q92 -32 142.5 -83.5t50.5 -137.5q0 -70 -36 -117.5t-91.5 -70.5t-114.5 -23q-89 0 -160 52z" />
    <glyph glyph-name="uni0406" unicode="&#x406;" horiz-adv-x="275" 
d="M82 716h112v-716h-112v716z" />
    <glyph glyph-name="uni0407" unicode="&#x407;" horiz-adv-x="275" 
d="M14 811q-18 18 -18 41q0 24 18 41.5t42 17.5q25 0 42 -17t17 -42q0 -24 -17.5 -41.5t-41.5 -17.5t-42 18zM179 811q-18 18 -18 41q0 24 17.5 41.5t41.5 17.5q25 0 42 -17t17 -42q0 -24 -17.5 -41.5t-41.5 -17.5q-23 0 -41 18zM82 716h112v-716h-112v716z" />
    <glyph glyph-name="uni0408" unicode="&#x408;" horiz-adv-x="551" 
d="M113 28.5q-61 44.5 -86 124.5l104 43q31 -105 125 -105q52 0 83 35.5t31 93.5v496h111v-492q0 -76 -29 -130t-80 -82t-116 -28q-82 0 -143 44.5z" />
    <glyph glyph-name="uni0409" unicode="&#x409;" horiz-adv-x="1090" 
d="M27 -4v107q11 -5 33 -5q38 0 62 24q19 21 26.5 67.5t7.5 137.5v389h491v-294h170q63 0 116 -25.5t84.5 -73.5t31.5 -112t-31.5 -112t-84.5 -73.5t-116 -25.5h-281v609h-268v-326q0 -97 -16.5 -154.5t-50.5 -91.5q-48 -45 -135 -45q-19 0 -39 4zM821 105q51 0 81.5 31.5
t30.5 74.5t-30.5 74.5t-81.5 31.5h-174v-212h174z" />
    <glyph glyph-name="uni040A" unicode="&#x40a;" horiz-adv-x="1053" 
d="M82 716h112v-294h304v294h112v-294h170q63 0 116 -25.5t84.5 -73.5t31.5 -112t-31.5 -112t-84.5 -73.5t-116 -25.5h-282v317h-304v-317h-112v716zM784 105q51 0 81.5 31.5t30.5 74.5t-30.5 74.5t-81.5 31.5h-174v-212h174z" />
    <glyph glyph-name="uni040B" unicode="&#x40b;" horiz-adv-x="773" 
d="M218 609h-191v107h497v-107h-194v-170l-6 -71h6q67 70 175 70q57 0 105 -25.5t76 -73.5t28 -114v-225h-110v203q0 62 -33.5 96.5t-95.5 34.5q-46 0 -83.5 -21t-61.5 -56v-257h-112v609z" />
    <glyph glyph-name="uni040C" unicode="&#x40c;" horiz-adv-x="648" 
d="M82 716h112v-347h6l283 347h141v-6l-299 -358l316 -346v-6h-148l-293 328h-6v-328h-112v716zM325 904h125l-80 -132h-92z" />
    <glyph glyph-name="uni040D" unicode="&#x40d;" horiz-adv-x="720" 
d="M82 716h111v-391l-6 -138h6l317 529h128v-716h-111v402l6 138h-6l-323 -540h-122v716zM234 904h124l48 -132h-92z" />
    <glyph glyph-name="uni040E" unicode="&#x40e;" horiz-adv-x="621" 
d="M96 -3v109q33 -18 60 -18t43 10.5t29 39.5l25 52l-238 526h125l167 -397h6l168 397h125l-274 -602q-30 -67 -72.5 -98.5t-100.5 -31.5q-37 0 -63 13zM246 784q-31 17 -49.5 47t-18.5 66h83q0 -21 13.5 -36t36.5 -15q22 0 35.5 15t13.5 36h81q0 -37 -18 -66.5t-48 -46.5
t-64 -17t-65 17z" />
    <glyph glyph-name="uni040F" unicode="&#x40f;" horiz-adv-x="696" 
d="M295 0h-213v716h112v-609h309v609h112v-716h-213v-157h-107v157z" />
    <glyph glyph-name="uni0410" unicode="&#x410;" horiz-adv-x="696" 
d="M284 716h128l269 -716h-124l-64 183h-289l-65 -183h-124zM455 287l-76 213l-28 83h-6l-28 -83l-76 -213h214z" />
    <glyph glyph-name="uni0411" unicode="&#x411;" horiz-adv-x="628" 
d="M82 716h433v-105h-321v-188h164q62 0 114.5 -25.5t83.5 -73.5t31 -112t-31 -112t-83.5 -74t-114.5 -26h-276v716zM363 105q50 0 80.5 32t30.5 75t-30 75t-81 32h-169v-214h169z" />
    <glyph glyph-name="uni0412" unicode="&#x412;" horiz-adv-x="628" 
d="M82 716h269q57 0 105.5 -25t77.5 -69t29 -97t-26.5 -92t-69.5 -59v-6q54 -19 87.5 -63t33.5 -103t-30.5 -105t-82 -71.5t-112.5 -25.5h-281v716zM346 416q48 0 77.5 30t29.5 69t-28.5 68.5t-74.5 29.5h-156v-197h152zM363 104q51 0 81.5 32t30.5 74q0 43 -31.5 74.5
t-84.5 31.5h-165v-212h169z" />
    <glyph glyph-name="uni0413" unicode="&#x413;" horiz-adv-x="527" 
d="M82 716h419v-107h-307v-609h-112v716z" />
    <glyph glyph-name="uni0414" unicode="&#x414;" horiz-adv-x="800" 
d="M753 107v-259h-107v152h-492v-152h-107v259h80q40 56 59 161.5t19 229.5v218h469v-609h79zM562 107v502h-246v-130q0 -112 -17.5 -208t-52.5 -164h316z" />
    <glyph glyph-name="uni0415" unicode="&#x415;" horiz-adv-x="574" 
d="M82 716h435v-107h-323v-198h291v-106h-291v-198h323v-107h-435v716z" />
    <glyph glyph-name="uni0416" unicode="&#x416;" horiz-adv-x="936" 
d="M6 6l286 345l-272 359v6h136l250 -338h6v338h112v-338h6l251 338h136v-6l-273 -359l286 -345v-6h-144l-256 321h-6v-321h-112v321h-6l-256 -321h-144v6z" />
    <glyph glyph-name="uni0417" unicode="&#x417;" horiz-adv-x="570" 
d="M134.5 30q-67.5 46 -92.5 136l102 41q14 -55 51 -87t87 -32q53 0 91.5 34.5t38.5 84.5t-40.5 84t-99.5 34h-59v98h52q54 0 89 28.5t35 78.5q0 44 -32.5 72t-81.5 28q-45 0 -75 -26.5t-42 -62.5l-99 41q21 59 76 104.5t141 45.5q65 0 116 -25.5t79 -70.5t28 -101
q0 -57 -24 -93t-65 -60v-6q51 -23 82 -67t31 -107q0 -61 -31.5 -111t-86.5 -78.5t-123 -28.5q-80 0 -147.5 46z" />
    <glyph glyph-name="uni0418" unicode="&#x418;" horiz-adv-x="720" 
d="M82 716h111v-391l-6 -138h6l317 529h128v-716h-111v402l6 138h-6l-323 -540h-122v716z" />
    <glyph glyph-name="uni0419" unicode="&#x419;" horiz-adv-x="720" 
d="M82 716h111v-391l-6 -138h6l317 529h128v-716h-111v402l6 138h-6l-323 -540h-122v716zM296 784q-31 17 -49.5 47t-18.5 66h83q0 -21 13.5 -36t36.5 -15q22 0 35.5 15t13.5 36h81q0 -37 -18 -66.5t-48 -46.5t-64 -17t-65 17z" />
    <glyph glyph-name="uni041A" unicode="&#x41a;" horiz-adv-x="648" 
d="M82 716h112v-347h6l283 347h141v-6l-299 -358l316 -346v-6h-148l-293 328h-6v-328h-112v716z" />
    <glyph glyph-name="uni041B" unicode="&#x41b;" horiz-adv-x="729" 
d="M27 -4v107q11 -5 33 -5q38 0 62 24q19 21 26.5 67.5t7.5 137.5v389h491v-716h-111v609h-268v-326q0 -97 -16.5 -154.5t-50.5 -91.5q-48 -45 -135 -45q-19 0 -39 4z" />
    <glyph glyph-name="uni041C" unicode="&#x41c;" horiz-adv-x="886" 
d="M82 716h152l206 -543h6l206 543h152v-716h-111v401l6 129h-6l-205 -530h-90l-205 530h-6l6 -129v-401h-111v716z" />
    <glyph glyph-name="uni041D" unicode="&#x41d;" horiz-adv-x="719" 
d="M82 716h112v-297h332v297h111v-716h-111v313h-332v-313h-112v716z" />
    <glyph glyph-name="uni041E" unicode="&#x41e;" horiz-adv-x="834" 
d="M228 33.5q-85 49.5 -133.5 135.5t-48.5 189t48.5 188.5t133.5 135.5t189 50t188.5 -50t133.5 -135.5t49 -188.5t-48.5 -189t-133.5 -135.5t-189 -49.5t-189 49.5zM547 125q59 34 93 94.5t34 138.5t-34 138.5t-93 94.5t-130 34t-130 -34t-93.5 -94.5t-34.5 -138.5
t34.5 -138.5t93.5 -94.5t130 -34t130 34z" />
    <glyph glyph-name="uni041F" unicode="&#x41f;" horiz-adv-x="696" 
d="M82 716h533v-716h-112v609h-309v-609h-112v716z" />
    <glyph glyph-name="uni0420" unicode="&#x420;" horiz-adv-x="595" 
d="M82 716h248q63 0 116.5 -28t85 -78t31.5 -113t-31.5 -113t-85 -78t-116.5 -28h-136v-278h-112v716zM332 384q37 0 64 16.5t41 42.5t14 54t-14 54t-41 42t-64 16h-138v-225h138z" />
    <glyph glyph-name="uni0421" unicode="&#x421;" horiz-adv-x="748" 
d="M230 33q-86 49 -135 135t-49 190t49 190t135 135t190 49q81 0 147.5 -30t117.5 -87l-80 -77q-37 44 -82 65.5t-103 21.5q-72 0 -131.5 -33t-94.5 -93.5t-35 -140.5t35 -140.5t94.5 -93.5t131.5 -33q120 0 204 100l81 -78q-52 -61 -125 -95t-160 -34q-104 0 -190 49z" />
    <glyph glyph-name="uni0422" unicode="&#x422;" horiz-adv-x="565" 
d="M227 609h-200v107h512v-107h-200v-609h-112v609z" />
    <glyph glyph-name="uni0423" unicode="&#x423;" horiz-adv-x="621" 
d="M96 -3v109q33 -18 60 -18t43 10.5t29 39.5l25 52l-238 526h125l167 -397h6l168 397h125l-274 -602q-30 -67 -72.5 -98.5t-100.5 -31.5q-37 0 -63 13z" />
    <glyph glyph-name="uni0424" unicode="&#x424;" horiz-adv-x="832" 
d="M746.5 214.5q-39.5 -64.5 -110.5 -105t-164 -50.5v-107h-112v107q-93 10 -164 50.5t-110.5 105t-39.5 143.5t39.5 143.5t110.5 105t164 50.5v107h112v-107q93 -10 164 -50.5t110.5 -105t39.5 -143.5t-39.5 -143.5zM213 226.5q54 -52.5 147 -64.5v392q-93 -12 -147 -64.5
t-54 -131.5t54 -131.5zM619 227q54 52 54 131t-54 131t-147 65v-392q93 13 147 65z" />
    <glyph glyph-name="uni0425" unicode="&#x425;" horiz-adv-x="664" 
d="M256 372l-221 344h136l158 -255h6l157 255h137l-222 -344l238 -372h-136l-174 277h-6l-174 -277h-136z" />
    <glyph glyph-name="uni0426" unicode="&#x426;" horiz-adv-x="737" 
d="M580 0h-498v716h112v-609h297v609h112v-609h87v-275h-110v168z" />
    <glyph glyph-name="uni0427" unicode="&#x427;" horiz-adv-x="614" 
d="M442 316q-66 -56 -163 -56q-65 0 -117.5 26.5t-83 76.5t-30.5 118v235h114v-216q0 -64 37.5 -99t100.5 -35q87 0 142 66v284h112v-716h-112v316z" />
    <glyph glyph-name="uni0428" unicode="&#x428;" horiz-adv-x="933" 
d="M82 716h112v-609h217v609h111v-609h217v609h112v-716h-769v716z" />
    <glyph glyph-name="uni0429" unicode="&#x429;" horiz-adv-x="980" 
d="M823 0h-741v716h112v-609h217v609h111v-609h217v609h112v-609h82v-275h-110v168z" />
    <glyph glyph-name="uni042A" unicode="&#x42a;" horiz-adv-x="770" 
d="M217 612h-190v104h302v-254h151q67 0 124 -28t91 -80t34 -122q0 -71 -34 -123.5t-91 -80.5t-124 -28h-263v612zM489 105q38 0 67 18t44.5 47.5t15.5 61.5q0 31 -15.5 60t-44.5 47.5t-67 18.5h-160v-253h160z" />
    <glyph glyph-name="uni042B" unicode="&#x42b;" horiz-adv-x="864" 
d="M82 716h112v-254h151q67 0 124 -28t91 -80t34 -122q0 -71 -34 -123.5t-91 -80.5t-124 -28h-263v716zM670 716h112v-716h-112v716zM354 105q39 0 68 18t44 47.5t15 61.5q0 31 -15.5 60t-44 47.5t-67.5 18.5h-160v-253h160z" />
    <glyph glyph-name="uni042C" unicode="&#x42c;" horiz-adv-x="635" 
d="M82 716h112v-254h151q67 0 124 -28t91 -80t34 -122q0 -71 -34 -123.5t-91 -80.5t-124 -28h-263v716zM354 105q39 0 68 18t44 47.5t15 61.5q0 31 -15.5 60t-44 47.5t-67.5 18.5h-160v-253h160z" />
    <glyph glyph-name="uni042D" unicode="&#x42d;" horiz-adv-x="745" 
d="M517.5 683q84.5 -49 133 -134.5t48.5 -190.5t-48.5 -190.5t-133 -134.5t-188.5 -49q-87 0 -161 34.5t-125 94.5l79 77q40 -47 92.5 -73t114.5 -26q64 0 119 26.5t91.5 75.5t46.5 115h-324v100h324q-10 66 -46.5 115t-91.5 75.5t-119 26.5q-58 0 -105.5 -22.5t-82.5 -64.5
l-78 77q50 56 117.5 86.5t148.5 30.5q104 0 188.5 -49z" />
    <glyph glyph-name="uni042E" unicode="&#x42e;" horiz-adv-x="1100" 
d="M871.5 682q84.5 -50 133 -135.5t48.5 -188.5t-48.5 -189t-133 -135.5t-188.5 -49.5q-97 0 -177.5 43t-131 118t-60.5 168h-120v-313h-112v716h112v-297h123q13 89 64 160.5t129.5 112t172.5 40.5q104 0 188.5 -50zM812.5 125q58.5 34 93 94.5t34.5 138.5t-34.5 138.5
t-93 94.5t-129.5 34t-130 -34t-93.5 -94.5t-34.5 -138.5t34.5 -138.5t93.5 -94.5t130 -34t129.5 34z" />
    <glyph glyph-name="uni042F" unicode="&#x42f;" horiz-adv-x="619" 
d="M21 6l197 283l-1 5q-70 19 -116.5 75t-46.5 128q0 63 30.5 113t83.5 78t117 28h252v-716h-112v280h-84l-189 -280h-131v6zM425 384v227h-142q-35 0 -61.5 -16.5t-40.5 -42.5t-14 -54q0 -50 35 -82t86 -32h137z" />
    <glyph glyph-name="uni0430" unicode="&#x430;" horiz-adv-x="547" 
d="M126 5.5q-43 21.5 -67 61t-24 89.5q0 79 59.5 125t150.5 46q45 0 81 -8.5t57 -18.5v26q0 47 -35 76.5t-90 29.5q-39 0 -73.5 -17t-55.5 -47l-77 59q34 47 88 73t120 26q111 0 171 -54.5t60 -153.5v-318h-108v61h-5q-22 -33 -62 -55t-92 -22q-55 0 -98 21.5zM315 94
q32 19 50 51t18 69q-23 13 -53.5 21t-63.5 8q-62 0 -91 -24.5t-29 -63.5q0 -35 27 -57.5t70 -22.5q40 0 72 19z" />
    <glyph glyph-name="uni0431" unicode="&#x431;" horiz-adv-x="619" 
d="M186.5 19.5q-60.5 35.5 -95.5 110.5t-35 189q0 120 27 194t75 118q36 33 87 51.5t110 18.5q37 0 56 3.5t27 10t12 18.5h102q-12 -72 -56 -99t-133 -27q-49 0 -79.5 -11.5t-53.5 -31.5q-55 -50 -64 -127h6q26 38 71.5 63.5t108.5 25.5q67 0 122 -36.5t86 -99t31 -135.5
q0 -76 -34 -138t-95 -97.5t-138 -35.5t-137.5 35.5zM402 105.5q36 20.5 57.5 59t21.5 90.5t-21.5 90t-57.5 58.5t-78 20.5t-77.5 -20.5t-57 -58.5t-21.5 -90t21.5 -90.5t57 -59t77.5 -20.5t78 20.5z" />
    <glyph glyph-name="uni0432" unicode="&#x432;" horiz-adv-x="525" 
d="M64 510h255q44 0 80 -17.5t56.5 -48t20.5 -67.5q0 -39 -17.5 -68t-46.5 -43v-6q38 -15 60 -45t22 -69q0 -43 -22.5 -76.5t-59.5 -51.5t-79 -18h-269v510zM307 303q26 0 43.5 16.5t17.5 41.5t-17.5 41.5t-43.5 16.5h-136v-116h136zM322 93q28 0 47 18t19 45t-19 45.5
t-47 18.5h-151v-127h151z" />
    <glyph glyph-name="uni0433" unicode="&#x433;" horiz-adv-x="450" 
d="M64 510h357v-97h-247v-413h-110v510z" />
    <glyph glyph-name="uni0434" unicode="&#x434;" horiz-adv-x="670" 
d="M33 98h56q22 29 36.5 94t14.5 134v184h419v-412h78v-250h-102v152h-400v-152h-102v250zM452 98v313h-205v-94q0 -59 -11.5 -116.5t-32.5 -102.5h249z" />
    <glyph glyph-name="uni0435" unicode="&#x435;" horiz-adv-x="576" 
d="M162.5 19q-59.5 35 -93 96.5t-33.5 138.5q0 73 32.5 135.5t90.5 99.5t132 37q77 0 133.5 -34t86 -93t29.5 -133q0 -14 -3 -35h-391q6 -71 50.5 -109.5t103.5 -38.5q47 0 81.5 21.5t55.5 58.5l93 -44q-36 -63 -94 -99t-139 -36q-75 0 -134.5 35zM428 315q-2 27 -17 53.5
t-45.5 44.5t-74.5 18q-53 0 -89.5 -31.5t-50.5 -84.5h277z" />
    <glyph glyph-name="uni0436" unicode="&#x436;" horiz-adv-x="774" 
d="M4 6l210 263l-199 235v6h131l180 -220h6v220h110v-220h6l181 220h131v-6l-201 -235l211 -263v-6h-132l-190 245h-6v-245h-110v245h-6l-190 -245h-132v6z" />
    <glyph glyph-name="uni0437" unicode="&#x437;" horiz-adv-x="516" 
d="M141 8q-53 24 -93 68l71 70q63 -66 138 -66q48 0 77 19t29 50q0 29 -24.5 48.5t-66.5 19.5h-80v84h75q35 0 58.5 17.5t23.5 49.5q0 26 -24.5 45t-65.5 19q-37 0 -66 -12t-55 -39l-69 66q39 41 84 60t106 19q55 0 99.5 -20t69.5 -54t25 -75q0 -78 -65 -111v-6
q40 -17 62 -48t22 -70q0 -73 -58 -115.5t-157 -42.5q-63 0 -116 24z" />
    <glyph glyph-name="uni0438" unicode="&#x438;" horiz-adv-x="588" 
d="M64 510h110v-249l-5 -96h5l240 345h110v-510h-110v249l5 96h-5l-240 -345h-110v510z" />
    <glyph glyph-name="uni0439" unicode="&#x439;" horiz-adv-x="588" 
d="M64 510h110v-249l-5 -96h5l240 345h110v-510h-110v249l5 96h-5l-240 -345h-110v510zM230 620q-31 17 -49.5 47t-18.5 66h83q0 -21 13.5 -36.5t36.5 -15.5q22 0 35.5 15.5t13.5 36.5h81q0 -37 -18 -66.5t-48 -46.5t-64 -17t-65 17z" />
    <glyph glyph-name="uni043A" unicode="&#x43a;" horiz-adv-x="518" 
d="M64 510h110v-225h6l190 225h134v-6l-206 -236l216 -262v-6h-133l-201 250h-6v-250h-110v510z" />
    <glyph glyph-name="uni043B" unicode="&#x43b;" horiz-adv-x="642" 
d="M49 0l1 98q16 -5 33 -5q22 0 34 14.5t17 48.5t5 96v258h438v-510h-107v410h-225v-189q0 -229 -143 -229q-33 0 -53 8z" />
    <glyph glyph-name="uni043C" unicode="&#x43c;" horiz-adv-x="710" 
d="M63 510h131l159 -307h5l157 307h132v-510h-108v243l6 96h-6l-145 -275h-77l-146 275h-6l6 -96v-243h-108v510z" />
    <glyph glyph-name="uni043D" unicode="&#x43d;" horiz-adv-x="594" 
d="M64 510h110v-202h246v202h110v-510h-110v205h-246v-205h-110v510z" />
    <glyph glyph-name="uni043E" unicode="&#x43e;" horiz-adv-x="607" 
d="M165 19.5q-61 35.5 -95 97.5t-34 138t34 138t95 97.5t138 35.5t138 -36t95 -98t34 -137q0 -76 -34 -138t-95 -97.5t-138 -35.5t-138 35.5zM381 105.5q36 20.5 57.5 59t21.5 90.5t-21.5 90t-57.5 58.5t-78 20.5t-78 -20.5t-57.5 -58.5t-21.5 -90t21.5 -90.5t57.5 -59
t78 -20.5t78 20.5z" />
    <glyph glyph-name="uni043F" unicode="&#x43f;" horiz-adv-x="580" 
d="M64 510h452v-510h-110v408h-232v-408h-110v510z" />
    <glyph glyph-name="uni0440" unicode="&#x440;" horiz-adv-x="614" 
d="M60 510h105v-67h5q22 35 65 59t97 24q69 0 125 -35t88.5 -96.5t32.5 -139.5t-32.5 -139.5t-88.5 -96.5t-125 -35q-54 0 -97 24t-65 58h-5l5 -71v-211h-110v726zM391 106q35 21 56 60t21 89t-21 88.5t-56 59.5t-75 21t-74.5 -21t-55.5 -59.5t-21 -88.5t21 -89t55.5 -60
t74.5 -21t75 21z" />
    <glyph glyph-name="uni0441" unicode="&#x441;" horiz-adv-x="561" 
d="M163.5 19q-60.5 35 -94 96.5t-33.5 139.5t33.5 139.5t94 96.5t136.5 35q84 0 143 -38t84 -103l-101 -42q-34 81 -129 81q-41 0 -75.5 -21t-55 -59.5t-20.5 -88.5t20.5 -89t55 -60t75.5 -21q48 0 82.5 21.5t52.5 61.5l99 -43q-29 -65 -88 -103t-143 -38q-76 0 -136.5 35z
" />
    <glyph glyph-name="uni0442" unicode="&#x442;" horiz-adv-x="491" 
d="M190 408h-162v102h435v-102h-163v-408h-110v408z" />
    <glyph glyph-name="uni0443" unicode="&#x443;" horiz-adv-x="548" 
d="M220 28l-212 482h123l144 -347h4l140 347h121l-315 -726h-116z" />
    <glyph glyph-name="uni0444" unicode="&#x444;" horiz-adv-x="786" 
d="M703 122.5q-37 -57.5 -103 -92t-152 -43.5v-203h-110v203q-131 13 -211.5 84t-80.5 184q0 75 37 132.5t103 92t152 43.5v193h110v-193q86 -9 152 -43.5t103 -92t37 -132.5t-37 -132.5zM201.5 141q49.5 -44 136.5 -55v338q-87 -11 -136.5 -55.5t-49.5 -113.5
q0 -70 49.5 -114zM584 141.5q50 44.5 50 113.5t-50 113.5t-136 55.5v-338q86 11 136 55.5z" />
    <glyph glyph-name="uni0445" unicode="&#x445;" horiz-adv-x="514" 
d="M191 259l-176 251h128l113 -166h3l108 166h132l-178 -251l180 -259h-130l-114 172h-3l-111 -172h-130z" />
    <glyph glyph-name="uni0446" unicode="&#x446;" horiz-adv-x="625" 
d="M491 0h-427v510h110v-410h232v410h110v-410h76v-252h-101v152z" />
    <glyph glyph-name="uni0447" unicode="&#x447;" horiz-adv-x="537" 
d="M363 185q-46 -27 -123 -27q-60 0 -105.5 25t-70.5 69t-25 100v158h112v-154q0 -46 29 -72t79 -26q32 0 59 7.5t45 22.5v222h110v-510h-110v185z" />
    <glyph glyph-name="uni0448" unicode="&#x448;" horiz-adv-x="817" 
d="M64 510h109v-410h171v410h109v-410h171v410h109v-510h-669v510z" />
    <glyph glyph-name="uni0449" unicode="&#x449;" horiz-adv-x="865" 
d="M707 0h-643v510h109v-410h171v410h109v-410h171v410h109v-410h76v-252h-102v152z" />
    <glyph glyph-name="uni044A" unicode="&#x44a;" horiz-adv-x="612" 
d="M152 417h-124v93h230v-173h142q52 0 94 -21t66 -59.5t24 -88.5t-24 -88t-66 -59t-94 -21h-248v417zM396 93q35 0 58.5 20.5t23.5 54.5t-23.5 55t-58.5 21h-138v-151h138z" />
    <glyph glyph-name="uni044B" unicode="&#x44b;" horiz-adv-x="738" 
d="M64 510h107v-173h142q52 0 94 -21t66 -59.5t24 -88.5t-24 -88t-66 -59t-94 -21h-249v510zM567 510h107v-510h-107v510zM309 93q35 0 58.5 20.5t23.5 54.5t-23.5 55t-58.5 21h-138v-151h138z" />
    <glyph glyph-name="uni044C" unicode="&#x44c;" horiz-adv-x="525" 
d="M64 510h107v-173h142q52 0 94 -21t66 -59.5t24 -88.5t-24 -88t-66 -59t-94 -21h-249v510zM309 93q35 0 58.5 20.5t23.5 54.5t-23.5 55t-58.5 21h-138v-151h138z" />
    <glyph glyph-name="uni044D" unicode="&#x44d;" horiz-adv-x="553" 
d="M114.5 22.5q-57.5 38.5 -84.5 102.5l92 41q38 -87 136 -87q56 0 99 36t55 97h-218v84h218q-11 62 -54 98t-100 36q-47 0 -80.5 -21.5t-50.5 -62.5l-93 39q25 66 81 103.5t140 37.5q76 0 135.5 -35t92.5 -96.5t33 -139.5t-33 -139.5t-92.5 -96.5t-135.5 -35
q-83 0 -140.5 38.5z" />
    <glyph glyph-name="uni044E" unicode="&#x44e;" horiz-adv-x="831" 
d="M402 12.5q-56 28.5 -91.5 79t-45.5 113.5h-88v-205h-110v510h110v-202h89q10 63 46 112.5t91.5 77.5t123.5 28q77 0 138 -36t95 -98t34 -137q0 -76 -34 -138t-95 -97.5t-138 -35.5q-69 0 -125 28.5zM605 105.5q36 20.5 57.5 59t21.5 90.5t-21.5 90t-57.5 58.5t-78 20.5
t-77.5 -20.5t-57 -58.5t-21.5 -90t21.5 -90.5t57 -59t77.5 -20.5t78 20.5z" />
    <glyph glyph-name="uni044F" unicode="&#x44f;" horiz-adv-x="517" 
d="M4 7l138 177l-2 4q-51 16 -82 58t-31 96q0 47 24 85.5t65.5 60.5t90.5 22h246v-510h-107v176h-90l-131 -176h-121v7zM346 266v151h-131q-34 0 -56.5 -21.5t-22.5 -54.5t22.5 -54t56.5 -21h131z" />
    <glyph glyph-name="uni0450" unicode="&#x450;" horiz-adv-x="576" 
d="M162.5 19q-59.5 35 -93 96.5t-33.5 138.5q0 73 32.5 135.5t90.5 99.5t132 37q77 0 133.5 -34t86 -93t29.5 -133q0 -14 -3 -35h-391q6 -71 50.5 -109.5t103.5 -38.5q47 0 81.5 21.5t55.5 58.5l93 -44q-36 -63 -94 -99t-139 -36q-75 0 -134.5 35zM428 315q-2 27 -17 53.5
t-45.5 44.5t-74.5 18q-53 0 -89.5 -31.5t-50.5 -84.5h277zM165 739h124l48 -131h-92z" />
    <glyph glyph-name="uni0451" unicode="&#x451;" horiz-adv-x="576" 
d="M162.5 19q-59.5 35 -93 96.5t-33.5 138.5q0 73 32.5 135.5t90.5 99.5t132 37q77 0 133.5 -34t86 -93t29.5 -133q0 -14 -3 -35h-391q6 -71 50.5 -109.5t103.5 -38.5q47 0 81.5 21.5t55.5 58.5l93 -44q-36 -63 -94 -99t-139 -36q-75 0 -134.5 35zM428 315q-2 27 -17 53.5
t-45.5 44.5t-74.5 18q-53 0 -89.5 -31.5t-50.5 -84.5h277zM157 634q-19 19 -19 45q0 27 18.5 45t45.5 18t45.5 -18t18.5 -45q0 -26 -18.5 -45t-45.5 -19q-26 0 -45 19zM335.5 634q-18.5 19 -18.5 45q0 27 18.5 45t44.5 18q28 0 46 -18t18 -45t-18.5 -45.5t-45.5 -18.5
q-26 0 -44.5 19z" />
    <glyph glyph-name="uni0452" unicode="&#x452;" horiz-adv-x="585" 
d="M315 -219v106q22 -12 47 -12q28 0 40 17t12 51v365q0 58 -30.5 87t-79.5 29q-37 0 -66.5 -21t-46.5 -55.5t-17 -73.5v-274h-110v576h-61v81h61v59h110v-59h146v-81h-146v-55l-5 -78h5q22 36 65.5 59.5t93.5 23.5q93 0 142 -54.5t49 -148.5v-382q0 -85 -41.5 -126
t-111.5 -41q-31 0 -56 7z" />
    <glyph glyph-name="uni0453" unicode="&#x453;" horiz-adv-x="450" 
d="M64 510h357v-97h-247v-413h-110v510zM244 739h125l-80 -131h-92z" />
    <glyph glyph-name="uni0454" unicode="&#x454;" horiz-adv-x="553" 
d="M162.5 19q-59.5 35 -93 96.5t-33.5 139.5t34 139.5t93.5 96.5t134.5 35q84 0 139.5 -37.5t81.5 -103.5l-93 -39q-17 41 -50 62.5t-80 21.5q-57 0 -100.5 -36t-54.5 -98h217v-84h-217q12 -60 55 -96.5t100 -36.5q97 0 135 87l92 -41q-27 -64 -84.5 -102.5t-140.5 -38.5
q-76 0 -135.5 35z" />
    <glyph glyph-name="uni0455" unicode="&#x455;" horiz-adv-x="490" 
d="M106 22.5q-56 38.5 -79 98.5l98 43q18 -40 50.5 -61t74.5 -21q41 0 69 14.5t28 43.5q0 28 -24 44t-74 28l-61 15q-61 15 -101 53t-40 96q0 45 26.5 79t71.5 52.5t98 18.5q71 0 125 -28.5t78 -82.5l-96 -42q-29 59 -106 59q-37 0 -62 -15t-25 -39q0 -23 19 -37.5t56 -24.5
l75 -19q75 -19 113.5 -57.5t38.5 -94.5q0 -48 -27.5 -84.5t-75.5 -56.5t-106 -20q-88 0 -144 38.5z" />
    <glyph glyph-name="uni0456" unicode="&#x456;" horiz-adv-x="255" 
d="M74.5 605.5q-21.5 21.5 -21.5 52.5t21.5 52.5t52.5 21.5t52.5 -21.5t21.5 -52.5t-21.5 -52.5t-52.5 -21.5t-52.5 21.5zM72 510h110v-510h-110v510z" />
    <glyph glyph-name="uni0457" unicode="&#x457;" horiz-adv-x="255" 
d="M8 635q-19 19 -19 44q0 26 19 44t44 18q26 0 44.5 -18t18.5 -44t-18.5 -44.5t-44.5 -18.5q-25 0 -44 19zM159 635q-19 19 -19 44q0 26 18.5 44t44.5 18t44 -18t18 -44t-18 -44.5t-44 -18.5q-25 0 -44 19zM72 510h110v-510h-110v510z" />
    <glyph glyph-name="uni0458" unicode="&#x458;" horiz-adv-x="255" 
d="M74.5 605.5q-21.5 21.5 -21.5 52.5t21.5 52.5t52.5 21.5t52.5 -21.5t21.5 -52.5t-21.5 -52.5t-52.5 -21.5t-52.5 21.5zM-27 -219v106q22 -12 47 -12q28 0 40 17t12 51v567h110v-569q0 -85 -41.5 -126t-111.5 -41q-32 0 -56 7z" />
    <glyph glyph-name="uni0459" unicode="&#x459;" horiz-adv-x="929" 
d="M49 0l1 98q16 -5 33 -5q22 0 34 14.5t17 48.5t5 96v258h438v-182h145q49 0 89 -20.5t63.5 -58t23.5 -85.5q0 -49 -23.5 -86t-63.5 -57.5t-89 -20.5h-252v410h-225v-189q0 -229 -143 -229q-33 0 -53 8zM716 93q35 0 55.5 19t20.5 52q0 32 -20.5 51.5t-55.5 19.5h-139v-142
h139z" />
    <glyph glyph-name="uni045A" unicode="&#x45a;" horiz-adv-x="864" 
d="M64 510h110v-182h216v182h109v-182h157q49 0 89.5 -20.5t64 -58t23.5 -85.5q0 -49 -23.5 -86t-63.5 -57.5t-90 -20.5h-266v235h-216v-235h-110v510zM649 93q35 0 56.5 19t21.5 52q0 32 -21.5 51.5t-56.5 19.5h-150v-142h150z" />
    <glyph glyph-name="uni045B" unicode="&#x45b;" horiz-adv-x="585" 
d="M475 471.5q49 -54.5 49 -148.5v-323h-110v308q0 58 -30.5 87t-79.5 29q-37 0 -66.5 -21t-46.5 -55.5t-17 -73.5v-274h-110v576h-61v81h61v59h110v-59h146v-81h-146v-55l-5 -78h5q22 36 65.5 59.5t93.5 23.5q93 0 142 -54.5z" />
    <glyph glyph-name="uni045C" unicode="&#x45c;" horiz-adv-x="518" 
d="M64 510h110v-225h6l190 225h134v-6l-206 -236l216 -262v-6h-133l-201 250h-6v-250h-110v510zM261 739h125l-80 -131h-92z" />
    <glyph glyph-name="uni045D" unicode="&#x45d;" horiz-adv-x="588" 
d="M64 510h110v-249l-5 -96h5l240 345h110v-510h-110v249l5 96h-5l-240 -345h-110v510zM168 739h124l48 -131h-92z" />
    <glyph glyph-name="uni045E" unicode="&#x45e;" horiz-adv-x="548" 
d="M220 28l-212 482h123l144 -347h4l140 347h121l-315 -726h-116zM210 620q-31 17 -49.5 47t-18.5 66h83q0 -21 13.5 -36.5t36.5 -15.5q22 0 35.5 15.5t13.5 36.5h81q0 -37 -18 -66.5t-48 -46.5t-64 -17t-65 17z" />
    <glyph glyph-name="uni045F" unicode="&#x45f;" horiz-adv-x="594" 
d="M246 0h-182v510h110v-409h246v409h110v-510h-182v-152h-102v152z" />
    <glyph glyph-name="uni0490" unicode="&#x490;" horiz-adv-x="528" 
d="M72 716h323v117h109v-224h-320v-609h-112v716z" />
    <glyph glyph-name="uni0491" unicode="&#x491;" horiz-adv-x="433" 
d="M56 510h253v102h100v-199h-243v-413h-110v510z" />
    <glyph glyph-name="uni04AE" unicode="&#x4ae;" horiz-adv-x="619" 
d="M256 333l-241 383h133l161 -266h6l156 266h134l-237 -383v-333h-112v333z" />
    <glyph glyph-name="uni04AF" unicode="&#x4af;" horiz-adv-x="538" 
d="M213 1l-206 509h122l140 -380l143 380h119l-208 -509v-217h-110v217z" />
    <glyph glyph-name="uni04B0" unicode="&#x4b0;" horiz-adv-x="619" 
d="M256 270h-174v84h161l-228 362h133l161 -266h6l156 266h134l-225 -362h161v-84h-173v-270h-112v270z" />
    <glyph glyph-name="uni04B1" unicode="&#x4b1;" horiz-adv-x="538" 
d="M213 0h-144v79h112l-15 35l-159 396h122l140 -380l143 380h119l-162 -396l-15 -35h112v-79h-143v-216h-110v216z" />
    <glyph glyph-name="uni0E3F" unicode="&#xe3f;" horiz-adv-x="599" 
d="M258 0h-186v684h186v100h82v-100q54 0 101.5 -24t75.5 -66t28 -93q0 -50 -25.5 -87t-68.5 -57v-5q53 -19 84.5 -60.5t31.5 -98.5t-29.5 -101t-80 -68t-109.5 -24h-8v-100h-82v100zM258 399v183h-76v-183h76zM410 427q26 27 26 63t-25.5 63.5t-67.5 28.5h-3v-183
q44 1 70 28zM258 103v198h-76v-198h76zM351 103q48 0 76.5 30t28.5 70q0 39 -28.5 68t-79.5 30h-8v-198h11z" />
    <glyph glyph-name="Wgrave" unicode="&#x1e80;" horiz-adv-x="965" 
d="M17 716h125l111 -461l12 -62h6l16 62l143 461h112l136 -461l16 -61h6l12 61l111 461h125l-189 -716h-119l-136 472l-15 64h-6l-17 -64l-142 -472h-116zM360 904h124l48 -132h-92z" />
    <glyph glyph-name="wgrave" unicode="&#x1e81;" horiz-adv-x="806" 
d="M7 510h119l103 -365h4l115 365h113l114 -365h4l103 365h117l-163 -510h-116l-117 366h-3l-116 -366h-114zM277 739h124l48 -131h-92z" />
    <glyph glyph-name="Wacute" unicode="&#x1e82;" horiz-adv-x="965" 
d="M17 716h125l111 -461l12 -62h6l16 62l143 461h112l136 -461l16 -61h6l12 61l111 461h125l-189 -716h-119l-136 472l-15 64h-6l-17 -64l-142 -472h-116zM487 904h125l-80 -132h-92z" />
    <glyph glyph-name="wacute" unicode="&#x1e83;" horiz-adv-x="806" 
d="M7 510h119l103 -365h4l115 365h113l114 -365h4l103 365h117l-163 -510h-116l-117 366h-3l-116 -366h-114zM404 739h125l-80 -131h-92z" />
    <glyph glyph-name="Wdieresis" unicode="&#x1e84;" horiz-adv-x="965" 
d="M17 716h125l111 -461l12 -62h6l16 62l143 461h112l136 -461l16 -61h6l12 61l111 461h125l-189 -716h-119l-136 472l-15 64h-6l-17 -64l-142 -472h-116zM352 798q-19 19 -19 45q0 27 19 45.5t45 18.5q27 0 45.5 -18.5t18.5 -45.5q0 -26 -18.5 -45t-45.5 -19q-26 0 -45 19z
M531 798q-19 19 -19 45q0 27 18.5 45.5t44.5 18.5q28 0 46 -18.5t18 -45.5q0 -26 -18.5 -45t-45.5 -19q-25 0 -44 19z" />
    <glyph glyph-name="wdieresis" unicode="&#x1e85;" horiz-adv-x="806" 
d="M7 510h119l103 -365h4l115 365h113l114 -365h4l103 365h117l-163 -510h-116l-117 366h-3l-116 -366h-114zM269 634q-19 19 -19 45q0 27 18.5 45t45.5 18t45.5 -18t18.5 -45q0 -26 -18.5 -45t-45.5 -19q-26 0 -45 19zM447.5 634q-18.5 19 -18.5 45q0 27 18.5 45t44.5 18
q28 0 46 -18t18 -45t-18.5 -45.5t-45.5 -18.5q-26 0 -44.5 19z" />
    <glyph glyph-name="Ygrave" unicode="&#x1ef2;" horiz-adv-x="619" 
d="M256 333l-241 383h133l161 -266h6l156 266h134l-237 -383v-333h-112v333zM183 904h124l48 -132h-92z" />
    <glyph glyph-name="ygrave" unicode="&#x1ef3;" horiz-adv-x="548" 
d="M220 28l-212 482h123l144 -347h4l140 347h121l-315 -726h-116zM148 739h124l48 -131h-92z" />
    <glyph glyph-name="uni2000" unicode="&#x2000;" horiz-adv-x="415" 
 />
    <glyph glyph-name="uni2001" unicode="&#x2001;" horiz-adv-x="830" 
 />
    <glyph glyph-name="uni2002" unicode="&#x2002;" horiz-adv-x="415" 
 />
    <glyph glyph-name="uni2003" unicode="&#x2003;" horiz-adv-x="830" 
 />
    <glyph glyph-name="uni2004" unicode="&#x2004;" horiz-adv-x="275" 
 />
    <glyph glyph-name="uni2005" unicode="&#x2005;" horiz-adv-x="207" 
 />
    <glyph glyph-name="uni2006" unicode="&#x2006;" horiz-adv-x="138" 
 />
    <glyph glyph-name="uni2007" unicode="&#x2007;" 
 />
    <glyph glyph-name="uni2008" unicode="&#x2008;" horiz-adv-x="232" 
 />
    <glyph glyph-name="uni2009" unicode="&#x2009;" horiz-adv-x="138" 
 />
    <glyph glyph-name="uni200A" unicode="&#x200a;" horiz-adv-x="70" 
 />
    <glyph glyph-name="endash" unicode="&#x2013;" horiz-adv-x="615" 
d="M63 357h489v-94h-489v94z" />
    <glyph glyph-name="emdash" unicode="&#x2014;" horiz-adv-x="918" 
d="M63 357h792v-94h-792v94z" />
    <glyph glyph-name="uni2015" unicode="&#x2015;" horiz-adv-x="1053" 
d="M63 357h927v-94h-927v94z" />
    <glyph glyph-name="quoteleft" unicode="&#x2018;" horiz-adv-x="249" 
d="M70.5 498q-22.5 22 -22.5 54q0 18 7 34t21 37l74 109l50 -33l-50 -77q21 -6 36 -25t15 -45q0 -31 -22 -53.5t-54 -22.5t-54.5 22z" />
    <glyph glyph-name="quoteright" unicode="&#x2019;" horiz-adv-x="249" 
d="M49 509l51 77q-22 6 -37 24.5t-15 44.5q0 32 22.5 54.5t54.5 22.5t54 -22.5t22 -54.5q0 -18 -7 -34.5t-20 -35.5l-75 -109z" />
    <glyph glyph-name="quotesinglbase" unicode="&#x201a;" horiz-adv-x="249" 
d="M49 -77l55 76q-23 6 -39.5 25t-16.5 45q0 32 22.5 54.5t54.5 22.5t54 -22.5t22 -54.5q0 -18 -7 -34.5t-20 -35.5l-75 -109z" />
    <glyph glyph-name="quotedblleft" unicode="&#x201c;" horiz-adv-x="445" 
d="M70.5 498q-22.5 22 -22.5 54q0 18 7 34t21 37l74 109l50 -33l-50 -77q21 -6 36 -25t15 -45q0 -31 -22 -53.5t-54 -22.5t-54.5 22zM266.5 498q-22.5 22 -22.5 54q0 18 7 34t21 37l74 109l50 -33l-50 -77q21 -6 36 -25t15 -45q0 -31 -22 -53.5t-54 -22.5t-54.5 22z" />
    <glyph glyph-name="quotedblright" unicode="&#x201d;" horiz-adv-x="445" 
d="M49 509l55 76q-23 6 -39.5 25t-16.5 45q0 32 22.5 54.5t54.5 22.5t54 -22.5t22 -54.5q0 -18 -7 -34.5t-20 -35.5l-75 -109zM245 509l55 76q-23 6 -39.5 25t-16.5 45q0 32 22.5 54.5t54.5 22.5t54 -22.5t22 -54.5q0 -18 -7 -34.5t-20 -35.5l-75 -109z" />
    <glyph glyph-name="quotedblbase" unicode="&#x201e;" horiz-adv-x="441" 
d="M49 -77l55 76q-23 6 -39.5 25t-16.5 45q0 32 22.5 54.5t54.5 22.5t54 -22.5t22 -54.5q0 -18 -7 -34.5t-20 -35.5l-75 -109zM241 -77l55 76q-23 6 -39.5 25t-16.5 45q0 32 22.5 54.5t54.5 22.5t54 -22.5t22 -54.5q0 -18 -7 -34.5t-20 -35.5l-75 -109z" />
    <glyph glyph-name="dagger" unicode="&#x2020;" horiz-adv-x="453" 
d="M175 485h-143v94h143v137h103v-137h143v-94h-143v-327h-103v327z" />
    <glyph glyph-name="daggerdbl" unicode="&#x2021;" horiz-adv-x="453" 
d="M175 153h-143v94h143v238h-143v94h143v137h103v-137h143v-94h-143v-238h143v-94h-143v-153h-103v153z" />
    <glyph glyph-name="bullet" unicode="&#x2022;" horiz-adv-x="410" 
d="M116.5 235.5q-36.5 36.5 -36.5 88.5t36.5 88.5t88.5 36.5t88.5 -36.5t36.5 -88.5t-36.5 -88.5t-88.5 -36.5t-88.5 36.5z" />
    <glyph glyph-name="ellipsis" unicode="&#x2026;" horiz-adv-x="743" 
d="M78.5 16.5q-22.5 22.5 -22.5 54.5t22.5 54t54.5 22t54.5 -22t22.5 -54t-22.5 -54.5t-54.5 -22.5t-54.5 22.5zM316.5 16.5q-22.5 22.5 -22.5 54.5t22.5 54t54.5 22t54.5 -22t22.5 -54t-22.5 -54.5t-54.5 -22.5t-54.5 22.5zM555.5 16.5q-22.5 22.5 -22.5 54.5t22.5 54
t54.5 22t54.5 -22t22.5 -54t-22.5 -54.5t-54.5 -22.5t-54.5 22.5z" />
    <glyph glyph-name="perthousand" unicode="&#x2030;" horiz-adv-x="1109" 
d="M126 381q-40 23 -63 62.5t-23 85.5t23 85.5t63 62.5t88 23t87.5 -23t62.5 -62.5t23 -85.5t-23 -85.5t-62.5 -62.5t-87.5 -23t-88 23zM166 33l444 663l67 -45l-444 -663zM274 465q24 25 24 64t-24 64t-60 25t-60 -25t-24 -64t24 -64t60 -25t60 25zM541.5 7
q-39.5 23 -62.5 62.5t-23 85.5t23 85.5t62.5 62.5t87.5 23q41 0 76 -19.5t57 -52.5q23 33 57.5 52.5t76.5 19.5q48 0 87.5 -23t62.5 -62.5t23 -85.5t-23 -85.5t-62.5 -62.5t-87.5 -23q-42 0 -76.5 19.5t-57.5 52.5q-22 -33 -57 -52.5t-76 -19.5q-48 0 -87.5 23zM689 91
q24 25 24 64t-24 64t-60 25q-35 0 -59.5 -25t-24.5 -64q0 -38 24.5 -63.5t59.5 -25.5q36 0 60 25zM956 91q24 25 24 64t-24 64t-60 25t-60 -25t-24 -64t24 -64t60 -25t60 25z" />
    <glyph glyph-name="uni2031" unicode="&#x2031;" horiz-adv-x="1359" 
d="M117.5 381q-39.5 23 -62.5 62.5t-23 85.5t23 85.5t62.5 62.5t87.5 23t88 -23t63 -62.5t23 -85.5t-23 -85.5t-63 -62.5t-88 -23t-87.5 23zM157 33l445 663l66 -45l-444 -663zM265 465q24 25 24 64t-24 64t-60 25q-35 0 -59 -25t-24 -64t24 -64t59 -25q36 0 60 25zM533.5 7
q-39.5 23 -63 62.5t-23.5 85.5t23.5 85.5t63 62.5t87.5 23q41 0 75.5 -19.5t57.5 -52.5q22 33 57 52.5t76 19.5t75.5 -19.5t57.5 -52.5q22 33 57 52.5t76 19.5q48 0 88 -23t63 -62.5t23 -85.5t-23 -85.5t-63 -62.5t-88 -23q-41 0 -76 19.5t-57 52.5q-23 -33 -57.5 -52.5
t-75.5 -19.5t-76 19.5t-57 52.5q-23 -33 -57.5 -52.5t-75.5 -19.5q-48 0 -87.5 23zM681 91q24 25 24 64t-24 64t-60 25t-60 -25t-24 -64t24 -64t60 -25t60 25zM947 91q24 25 24 64t-24 64t-60 25q-35 0 -59.5 -25t-24.5 -64q0 -38 24.5 -63.5t59.5 -25.5q36 0 60 25z
M1213 91q24 25 24 64t-24 64t-60 25t-60 -25t-24 -64t24 -64t60 -25t60 25z" />
    <glyph glyph-name="guilsinglleft" unicode="&#x2039;" horiz-adv-x="370" 
d="M40 271l207 224l63 -59l-155 -165l155 -165l-63 -59z" />
    <glyph glyph-name="guilsinglright" unicode="&#x203a;" horiz-adv-x="370" 
d="M60 106l155 165l-155 165l64 59l206 -224l-206 -224z" />
    <glyph glyph-name="exclamdbl" unicode="&#x203c;" horiz-adv-x="506" 
d="M77 499v217h112v-217l-11 -266h-90zM78.5 16.5q-22.5 22.5 -22.5 54.5t22.5 54t54.5 22t54.5 -22t22.5 -54t-22.5 -54.5t-54.5 -22.5t-54.5 22.5zM317 499v217h112v-217l-11 -266h-90zM318.5 16.5q-22.5 22.5 -22.5 54.5t22.5 54t54.5 22t54.5 -22t22.5 -54t-22.5 -54.5
t-54.5 -22.5t-54.5 22.5z" />
    <glyph glyph-name="uni2042" unicode="&#x2042;" horiz-adv-x="893" 
d="M308 433l69 93l-3 8l-101 35l26 77l101 -36l6 3v108h82v-108l5 -3l101 36l26 -77l-102 -35l-2 -8l69 -93l-66 -48l-69 95h-7l-69 -95zM75 31l69 93l-3 8l-101 35l26 77l101 -36l5 3v108h82v-108l5 -3l102 36l26 -77l-102 -35l-2 -8l69 -93l-66 -48l-69 95h-7l-69 -95z
M541 31l69 93l-3 8l-101 35l26 77l101 -36l5 3v108h82v-108l5 -3l102 36l26 -77l-102 -35l-2 -8l69 -93l-66 -48l-69 95h-7l-69 -95z" />
    <glyph glyph-name="uni2043" unicode="&#x2043;" horiz-adv-x="407" 
d="M72 361h263v-102h-263v102z" />
    <glyph glyph-name="fraction" unicode="&#x2044;" horiz-adv-x="180" 
d="M-176 33l466 694l66 -45l-465 -694z" />
    <glyph glyph-name="uni2047" unicode="&#x2047;" horiz-adv-x="989" 
d="M199 274q0 46 19 80t69 78q35 32 50.5 54t15.5 53q0 39 -26.5 64t-72.5 25q-44 0 -71 -26.5t-39 -63.5l-100 42q20 60 73.5 106t135.5 46q61 0 109 -24.5t74.5 -68t26.5 -97.5q0 -53 -25.5 -90.5t-67.5 -77.5q-33 -30 -46.5 -55t-13.5 -57v-29h-111v41zM199.5 16.5
q-22.5 22.5 -22.5 54.5t22.5 54t54.5 22t54 -22t22 -54t-22 -54.5t-54 -22.5t-54.5 22.5zM669 274q0 46 19 80t69 78q35 32 50.5 54t15.5 53q0 39 -26.5 64t-72.5 25q-44 0 -71 -26.5t-39 -63.5l-100 42q20 60 73.5 106t135.5 46q61 0 109 -24.5t74.5 -68t26.5 -97.5
q0 -53 -25.5 -90.5t-67.5 -77.5q-33 -30 -46.5 -55t-13.5 -57v-29h-111v41zM669.5 16.5q-22.5 22.5 -22.5 54.5t22.5 54t54.5 22t54 -22t22 -54t-22 -54.5t-54 -22.5t-54.5 22.5z" />
    <glyph glyph-name="uni2048" unicode="&#x2048;" horiz-adv-x="749" 
d="M199 274q0 46 19 80t69 78q35 32 50.5 54t15.5 53q0 39 -26.5 64t-72.5 25q-44 0 -71 -26.5t-39 -63.5l-100 42q20 60 73.5 106t135.5 46q61 0 109 -24.5t74.5 -68t26.5 -97.5q0 -53 -25.5 -90.5t-67.5 -77.5q-33 -30 -46.5 -55t-13.5 -57v-29h-111v41zM199.5 16.5
q-22.5 22.5 -22.5 54.5t22.5 54t54.5 22t54 -22t22 -54t-22 -54.5t-54 -22.5t-54.5 22.5zM560 499v217h112v-217l-11 -266h-90zM561.5 16.5q-22.5 22.5 -22.5 54.5t22.5 54t54.5 22t54.5 -22t22.5 -54t-22.5 -54.5t-54.5 -22.5t-54.5 22.5z" />
    <glyph glyph-name="uni2049" unicode="&#x2049;" horiz-adv-x="748" 
d="M427 274q0 46 19 80t69 78q35 32 50.5 54t15.5 53q0 39 -26.5 64t-72.5 25q-44 0 -71 -26.5t-39 -63.5l-100 42q20 60 73.5 106t135.5 46q61 0 109 -24.5t74.5 -68t26.5 -97.5q0 -53 -25.5 -90.5t-67.5 -77.5q-33 -30 -46.5 -55t-13.5 -57v-29h-111v41zM427.5 16.5
q-22.5 22.5 -22.5 54.5t22.5 54t54.5 22t54 -22t22 -54t-22 -54.5t-54 -22.5t-54.5 22.5zM77 499v217h112v-217l-11 -266h-90zM78.5 16.5q-22.5 22.5 -22.5 54.5t22.5 54t54.5 22t54.5 -22t22.5 -54t-22.5 -54.5t-54.5 -22.5t-54.5 22.5z" />
    <glyph glyph-name="uni204E" unicode="&#x204e;" horiz-adv-x="413" 
d="M60 37l74 101l-2 8l-110 38l27 81l109 -39l6 2v117h85v-117l6 -2l109 39l27 -81l-109 -38l-3 -8l74 -101l-68 -50l-75 103h-7l-75 -103z" />
    <glyph glyph-name="uni2051" unicode="&#x2051;" horiz-adv-x="427" 
d="M75 433l69 93l-3 8l-101 35l26 77l101 -36l5 3v108h82v-108l5 -3l102 36l26 -77l-102 -35l-2 -8l69 -93l-66 -48l-69 95h-7l-69 -95zM75 33l69 93l-3 8l-101 35l26 77l101 -36l5 3v108h82v-108l5 -3l102 36l26 -77l-102 -35l-2 -8l69 -93l-66 -48l-69 95h-7l-69 -95z" />
    <glyph glyph-name="uni2055" unicode="&#x2055;" horiz-adv-x="670" 
d="M291 220l-122 -122l-62 62l123 121h-174v88h174l-123 121l62 62l122 -122v174h88v-174l122 122l62 -62l-123 -121h174v-88h-174l123 -121l-62 -62l-122 122v-174h-88v174z" />
    <glyph glyph-name="uni2074" unicode="&#x2074;" horiz-adv-x="353" 
d="M200 419h-172v55l172 242h77v-231h48v-66h-48v-69h-77v69zM200 485v120h-6l-86 -120h92z" />
    <glyph glyph-name="franc" unicode="&#x20a3;" horiz-adv-x="569" 
d="M207 583v-199h289v-100h-289v-94h132v-76h-132v-114h-106v114h-73v76h73v494h427v-101h-321z" />
    <glyph glyph-name="lira" unicode="&#x20a4;" horiz-adv-x="545" 
d="M525 121q-20 -57 -61 -89t-105 -32h-314v92q64 28 90 85h-95v76h106q-4 33 -21 73h-85v76h47q-25 54 -25 98q0 54 26.5 99.5t75 73t109.5 27.5q83 0 134 -43t70 -102l-99 -40q-10 35 -36 59.5t-69 24.5q-48 0 -76 -30t-28 -71q0 -24 6.5 -46t19.5 -50h160v-76h-126
q13 -37 16 -73h110v-76h-120q-16 -42 -46 -71l4 -5h165q32 0 51 14.5t28 43.5z" />
    <glyph glyph-name="uni20A9" unicode="&#x20a9;" horiz-adv-x="1001" 
d="M147 326h-108v76h89l-76 282h121l68 -282h118l88 282h114l84 -282h116l68 282h121l-75 -282h84v-76h-104l-86 -326h-113l-95 326h-117l-100 -326h-109zM539 402l-15 52l-17 70h-6l-17 -70l-16 -52h71zM296 183l17 64l24 79h-78l18 -79l14 -64h5zM711 184l14 63l18 79h-76
l23 -79l16 -63h5z" />
    <glyph glyph-name="dong" unicode="&#x20ab;" horiz-adv-x="594" 
d="M153.5 16q-53.5 32 -85.5 90t-32 131t32 131t85.5 90t115.5 32q53 0 92 -22.5t61 -57.5h5l-5 69v60h-140v74h140v71h110v-71h61v-74h-61v-539h-105v64h-5q-22 -35 -61 -57.5t-92 -22.5q-62 0 -115.5 32zM388 125q39 40 39 112t-39 112t-98 40q-39 0 -72 -18t-52.5 -52.5
t-19.5 -81.5t19.5 -81.5t52.5 -52.5t72 -18q59 0 98 40zM74 -84h458v-85h-458v85z" />
    <glyph glyph-name="Euro" unicode="&#x20ac;" horiz-adv-x="651" 
d="M622 27q-73 -43 -169 -43q-115 0 -203 64t-123 172h-97v84h81q-2 24 -2 38t2 38h-81v84h97q35 108 123 172t203 64q86 0 154 -43l-52 -89q-46 27 -101 27q-68 0 -124 -34t-85 -97h214v-84h-237q-2 -24 -2 -38t2 -38h237v-84h-214q29 -63 85 -97t124 -34q65 0 120 33z" />
    <glyph glyph-name="uni20AE" unicode="&#x20ae;" horiz-adv-x="546" 
d="M220 117l-121 -76h-3v101l124 77v78l-124 -78v104l124 77v183h-193v101h492v-101h-193v-122l121 76h3v-101l-124 -78v-77l124 79v-104l-124 -78v-178h-106v117z" />
    <glyph glyph-name="uni20B1" unicode="&#x20b1;" horiz-adv-x="656" 
d="M635 438h-62q-13 -79 -75.5 -125t-149.5 -46h-135v-267h-106v438h-76v76h76v170h241q86 0 149 -46t76 -124h62v-76zM213 514h250q-12 31 -41 50t-70 19h-139v-69zM422 387.5q29 19.5 41 50.5h-250v-70h139q41 0 70 19.5z" />
    <glyph glyph-name="uni20B8" unicode="&#x20b8;" horiz-adv-x="546" 
d="M27 684h492v-93h-492v93zM220 426h-193v92h492v-92h-193v-426h-106v426z" />
    <glyph glyph-name="uni20B9" unicode="&#x20b9;" horiz-adv-x="573" 
d="M437 608q36 -39 46 -90h64v-76h-63q-13 -74 -71.5 -121.5t-135.5 -50.5h-14l-2 -5l255 -259v-6h-149l-255 264v105h152q39 0 69 19.5t42 53.5h-348v76h347q-11 32 -39 52.5t-67 20.5h-241v93h520v-76h-110z" />
    <glyph glyph-name="uni20BA" unicode="&#x20ba;" horiz-adv-x="548" 
d="M522 261q0 -73 -36 -132.5t-98 -94t-139 -34.5h-99v176l-123 -77v103l123 77v86l-123 -77v104l123 77v215h106v-154l125 79v-104l-125 -79v-85l125 79v-104l-125 -79v-138q47 2 84 25t57.5 59t20.5 78h104z" />
    <glyph glyph-name="uni20BD" unicode="&#x20bd;" horiz-adv-x="606" 
d="M104 114h-76v76h76v77h-76v93h76v324h241q63 0 115.5 -25.5t83 -72.5t30.5 -110t-30.5 -110.5t-83 -73t-115.5 -25.5h-135v-77h134v-76h-134v-114h-106v114zM350 368q53 0 85 32t32 76t-32 75.5t-85 31.5h-140v-215h140z" />
    <glyph glyph-name="uni2103" unicode="&#x2103;" horiz-adv-x="971" 
d="M97.5 459.5q-30.5 17.5 -48 47t-17.5 64.5t17.5 65t48 47t65.5 17t65 -17t47.5 -47t17.5 -65t-17.5 -64.5t-47.5 -47t-65 -17.5t-65.5 17.5zM481 31q-82 47 -129 129t-47 182t47 182t129 129t182 47q77 0 140.5 -29.5t112.5 -83.5l-76 -75q-68 83 -177 83q-69 0 -125 -31
t-89 -88.5t-33 -133.5t33 -133.5t89 -88.5t125 -31q116 0 195 95l77 -75q-50 -59 -119 -92t-153 -33q-100 0 -182 47zM203 529.5q16 17.5 16 41.5q0 25 -16 42t-40 17q-25 0 -41 -17t-16 -42q0 -24 16.5 -41.5t40.5 -17.5t40 17.5z" />
    <glyph glyph-name="uni2109" unicode="&#x2109;" horiz-adv-x="822" 
d="M97.5 459.5q-30.5 17.5 -48 47t-17.5 64.5t17.5 65t48 47t65.5 17t65 -17t47.5 -47t17.5 -65t-17.5 -64.5t-47.5 -47t-65 -17.5t-65.5 17.5zM372 684h418v-105h-308v-193h278v-104h-278v-282h-110v684zM203 529.5q16 17.5 16 41.5q0 25 -16 42t-40 17q-25 0 -41 -17
t-16 -42q0 -24 16.5 -41.5t40.5 -17.5t40 17.5z" />
    <glyph glyph-name="uni2113" unicode="&#x2113;" horiz-adv-x="441" 
d="M151 36.5q-46 44.5 -46 122.5v114h-89v95h89v196q0 74 40 121t115 47q41 0 75 -22.5t54 -64t20 -95.5q0 -64 -25 -121t-70 -96.5t-102 -53.5v-107q0 -40 18 -60t49 -20q35 0 69 22v-110q-34 -12 -74 -12q-77 0 -123 44.5zM281.5 442q23.5 46 23.5 108q0 41 -14 63.5
t-34 22.5q-45 0 -45 -70v-188q46 18 69.5 64z" />
    <glyph glyph-name="uni2114" unicode="&#x2114;" horiz-adv-x="824" 
d="M678 472q54 -34 86 -93.5t32 -133.5t-32 -133.5t-86 -93.5t-116 -34q-54 0 -96 22.5t-63 57.5h-6v-64h-104v572h-95v-572h-110v572h-64v72h64v72h110v-72h95v72h110v-72h138v-72h-138v-77l-6 -69h6q21 35 63 57.5t96 22.5q62 0 116 -34zM613 104.5q33 19.5 53 56t20 84.5
t-20 84.5t-53 56t-71 19.5q-39 0 -72 -19.5t-53 -56t-20 -84.5t20 -84.5t53 -56t72 -19.5q38 0 71 19.5z" />
    <glyph glyph-name="uni2116" unicode="&#x2116;" horiz-adv-x="1085" 
d="M795.5 413q-39.5 23 -62.5 62.5t-23 85.5t23 85.5t62.5 62.5t86.5 23t86 -23t62 -62.5t23 -85.5t-23 -85.5t-62 -62.5t-86 -23t-86.5 23zM72 716h133l320 -521h6l-6 138v383h111v-716h-117l-336 548h-6l6 -138v-410h-111v716zM944.5 493q25.5 27 25.5 68t-25.5 68
t-62.5 27t-63 -27t-26 -68t26 -68t63 -27t62.5 27zM742 316h280v-78h-280v78z" />
    <glyph glyph-name="uni2117" unicode="&#x2117;" horiz-adv-x="532" 
d="M151 303q-53 31 -84 84t-31 115t31 115t84 84t115 31t115 -31t84 -84t31 -115t-31 -115t-84 -84t-115 -31t-115 31zM357.5 344.5q41.5 24.5 66 66.5t24.5 91q0 50 -24.5 91.5t-66 66t-91.5 24.5q-49 0 -91 -24.5t-66.5 -66t-24.5 -91.5q0 -49 25 -90.5t66.5 -66.5
t90.5 -25q50 0 91.5 24.5zM197 615h96q29 0 51 -21t22 -51t-22 -51t-51 -21h-50v-82h-46v226zM289 515q13 0 22 8t9 20q0 11 -8.5 19.5t-21.5 8.5h-47v-56h46z" />
    <glyph glyph-name="prescription" unicode="&#x211e;" horiz-adv-x="707" 
d="M258 -154l157 223l-146 211h-85v-280h-112v716h252q64 0 117 -27.5t83.5 -76.5t30.5 -111q0 -75 -46.5 -131.5t-118.5 -75.5l-1 -5l90 -129l91 130h117v-6l-146 -213l158 -225v-6h-125l-97 140l-96 -140h-123v6zM321 385q51 0 86 32t35 81q0 28 -14 53.5t-40.5 41.5
t-62.5 16h-141v-224h137z" />
    <glyph glyph-name="uni2120" unicode="&#x2120;" horiz-adv-x="498" 
d="M50 502q-25 16 -34 44l41 18q5 -15 19 -25.5t28 -10.5t25 7t11 18q0 12 -12 20t-40 16q-29 7 -46.5 24t-17.5 42q0 29 23.5 47t56.5 18q25 0 47.5 -14.5t30.5 -37.5l-40 -16q-2 8 -13 17t-25 9q-15 0 -24.5 -6.5t-9.5 -16.5q0 -16 39 -28q35 -11 56 -27t21 -47
q0 -33 -26 -50t-56 -17q-29 0 -54 16zM222 716h62l63 -162h2l63 162h62v-226h-44v118l2 44h-2l-66 -162h-32l-66 162h-2l2 -44v-118h-44v226z" />
    <glyph glyph-name="trademark" unicode="&#x2122;" horiz-adv-x="501" 
d="M77 674h-69v42h181v-42h-66v-184h-46v184zM225 716h62l63 -162h2l63 162h62v-226h-44v118l2 44h-2l-66 -162h-32l-66 162h-2l2 -44v-118h-44v226z" />
    <glyph glyph-name="Omega" unicode="&#x2126;" horiz-adv-x="811" 
d="M65 102h146v6q-73 40 -116.5 113t-43.5 168q0 92 46 171t127.5 125.5t181.5 46.5t181 -47t127 -125.5t46 -170.5q0 -95 -43.5 -168t-116.5 -113v-6h146v-102h-287v145q82 21 135 86t53 154q0 68 -32.5 122.5t-88 86t-120.5 31.5q-66 0 -121.5 -31.5t-88 -86t-32.5 -122.5
q0 -89 53 -154t135 -86v-145h-287v102z" />
    <glyph glyph-name="estimated" unicode="&#x212e;" horiz-adv-x="784" 
d="M218.5 33q-82.5 49 -128.5 134.5t-46 190.5q0 100 44.5 185.5t124 137t179.5 51.5q104 0 182.5 -46.5t122 -131t43.5 -196.5l-1 -23l-551 1v-185q37 -52 95.5 -77.5t123.5 -25.5q81 0 144 37t98 119l68 -28q-34 -82 -115.5 -137t-195.5 -55q-105 0 -187.5 49zM596 396
v194q-34 39 -87.5 58.5t-116.5 19.5q-61 0 -114 -23t-90 -68v-181h408z" />
    <glyph glyph-name="onethird" unicode="&#x2153;" horiz-adv-x="826" 
d="M141 616l-49 -42l-44 59l102 83h70v-366h-79v266zM117 33l466 694l66 -45l-465 -694zM532 17.5q-38 25.5 -50 74.5l73 27q7 -29 24.5 -43t39.5 -14q23 0 39.5 14t16.5 36q0 21 -17 33.5t-42 12.5h-40v64h36q23 0 37 11.5t14 31.5q0 17 -13 28t-32 11q-40 0 -55 -40
l-69 28q13 38 45 60t80 22q54 0 88.5 -30t34.5 -74q0 -48 -44 -77q26 -14 41.5 -35.5t15.5 -48.5q0 -53 -40 -85t-96 -32q-49 0 -87 25.5z" />
    <glyph glyph-name="twothirds" unicode="&#x2154;" horiz-adv-x="885" 
d="M51 412l131 131q21 22 31.5 37t10.5 33q0 17 -14 28.5t-33 11.5q-22 0 -37 -13.5t-20 -40.5l-72 29q10 44 46 70t82 26q53 0 90.5 -30t37.5 -78q0 -31 -18.5 -58.5t-44.5 -53.5q-23 -22 -48.5 -47.5l-35.5 -35.5h149v-71h-255v62zM176 33l466 694l66 -45l-465 -694z
M586 17.5q-38 25.5 -50 74.5l73 27q7 -29 24.5 -43t39.5 -14q23 0 39.5 14t16.5 36q0 21 -17 33.5t-42 12.5h-40v64h36q23 0 37 11.5t14 31.5q0 17 -13 28t-32 11q-40 0 -55 -40l-69 28q13 38 45 60t80 22q54 0 88.5 -30t34.5 -74q0 -48 -44 -77q26 -14 41.5 -35.5
t15.5 -48.5q0 -53 -40 -85t-96 -32q-49 0 -87 25.5z" />
    <glyph glyph-name="oneeighth" unicode="&#x215b;" horiz-adv-x="809" 
d="M141 616l-49 -42l-44 59l102 83h70v-366h-79v266zM113 33l466 694l66 -45l-465 -694zM522 23q-41 31 -41 83q0 26 13.5 49t37.5 38q-18 11 -28.5 31t-10.5 41q0 49 36.5 79t87.5 30t87.5 -30t36.5 -79q0 -20 -11 -40t-29 -32q24 -15 38 -37.5t14 -49.5q0 -52 -41 -83
t-95 -31t-95 31zM648.5 234q13.5 12 13.5 30q0 17 -13 29t-32 12q-20 0 -32.5 -11.5t-12.5 -29.5t13.5 -30t31.5 -12t31.5 12zM655.5 75q17.5 14 17.5 36q0 20 -17.5 34t-38.5 14q-22 0 -39.5 -13.5t-17.5 -34.5q0 -22 17 -36t40 -14q21 0 38.5 14z" />
    <glyph glyph-name="threeeighths" unicode="&#x215c;" horiz-adv-x="847" 
d="M98 367.5q-38 25.5 -50 74.5l73 27q7 -29 24.5 -43t39.5 -14q23 0 39.5 14t16.5 36q0 21 -17 33.5t-42 12.5h-40v64h36q23 0 37 11.5t14 31.5q0 17 -13 28t-32 11q-40 0 -55 -40l-69 28q13 38 45 60t80 22q54 0 88.5 -30t34.5 -74q0 -48 -44 -77q26 -14 41.5 -35.5
t15.5 -48.5q0 -53 -40 -85t-96 -32q-49 0 -87 25.5zM158 33l466 694l66 -45l-465 -694zM560 23q-41 31 -41 83q0 26 13.5 49t37.5 38q-18 11 -28.5 31t-10.5 41q0 49 36.5 79t87.5 30t87.5 -30t36.5 -79q0 -20 -11 -40t-29 -32q24 -15 38 -37.5t14 -49.5q0 -52 -41 -83
t-95 -31t-95 31zM686.5 234q13.5 12 13.5 30q0 17 -13 29t-32 12q-20 0 -32.5 -11.5t-12.5 -29.5t13.5 -30t31.5 -12t31.5 12zM693.5 75q17.5 14 17.5 36q0 20 -17.5 34t-38.5 14q-22 0 -39.5 -13.5t-17.5 -34.5q0 -22 17 -36t40 -14q21 0 38.5 14z" />
    <glyph glyph-name="fiveeighths" unicode="&#x215d;" horiz-adv-x="847" 
d="M99 365.5q-38 22.5 -51 68.5l72 28q5 -23 22 -36t40 -13q24 0 40.5 17t16.5 42t-16.5 41.5t-39.5 16.5q-35 0 -57 -31l-67 28l24 189h214v-66h-151l-12 -74q23 19 61 19q51 0 87 -34.5t36 -90.5q0 -36 -18.5 -65t-49.5 -45.5t-67 -16.5q-46 0 -84 22.5zM155 33l466 694
l66 -45l-465 -694zM561 23q-41 31 -41 83q0 26 13.5 49t37.5 38q-18 11 -28.5 31t-10.5 41q0 49 36.5 79t87.5 30t87.5 -30t36.5 -79q0 -20 -11 -40t-29 -32q24 -15 38 -37.5t14 -49.5q0 -52 -41 -83t-95 -31t-95 31zM687.5 234q13.5 12 13.5 30q0 17 -13 29t-32 12
q-20 0 -32.5 -11.5t-12.5 -29.5t13.5 -30t31.5 -12t31.5 12zM694.5 75q17.5 14 17.5 36q0 20 -17.5 34t-38.5 14q-22 0 -39.5 -13.5t-17.5 -34.5q0 -22 17 -36t40 -14q21 0 38.5 14z" />
    <glyph glyph-name="seveneighths" unicode="&#x215e;" horiz-adv-x="772" 
d="M60 371l151 273h-163v72h255v-68l-173 -313zM65 33l466 694l66 -45l-465 -694zM486 23q-41 31 -41 83q0 26 13.5 49t37.5 38q-18 11 -28.5 31t-10.5 41q0 49 36.5 79t87.5 30t87.5 -30t36.5 -79q0 -20 -11 -40t-29 -32q24 -15 38 -37.5t14 -49.5q0 -52 -41 -83t-95 -31
t-95 31zM612.5 234q13.5 12 13.5 30q0 17 -13 29t-32 12q-20 0 -32.5 -11.5t-12.5 -29.5t13.5 -30t31.5 -12t31.5 12zM619.5 75q17.5 14 17.5 36q0 20 -17.5 34t-38.5 14q-22 0 -39.5 -13.5t-17.5 -34.5q0 -22 17 -36t40 -14q21 0 38.5 14z" />
    <glyph glyph-name="uni2160" unicode="&#x2160;" horiz-adv-x="464" 
d="M24 102h153v480h-153v102h416v-102h-153v-480h153v-102h-416v102z" />
    <glyph glyph-name="uni2161" unicode="&#x2161;" horiz-adv-x="724" 
d="M24 102h153v480h-153v102h676v-102h-153v-480h153v-102h-676v102zM437 102v480h-150v-480h150z" />
    <glyph glyph-name="uni2162" unicode="&#x2162;" horiz-adv-x="984" 
d="M24 102h153v480h-153v102h936v-102h-153v-480h153v-102h-936v102zM437 102v480h-150v-480h150zM697 102v480h-150v-480h150z" />
    <glyph glyph-name="uni2163" unicode="&#x2163;" horiz-adv-x="1006" 
d="M24 102h153v480h-153v102h958v-102h-122l-152 -480h274v-102h-958v102zM542 102l-152 480h-103v-480h255zM628 171l17 68l100 343h-240l99 -343l18 -68h6z" />
    <glyph glyph-name="uni2164" unicode="&#x2164;" horiz-adv-x="762" 
d="M24 102h274l-152 480h-122v102h714v-102h-122l-152 -480h274v-102h-714v102zM384 171l17 68l100 343h-240l99 -343l18 -68h6z" />
    <glyph glyph-name="uni2165" unicode="&#x2165;" horiz-adv-x="1034" 
d="M24 102h274l-152 480h-122v102h958v-102h-153v-480h153v-102h-958v102zM384 171l17 68l100 343h-240l99 -343l18 -68h6zM719 102v480h-103l-152 -480h255z" />
    <glyph glyph-name="uni2166" unicode="&#x2166;" horiz-adv-x="1274" 
d="M24 102h274l-152 480h-122v102h1218v-102h-153v-480h153v-102h-1218v102zM384 171l17 68l100 343h-240l99 -343l18 -68h6zM719 102v480h-103l-152 -480h255zM979 102v480h-150v-480h150z" />
    <glyph glyph-name="uni2167" unicode="&#x2167;" horiz-adv-x="1526" 
d="M24 102h274l-152 480h-122v102h1478v-102h-153v-480h153v-102h-1478v102zM384 171l17 68l100 343h-240l99 -343l18 -68h6zM719 102v480h-103l-152 -480h255zM979 102v480h-150v-480h150zM1239 102v480h-150v-480h150z" />
    <glyph glyph-name="uni2168" unicode="&#x2168;" horiz-adv-x="952" 
d="M24 102h153v480h-153v102h904v-102h-109l-158 -240l159 -240h108v-102h-904v102zM376 102l159 240l-158 240h-90v-480h89zM599 433l18 32l76 117h-191l77 -117l17 -32h3zM693 102l-76 116l-18 33h-3l-17 -33l-77 -116h191z" />
    <glyph glyph-name="uni2169" unicode="&#x2169;" horiz-adv-x="707" 
d="M24 102h107l159 240l-158 240h-108v102h659v-102h-109l-158 -240l159 -240h108v-102h-659v102zM354 433l18 32l76 117h-191l77 -117l17 -32h3zM448 102l-76 116l-18 33h-3l-17 -33l-77 -116h191z" />
    <glyph glyph-name="uni216A" unicode="&#x216a;" horiz-adv-x="952" 
d="M24 102h107l159 240l-158 240h-108v102h904v-102h-153v-480h153v-102h-904v102zM355 433l18 32l76 117h-192l78 -117l17 -32h3zM665 102v480h-91l-157 -240l158 -240h90zM449 102l-76 116l-18 33h-3l-18 -33l-76 -116h191z" />
    <glyph glyph-name="uni216B" unicode="&#x216b;" horiz-adv-x="1212" 
d="M24 102h107l159 240l-158 240h-108v102h1164v-102h-153v-480h153v-102h-1164v102zM355 433l18 32l76 117h-192l78 -117l17 -32h3zM665 102v480h-91l-157 -240l158 -240h90zM925 102v480h-150v-480h150zM449 102l-76 116l-18 33h-3l-18 -33l-76 -116h191z" />
    <glyph glyph-name="uni216C" unicode="&#x216c;" horiz-adv-x="639" 
d="M24 102h129v480h-129v102h368v-102h-129v-480h238v138h110v-240h-587v102z" />
    <glyph glyph-name="uni216D" unicode="&#x216d;" horiz-adv-x="739" 
d="M221 30.5q-82 46.5 -129.5 128t-47.5 183.5q0 101 48 183t129 128.5t177 46.5q56 0 103 -19t83 -53h6v56h100v-201h-100q-28 54 -77 84t-113 30t-120.5 -30.5t-91 -88.5t-34.5 -136t34.5 -136t91.5 -88.5t123 -30.5q71 0 124 30t94 95l90 -58q-109 -170 -308 -170
q-100 0 -182 46.5z" />
    <glyph glyph-name="uni216E" unicode="&#x216e;" horiz-adv-x="745" 
d="M24 102h126v480h-126v102h320q108 0 189 -43t124.5 -120.5t43.5 -178.5t-43.5 -178.5t-124.5 -120.5t-189 -43h-320v102zM347 102q116 0 181 64t65 176q0 111 -65 175.5t-181 64.5h-91v-480h91z" />
    <glyph glyph-name="uni216F" unicode="&#x216f;" horiz-adv-x="994" 
d="M24 102h127v480h-127v102h274l196 -513h6l196 513h274v-102h-127v-480h127v-102h-324v102h91v285l6 122h-6l-196 -509h-87l-197 509h-6l6 -122v-285h92v-102h-325v102z" />
    <glyph glyph-name="uni2180" unicode="&#x2180;" horiz-adv-x="1120" 
d="M212 43q-81 43 -124.5 120.5t-43.5 178.5t43.5 178.5t124.5 120.5t188 43h284q107 0 188 -43t124.5 -120.5t43.5 -178.5t-43.5 -178.5t-124.5 -120.5t-188 -43h-284q-107 0 -188 43zM489 102v480h-91q-117 0 -181.5 -64.5t-64.5 -175.5q0 -112 64.5 -176t181.5 -64h91z
M686 102q116 0 181 64t65 176q0 111 -65 175.5t-181 64.5h-91v-480h91z" />
    <glyph glyph-name="uni2181" unicode="&#x2181;" horiz-adv-x="745" 
d="M24 102h126v480h-126v102h320q108 0 189 -43t124.5 -120.5t43.5 -178.5t-43.5 -178.5t-124.5 -120.5t-189 -43h-320v102zM347 102q116 0 181 64t65 176q0 111 -65 175.5t-181 64.5h-91v-70h36q49 0 89 -23t63 -62t23 -85q0 -47 -23 -85.5t-63 -61.5t-89 -23h-36v-70h91z
M295 252q36 0 60 25.5t24 64.5q0 40 -24 65t-60 25h-39v-180h39z" />
    <glyph glyph-name="uni2182" unicode="&#x2182;" horiz-adv-x="1084" 
d="M212 43q-81 43 -124.5 120.5t-43.5 178.5t43.5 178.5t124.5 120.5t188 43h284q107 0 188 -43t124.5 -120.5t43.5 -178.5t-43.5 -178.5t-124.5 -120.5t-188 -43h-284q-107 0 -188 43zM489 102v70h-36q-49 0 -89 23t-63 62t-23 85q0 47 23 85.5t63 61.5t89 23h36v70h-91
q-117 0 -181.5 -64.5t-64.5 -175.5q0 -112 64.5 -176t181.5 -64h91zM686 102q116 0 181 64t65 176q0 111 -65 175.5t-181 64.5h-91v-70h36q49 0 89 -23t63 -62t23 -85q0 -47 -23 -85.5t-63 -61.5t-89 -23h-36v-70h91zM489 252v180h-39q-36 0 -60 -25t-24 -65q0 -39 24 -64.5
t60 -25.5h39zM634 252q36 0 60 25.5t24 64.5q0 40 -24 65t-60 25h-39v-180h39z" />
    <glyph glyph-name="arrowleft" unicode="&#x2190;" horiz-adv-x="1101" 
d="M48 310l217 217v-168h780v-98h-780v-168z" />
    <glyph glyph-name="arrowup" unicode="&#x2191;" horiz-adv-x="514" 
d="M208 610h-168l217 217l217 -217h-168v-742h-98v742z" />
    <glyph glyph-name="arrowright" unicode="&#x2192;" horiz-adv-x="1101" 
d="M836 261h-780v98h780v168l217 -217l-217 -217v168z" />
    <glyph glyph-name="arrowdown" unicode="&#x2193;" horiz-adv-x="514" 
d="M40 60h168v741h98v-741h168l-217 -217z" />
    <glyph glyph-name="uni2196" unicode="&#x2196;" horiz-adv-x="781" 
d="M159 534l-119 -119v307h307l-119 -119l553 -551l-70 -70z" />
    <glyph glyph-name="uni2197" unicode="&#x2197;" horiz-adv-x="781" 
d="M0 52l553 551l-119 119h307v-307l-119 119l-552 -552z" />
    <glyph glyph-name="uni2198" unicode="&#x2198;" horiz-adv-x="781" 
d="M40 301l119 -119l552 552l70 -70l-553 -551l119 -119h-307v307z" />
    <glyph glyph-name="uni2199" unicode="&#x2199;" horiz-adv-x="781" 
d="M553 113l-553 551l70 70l552 -552l119 119v-307h-307z" />
    <glyph glyph-name="uni21C4" unicode="&#x21c4;" horiz-adv-x="1120" 
d="M855 485h-780v98h780v168l217 -217l-217 -217v168zM48 192l217 217v-168h780v-98h-780v-168z" />
    <glyph glyph-name="partialdiff" unicode="&#x2202;" horiz-adv-x="574" 
d="M162.5 16.5q-56.5 32.5 -89.5 89t-33 125.5q0 70 33 125.5t87.5 86.5t114.5 31q71 0 114 -41l5 5q-35 76 -107.5 124.5t-163.5 72.5l37 89q122 -30 205.5 -97t126 -161t42.5 -207q0 -82 -31.5 -144t-88 -96.5t-129.5 -34.5q-66 0 -122.5 32.5zM354.5 104q31.5 18 50.5 51
t19 75t-18.5 75t-50 51t-68.5 18q-38 0 -69.5 -18t-50 -51t-18.5 -75t18.5 -75t50 -51t68.5 -18t68.5 18z" />
    <glyph glyph-name="Delta" unicode="&#x2206;" horiz-adv-x="688" 
d="M280 716h128l265 -716h-658zM513 105l-166 473h-6l-166 -473h338z" />
    <glyph glyph-name="product" unicode="&#x220f;" horiz-adv-x="696" 
d="M82 716h533v-716h-112v609h-309v-609h-112v716z" />
    <glyph glyph-name="summation" unicode="&#x2211;" horiz-adv-x="527" 
d="M50 113l203 253l-203 237v113h445v-105h-316l207 -245l-207 -261h316v-105h-445v113z" />
    <glyph glyph-name="minus" unicode="&#x2212;" horiz-adv-x="573" 
d="M63 318h447v-94h-447v94z" />
    <glyph glyph-name="uni2215" unicode="&#x2215;" horiz-adv-x="457" 
d="M328 716h106l-297 -716h-106z" />
    <glyph glyph-name="radical" unicode="&#x221a;" horiz-adv-x="707" 
d="M12 490h124l89 -287l20 -79h6l21 79l201 613h222v-96h-130l-261 -768h-112z" />
    <glyph glyph-name="infinity" unicode="&#x221e;" horiz-adv-x="746" 
d="M109 124.5q-39 22.5 -62 61t-23 84.5t23 84.5t62 61t86 22.5q39 0 69 -13.5t52 -33.5t56 -58q46 53 84 79t95 26q47 0 86 -22.5t62 -61t23 -84.5t-23 -84.5t-62 -61t-86 -22.5q-57 0 -96 26t-84 80q-32 -37 -55 -58t-52.5 -34.5t-68.5 -13.5q-47 0 -86 22.5zM235 188.5
q17 8.5 32.5 24t54.5 57.5q-7 7 -36 38.5t-48.5 41.5t-42.5 10q-37 0 -61.5 -25t-24.5 -65t24.5 -65t61.5 -25q23 0 40 8.5zM612 205q24 25 24 65t-24 65t-61 25q-33 0 -56.5 -18t-72.5 -72q35 -39 52.5 -55.5t35.5 -25.5t41 -9q37 0 61 25z" />
    <glyph glyph-name="integral" unicode="&#x222b;" horiz-adv-x="352" 
d="M32 -122h13q34 0 55 20t21 57v658q0 82 46.5 130.5t126.5 48.5h26v-104h-12q-35 0 -56 -20t-21 -57v-659q0 -82 -46 -130t-126 -48h-27v104z" />
    <glyph glyph-name="approxequal" unicode="&#x2248;" horiz-adv-x="584" 
d="M348.5 347q-29.5 9 -69.5 26q-33 14 -53.5 20.5t-35.5 6.5q-22 0 -35 -14t-15 -33h-86q0 65 36 104t90 39q27 0 56.5 -9.5t71.5 -26.5q6 -2 26.5 -10t35.5 -12t25 -4q22 0 34.5 13.5t14.5 33.5h87q0 -65 -36 -104t-91 -39q-26 0 -55.5 9zM348.5 151q-29.5 9 -69.5 26
q-33 14 -53.5 20.5t-35.5 6.5q-22 0 -35 -14t-15 -33h-86q0 65 36 104t90 39q27 0 56.5 -9.5t71.5 -26.5q6 -2 26.5 -10t35.5 -12t25 -4q22 0 34.5 13.5t14.5 33.5h87q0 -65 -36 -104t-91 -39q-26 0 -55.5 9z" />
    <glyph glyph-name="notequal" unicode="&#x2260;" horiz-adv-x="571" 
d="M366 369l-62 -100h211v-95h-271l-78 -126l-72 44l51 82h-89v95h148l63 100h-211v95h270l79 127l71 -45l-51 -82h90v-95h-149z" />
    <glyph glyph-name="lessequal" unicode="&#x2264;" horiz-adv-x="518" 
d="M56 323v84l402 188v-105l-277 -122v-6l277 -122v-105zM56 95h402v-95h-402v95z" />
    <glyph glyph-name="greaterequal" unicode="&#x2265;" horiz-adv-x="518" 
d="M60 240l277 122v6l-277 122v105l402 -188v-84l-402 -188v105zM60 95h402v-95h-402v95z" />
    <glyph glyph-name="filledbox" unicode="&#x25a0;" horiz-adv-x="860" 
d="M72 716h716v-716h-716v716z" />
    <glyph glyph-name="H22073" unicode="&#x25a1;" horiz-adv-x="860" 
d="M72 716h716v-716h-716v716zM700 88v540h-540v-540h540z" />
    <glyph glyph-name="triagup" unicode="&#x25b2;" horiz-adv-x="870" 
d="M435 748l431 -748h-862z" />
    <glyph glyph-name="uni25B3" unicode="&#x25b3;" horiz-adv-x="870" 
d="M435 748l431 -748h-862zM714 88l-279 485l-278 -485h557z" />
    <glyph glyph-name="lozenge" unicode="&#x25ca;" horiz-adv-x="542" 
d="M24 358l197 358h100l197 -358l-197 -358h-100zM274 106l132 252l-132 252h-6l-132 -252l132 -252h6z" />
    <glyph glyph-name="circle" unicode="&#x25cb;" horiz-adv-x="836" 
d="M231 34.5q-86 50.5 -136.5 136.5t-50.5 187t50.5 187t136.5 136.5t187 50.5t187 -50.5t136.5 -136.5t50.5 -187t-50.5 -187t-136.5 -136.5t-187 -50.5t-187 50.5zM561.5 110.5q65.5 38.5 104 104.5t38.5 143q0 78 -38.5 143.5t-104 104t-143.5 38.5q-77 0 -143 -38.5
t-104.5 -104t-38.5 -143.5q0 -77 38.5 -143t104.5 -104.5t143 -38.5q78 0 143.5 38.5z" />
    <glyph glyph-name="H18533" unicode="&#x25cf;" horiz-adv-x="836" 
d="M231 34.5q-86 50.5 -136.5 136.5t-50.5 187t50.5 187t136.5 136.5t187 50.5t187 -50.5t136.5 -136.5t50.5 -187t-50.5 -187t-136.5 -136.5t-187 -50.5t-187 50.5z" />
    <glyph glyph-name="uni2713" unicode="&#x2713;" horiz-adv-x="934" 
d="M8 300l68 68l224 -238l560 605l66 -65l-627 -678z" />
    <glyph glyph-name="uni2715" unicode="&#x2715;" horiz-adv-x="741" 
d="M8 51l301 307l-301 307l63 64l300 -309l299 309l63 -64l-300 -307l300 -307l-63 -65l-299 309l-300 -309z" />
    <glyph glyph-name="uni275B" unicode="&#x275b;" horiz-adv-x="351" 
d="M89 413q-33 47 -49 82.5t-16 77.5t20.5 78.5t55.5 58.5t76 22q42 0 76.5 -19.5t54.5 -54t20 -77.5q0 -42 -22.5 -74t-54 -49.5t-57.5 -19.5l-5 -5l109 -155l-76 -52z" />
    <glyph glyph-name="uni275C" unicode="&#x275c;" horiz-adv-x="351" 
d="M54 278l109 155l-5 5q-26 2 -57.5 19.5t-54 49.5t-22.5 74q0 43 20 77.5t54.5 54t76.5 19.5q41 0 76 -22t55.5 -58.5t20.5 -78.5t-16 -77.5t-49 -82.5l-132 -187z" />
    <glyph glyph-name="uni275D" unicode="&#x275d;" horiz-adv-x="710" 
d="M89 413q-33 47 -49 82.5t-16 77.5t20.5 78.5t55.5 58.5t76 22q42 0 76.5 -19.5t54.5 -54t20 -77.5q0 -42 -22.5 -74t-54 -49.5t-57.5 -19.5l-5 -5l109 -155l-76 -52zM440 413q-33 47 -49 82.5t-16 77.5t20.5 78.5t55.5 58.5t76 22q42 0 76.5 -19.5t54.5 -54t20 -77.5
q0 -42 -22.5 -74t-54 -49.5t-57.5 -19.5l-5 -5l109 -155l-76 -52z" />
    <glyph glyph-name="uni275E" unicode="&#x275e;" horiz-adv-x="710" 
d="M54 278l109 155l-5 5q-26 2 -57.5 19.5t-54 49.5t-22.5 74q0 43 20 77.5t54.5 54t76.5 19.5q41 0 76 -22t55.5 -58.5t20.5 -78.5t-16 -77.5t-49 -82.5l-132 -187zM405 278l109 155l-5 5q-26 2 -57.5 19.5t-54 49.5t-22.5 74q0 43 20 77.5t54.5 54t76.5 19.5q41 0 76 -22
t55.5 -58.5t20.5 -78.5t-16 -77.5t-49 -82.5l-132 -187z" />
    <glyph glyph-name="uni2780" unicode="&#x2780;" horiz-adv-x="853" 
d="M239 34.5q-86 50.5 -136.5 136.5t-50.5 187t50.5 187t136.5 136.5t187 50.5t187 -50.5t136.5 -136.5t50.5 -187t-50.5 -187t-136.5 -136.5t-187 -50.5t-187 50.5zM577 98.5q69 40.5 109 109.5t40 150q0 82 -40 150.5t-109 109t-151 40.5q-81 0 -150 -40.5t-109.5 -109.5
t-40.5 -150t40.5 -150t109.5 -109.5t150 -40.5q82 0 151 40.5zM399 443l-49 -42l-44 59l102 83h70v-366h-79v266z" />
    <glyph glyph-name="uni2781" unicode="&#x2781;" horiz-adv-x="853" 
d="M239 34.5q-86 50.5 -136.5 136.5t-50.5 187t50.5 187t136.5 136.5t187 50.5t187 -50.5t136.5 -136.5t50.5 -187t-50.5 -187t-136.5 -136.5t-187 -50.5t-187 50.5zM577 98.5q69 40.5 109 109.5t40 150q0 82 -40 150.5t-109 109t-151 40.5q-81 0 -150 -40.5t-109.5 -109.5
t-40.5 -150t40.5 -150t109.5 -109.5t150 -40.5q82 0 151 40.5zM299 239l131 131q21 22 31.5 37t10.5 33q0 17 -14 28.5t-33 11.5q-22 0 -37 -13.5t-20 -40.5l-72 29q10 44 46 70t82 26q53 0 90.5 -30t37.5 -78q0 -31 -18.5 -58.5t-44.5 -53.5q-23 -22 -48.5 -47.5
l-35.5 -35.5h149v-71h-255v62z" />
    <glyph glyph-name="uni2782" unicode="&#x2782;" horiz-adv-x="853" 
d="M239 34.5q-86 50.5 -136.5 136.5t-50.5 187t50.5 187t136.5 136.5t187 50.5t187 -50.5t136.5 -136.5t50.5 -187t-50.5 -187t-136.5 -136.5t-187 -50.5t-187 50.5zM577 98.5q69 40.5 109 109.5t40 150q0 82 -40 150.5t-109 109t-151 40.5q-81 0 -150 -40.5t-109.5 -109.5
t-40.5 -150t40.5 -150t109.5 -109.5t150 -40.5q82 0 151 40.5zM337 194.5q-38 25.5 -50 74.5l73 27q7 -29 24.5 -43t39.5 -14q23 0 39.5 14t16.5 36q0 21 -17 33.5t-42 12.5h-40v64h36q23 0 37 11.5t14 31.5q0 17 -13 28t-32 11q-40 0 -55 -40l-69 28q13 38 45 60t80 22
q54 0 88.5 -30t34.5 -74q0 -48 -44 -77q26 -14 41.5 -35.5t15.5 -48.5q0 -53 -40 -85t-96 -32q-49 0 -87 25.5z" />
    <glyph glyph-name="uni2783" unicode="&#x2783;" horiz-adv-x="853" 
d="M239 34.5q-86 50.5 -136.5 136.5t-50.5 187t50.5 187t136.5 136.5t187 50.5t187 -50.5t136.5 -136.5t50.5 -187t-50.5 -187t-136.5 -136.5t-187 -50.5t-187 50.5zM577 98.5q69 40.5 109 109.5t40 150q0 82 -40 150.5t-109 109t-151 40.5q-81 0 -150 -40.5t-109.5 -109.5
t-40.5 -150t40.5 -150t109.5 -109.5t150 -40.5q82 0 151 40.5zM430 246h-172v55l172 242h77v-231h48v-66h-48v-69h-77v69zM430 312v120h-6l-86 -120h92z" />
    <glyph glyph-name="uni2784" unicode="&#x2784;" horiz-adv-x="853" 
d="M239 34.5q-86 50.5 -136.5 136.5t-50.5 187t50.5 187t136.5 136.5t187 50.5t187 -50.5t136.5 -136.5t50.5 -187t-50.5 -187t-136.5 -136.5t-187 -50.5t-187 50.5zM577 98.5q69 40.5 109 109.5t40 150q0 82 -40 150.5t-109 109t-151 40.5q-81 0 -150 -40.5t-109.5 -109.5
t-40.5 -150t40.5 -150t109.5 -109.5t150 -40.5q82 0 151 40.5zM343 191.5q-38 22.5 -51 68.5l72 28q5 -23 22 -36t40 -13q24 0 40.5 17t16.5 42t-16.5 41.5t-39.5 16.5q-35 0 -57 -31l-67 28l24 189h214v-66h-151l-12 -74q23 19 61 19q51 0 87 -34.5t36 -90.5
q0 -36 -18.5 -65t-49.5 -45.5t-67 -16.5q-46 0 -84 22.5z" />
    <glyph glyph-name="uni2785" unicode="&#x2785;" horiz-adv-x="853" 
d="M239 34.5q-86 50.5 -136.5 136.5t-50.5 187t50.5 187t136.5 136.5t187 50.5t187 -50.5t136.5 -136.5t50.5 -187t-50.5 -187t-136.5 -136.5t-187 -50.5t-187 50.5zM577 98.5q69 40.5 109 109.5t40 150q0 82 -40 150.5t-109 109t-151 40.5q-81 0 -150 -40.5t-109.5 -109.5
t-40.5 -150t40.5 -150t109.5 -109.5t150 -40.5q82 0 151 40.5zM354 186.5q-31 17.5 -49 46.5t-18 63q0 29 11.5 56.5t32.5 56.5q28 39 61.5 85.5t46.5 64.5l60 -43l-80 -101q10 4 20 4q31 0 58 -17t43.5 -45.5t16.5 -61.5q0 -34 -18 -63t-49 -46t-67 -17q-38 0 -69 17.5z
M462 255.5q16 16.5 16 40.5q0 23 -16 40t-40 17t-40 -17t-16 -40q0 -24 15.5 -40.5t40.5 -16.5q24 0 40 16.5z" />
    <glyph glyph-name="uni2786" unicode="&#x2786;" horiz-adv-x="853" 
d="M239 34.5q-86 50.5 -136.5 136.5t-50.5 187t50.5 187t136.5 136.5t187 50.5t187 -50.5t136.5 -136.5t50.5 -187t-50.5 -187t-136.5 -136.5t-187 -50.5t-187 50.5zM577 98.5q69 40.5 109 109.5t40 150q0 82 -40 150.5t-109 109t-151 40.5q-81 0 -150 -40.5t-109.5 -109.5
t-40.5 -150t40.5 -150t109.5 -109.5t150 -40.5q82 0 151 40.5zM319 198l156 273h-168v72h255v-68l-173 -313z" />
    </font>
</defs>
</svg>
