<?xml version="1.0" standalone="no"?>
<!DOCTYPE svg PUBLIC "-//W3C//DTD SVG 1.1//EN" "http://www.w3.org/Graphics/SVG/1.1/DTD/svg11.dtd" >
<svg xmlns="http://www.w3.org/2000/svg" xmlns:xlink="http://www.w3.org/1999/xlink" version="1.1">
<metadata>
Created by FontForge 20170731 at Thu Jul 27 02:21:04 2017
 By Aleksey,,,
Copyright 2017 Google Inc. All Rights Reserved.
</metadata>
<defs>
<font id="GoogleSans-Italic" horiz-adv-x="650" >
  <font-face 
    font-family="Google Sans"
    font-weight="400"
    font-style="italic"
    font-stretch="normal"
    units-per-em="1000"
    panose-1="2 11 5 3 3 5 2 11 2 4"
    ascent="800"
    descent="-200"
    x-height="510"
    cap-height="716"
    bbox="-408 -253 1537 959"
    underline-thickness="84"
    underline-position="-244"
    slope="-10"
    unicode-range="U+0002-2792"
  />
<missing-glyph horiz-adv-x="569" 
d="M496 716v-716h-423v716h423zM435 57v602h-301v-602h301z" />
    <glyph glyph-name="f_b.liga" unicode="fb" horiz-adv-x="970" 
d="M531.5 10.5q-44.5 26.5 -66.5 65.5h-4l-13 -76h-80l113 643h-141q-41 0 -67 -22t-33 -65l-8 -46h129l-14 -77h-129l-76 -433h-84l76 433h-95l13 77h95l10 55q13 72 62.5 113.5t134.5 41.5h225l-38 -215l-17 -71h4q25 39 70 65.5t106 26.5t110 -30.5t76.5 -84.5t27.5 -123
q0 -81 -36.5 -151t-102 -111.5t-147.5 -41.5q-56 0 -100.5 26.5zM733 89.5q46 28.5 72.5 79t26.5 113.5q0 73 -42.5 120t-108.5 47q-53 0 -97.5 -32t-70 -84.5t-25.5 -111.5q0 -73 41 -116.5t102 -43.5q56 0 102 28.5z" />
    <glyph glyph-name="f_f.liga" unicode="ff" horiz-adv-x="691" 
d="M134 433h-95l14 77h94l10 55q12 74 64.5 116.5t125.5 42.5q45 0 74 -12l-15 -83q-30 16 -69 16q-34 0 -62 -23t-35 -66l-8 -46h226l9 55q12 74 65 116.5t126 42.5q44 0 73 -12l-14 -83q-30 16 -70 16q-33 0 -61 -23.5t-35 -65.5l-9 -46h131l-14 -77h-131l-76 -433h-85
l77 433h-226l-76 -433h-85z" />
    <glyph glyph-name="f_f_b.liga" unicode="ffb" horiz-adv-x="1280" 
d="M841.5 10.5q-44.5 26.5 -66.5 65.5h-4l-14 -76h-79l113 643h-141q-41 0 -67 -22t-33 -65l-8 -46h129l-14 -77h-129l-76 -433h-84l76 433h-226l-76 -433h-85l77 433h-95l14 77h94l10 55q12 74 64.5 116.5t125.5 42.5q45 0 74 -12l-15 -83q-30 16 -69 16q-34 0 -62 -23
t-35 -66l-8 -46h225l10 55q13 72 62.5 113.5t134.5 41.5h225l-38 -215l-17 -71h4q25 39 70 65.5t106 26.5t110 -30.5t76.5 -84.5t27.5 -123q0 -81 -36.5 -151t-102 -111.5t-147.5 -41.5q-56 0 -100.5 26.5zM1042.5 89.5q45.5 28.5 72 79t26.5 113.5q0 73 -42 120t-108 47
q-53 0 -97.5 -32t-70 -84.5t-25.5 -111.5q0 -73 41 -116.5t102 -43.5q56 0 101.5 28.5z" />
    <glyph glyph-name="f_f_h.liga" unicode="ffh" horiz-adv-x="1241" 
d="M134 433h-95l14 77h94l10 55q12 74 64.5 116.5t125.5 42.5q45 0 74 -12l-15 -83q-30 16 -69 16q-34 0 -62 -23t-35 -66l-8 -46h225l10 55q13 72 62.5 113.5t134.5 41.5h225l-38 -215l-16 -70h4q28 41 73 66t102 25q78 0 120.5 -41.5t42.5 -109.5q0 -29 -6 -68l-55 -307
h-84l54 307q6 27 6 49q0 42 -29.5 67.5t-77.5 25.5q-63 0 -111 -48t-62 -124l-50 -277h-84l113 643h-141q-41 0 -67 -22t-33 -65l-8 -46h129l-14 -77h-129l-76 -433h-84l76 433h-226l-76 -433h-85z" />
    <glyph glyph-name="f_f_i.liga" unicode="ffi" horiz-adv-x="897" 
d="M792 621q-18 18 -18 43q0 26 18 43.5t43 17.5q26 0 43.5 -17.5t17.5 -43.5q0 -25 -17.5 -43t-43.5 -18q-25 0 -43 18zM134 433h-95l14 77h94l10 55q12 74 64.5 116.5t125.5 42.5q45 0 74 -12l-15 -83q-30 16 -69 16q-34 0 -62 -23t-35 -66l-8 -46h225l9 55
q13 74 65.5 116.5t125.5 42.5q45 0 74 -12l-15 -83q-30 16 -69 16q-34 0 -62 -23t-35 -66l-8 -46h310l-90 -510h-84l76 433h-226l-77 -433h-84l77 433h-226l-76 -433h-85z" />
    <glyph glyph-name="f_f_j.liga" unicode="ffj" horiz-adv-x="896" 
d="M792 621q-18 18 -18 43q0 26 18 43.5t43 17.5q26 0 43.5 -17.5t17.5 -43.5q0 -25 -17.5 -43t-43.5 -18q-25 0 -43 18zM538 -218l14 79q7 -4 19 -7t22 -3q31 0 47.5 18.5t22.5 52.5l91 511h-226l-77 -433h-84l77 433h-226l-76 -433h-85l77 433h-95l14 77h94l10 55
q12 74 64.5 116.5t125.5 42.5q45 0 74 -12l-15 -83q-30 16 -69 16q-34 0 -62 -23t-35 -66l-8 -46h225l9 55q13 74 65.5 116.5t125.5 42.5q45 0 74 -12l-15 -83q-30 16 -69 16q-34 0 -62 -23t-35 -66l-8 -46h310l-104 -592q-14 -79 -55 -111.5t-106 -32.5q-23 0 -49 8z" />
    <glyph glyph-name="f_f_k.liga" unicode="ffk" horiz-adv-x="1185" 
d="M134 433h-95l14 77h94l10 55q12 74 64.5 116.5t125.5 42.5q45 0 74 -12l-15 -83q-30 16 -69 16q-34 0 -62 -23t-35 -66l-8 -46h225l10 55q13 72 62.5 113.5t134.5 41.5h225l-79 -449l276 239h115l-1 -4l-239 -202l153 -300l-1 -4h-99l-121 246l-103 -88l-28 -158h-84
l113 643h-141q-41 0 -67 -22t-33 -65l-8 -46h129l-14 -77h-129l-76 -433h-84l76 433h-226l-76 -433h-85z" />
    <glyph glyph-name="f_f_l.liga" unicode="ffl" horiz-adv-x="891" 
d="M134 433h-95l14 77h94l10 55q12 74 64.5 116.5t125.5 42.5q45 0 74 -12l-15 -83q-30 16 -69 16q-34 0 -62 -23t-35 -66l-8 -46h225l10 55q13 72 62.5 113.5t134.5 41.5h225l-127 -720h-84l113 643h-141q-41 0 -67 -22t-33 -65l-8 -46h129l-14 -77h-129l-76 -433h-84
l76 433h-226l-76 -433h-85z" />
    <glyph glyph-name="f_f_t.liga" unicode="fft" horiz-adv-x="991" 
d="M732.5 22.5q-32.5 30.5 -32.5 80.5q0 21 4 49l50 281h-226l-77 -433h-84l77 433h-226l-76 -433h-85l77 433h-95l14 77h94l10 55q12 74 64.5 116.5t125.5 42.5q45 0 74 -12l-15 -83q-30 16 -69 16q-34 0 -62 -23t-35 -66l-8 -46h225l9 55q13 74 65.5 116.5t125.5 42.5
q45 0 74 -12l-15 -83q-30 16 -69 16q-34 0 -62 -23t-35 -66l-8 -46h225l26 144h84l-25 -144h125l-14 -77h-125l-48 -271q-4 -34 -4 -39q0 -25 15.5 -38.5t41.5 -13.5q32 0 61 17l-14 -83q-32 -13 -72 -13q-53 0 -85.5 30.5z" />
    <glyph glyph-name="f_h.liga" unicode="fh" horiz-adv-x="930" 
d="M134 433h-95l13 77h95l10 55q12 72 62 113.5t135 41.5h225l-38 -215l-16 -70h4q28 41 73 66t102 25q78 0 120.5 -41.5t42.5 -109.5q0 -29 -6 -68l-55 -307h-84l54 307q5 23 5 49q0 43 -29.5 68t-77.5 25q-62 0 -110 -48t-62 -124l-50 -277h-84l113 643h-141
q-41 0 -67 -22t-33 -65l-8 -46h129l-14 -77h-129l-76 -433h-84z" />
    <glyph glyph-name="f_i.liga" unicode="fi" horiz-adv-x="586" 
d="M482 621q-18 18 -18 43q0 26 18 43.5t43 17.5t43 -18t18 -43t-18 -43t-43 -18t-43 18zM134 433h-95l14 77h94l10 55q12 74 64.5 116.5t125.5 42.5q45 0 74 -12l-15 -83q-30 16 -69 16q-34 0 -62 -23t-35 -66l-8 -46h310l-90 -510h-84l76 433h-226l-76 -433h-85z" />
    <glyph glyph-name="f_j.liga" unicode="fj" horiz-adv-x="588" 
d="M228 -218l14 79q6 -4 18.5 -7t22.5 -3q31 0 47.5 18.5t22.5 52.5l91 511h-226l-76 -433h-85l77 433h-95l14 77h94l10 55q12 74 64.5 116.5t125.5 42.5q45 0 74 -12l-15 -83q-30 16 -69 16q-34 0 -62 -23t-35 -66l-8 -46h310l-104 -592q-14 -79 -55 -111.5t-106 -32.5
q-25 0 -49 8zM483 616q-18 18 -18 43q0 26 18 43.5t43 17.5q26 0 43.5 -17.5t17.5 -43.5q0 -25 -17.5 -43t-43.5 -18q-25 0 -43 18z" />
    <glyph glyph-name="f_k.liga" unicode="fk" horiz-adv-x="875" 
d="M134 433h-95l13 77h95l10 55q12 72 62 113.5t135 41.5h225l-79 -449l277 239h114l-1 -4l-239 -202l152 -300l-1 -4h-98l-121 246l-103 -88l-28 -158h-84l113 643h-141q-41 0 -67 -22t-33 -65l-8 -46h129l-14 -77h-129l-76 -433h-84z" />
    <glyph glyph-name="f_l.liga" unicode="fl" horiz-adv-x="581" 
d="M481 643h-141q-41 0 -67 -22t-33 -65l-8 -46h129l-14 -77h-129l-76 -433h-84l76 433h-95l13 77h95l10 55q13 72 62.5 113.5t134.5 41.5h225l-127 -720h-84z" />
    <glyph glyph-name="f_t.liga" unicode="ft" horiz-adv-x="681" 
d="M422 22.5q-33 30.5 -33 80.5q0 23 5 49l50 281h-226l-76 -433h-85l77 433h-95l14 77h94l10 55q12 74 64.5 116.5t125.5 42.5q45 0 74 -12l-15 -83q-30 16 -69 16q-34 0 -62 -23t-35 -66l-8 -46h225l26 144h84l-25 -144h125l-14 -77h-125l-48 -271q-4 -23 -4 -39
q0 -25 15.5 -38.5t41.5 -13.5q32 0 61 17l-15 -83q-31 -13 -71 -13q-53 0 -86 30.5z" />
    <glyph glyph-name="r_f.liga" unicode="rf" horiz-adv-x="749" 
d="M88 510h81l-14 -81h4q24 45 70.5 70t102.5 25q23 0 36 -3l-15 -87q-20 4 -43 4q-41 0 -79 -20t-64 -55.5t-34 -81.5l-50 -281h-84zM503 433h-95l14 77h94l10 55q12 74 64.5 116.5t125.5 42.5q45 0 74 -12l-15 -83q-30 16 -69 16q-34 0 -62 -23t-35 -66l-8 -46h131
l-14 -77h-131l-76 -433h-85z" />
    <glyph glyph-name="r_f_f.liga" unicode="rff" horiz-adv-x="1060" 
d="M88 510h81l-14 -81h4q24 45 70.5 70t102.5 25q23 0 36 -3l-15 -87q-20 4 -43 4q-41 0 -79 -20t-64 -55.5t-34 -81.5l-50 -281h-84zM503 433h-95l14 77h94l10 55q12 74 64.5 116.5t125.5 42.5q45 0 74 -12l-15 -83q-30 16 -69 16q-34 0 -62 -23t-35 -66l-8 -46h226l9 55
q12 74 65 116.5t126 42.5q44 0 73 -12l-14 -83q-30 16 -70 16q-33 0 -61 -23.5t-35 -65.5l-9 -46h131l-14 -77h-131l-76 -433h-85l77 433h-226l-76 -433h-85z" />
    <glyph glyph-name="r_t.liga" unicode="rt" horiz-adv-x="745" 
d="M88 510h81l-14 -81h4q24 45 70.5 70t102.5 25q23 0 36 -3l-15 -87q-20 4 -43 4q-41 0 -79 -20t-64 -55.5t-34 -81.5l-50 -281h-84zM486 22.5q-33 30.5 -33 80.5q0 23 5 49l50 281h-90l14 77h89l26 144h84l-25 -144h125l-14 -77h-125l-48 -271q-4 -23 -4 -39
q0 -25 15.5 -38.5t41.5 -13.5q32 0 61 17l-14 -83q-32 -13 -72 -13q-53 0 -86 30.5z" />
    <glyph glyph-name="t_f.liga" unicode="tf" horiz-adv-x="688" 
d="M107 22.5q-33 30.5 -33 80.5q0 23 5 49l50 281h-90l14 77h89l26 144h84l-25 -144h228l9 55q12 74 64.5 116.5t125.5 42.5q45 0 74 -12l-15 -83q-28 16 -69 16q-33 0 -61 -23t-36 -66l-8 -46h131l-14 -77h-131l-76 -433h-85l77 433h-228l-48 -271q-4 -23 -4 -39
q0 -25 15.5 -38.5t41.5 -13.5q32 0 61 17l-14 -83q-32 -13 -72 -13q-53 0 -86 30.5z" />
    <glyph glyph-name="t_t.liga" unicode="tt" horiz-adv-x="678" 
d="M107 22.5q-33 30.5 -33 80.5q0 23 5 49l50 281h-90l14 77h89l26 144h84l-25 -144h227l25 144h85l-26 -144h125l-14 -77h-124l-48 -271q-5 -28 -5 -39q0 -25 15.5 -38.5t41.5 -13.5q33 0 62 17l-15 -83q-32 -13 -72 -13q-53 0 -85.5 30.5t-32.5 80.5q0 23 5 49l49 281
h-227l-48 -271q-4 -23 -4 -39q0 -25 15.5 -38.5t41.5 -13.5q32 0 61 17l-14 -83q-32 -13 -72 -13q-53 0 -86 30.5z" />
    <glyph glyph-name=".notdef" horiz-adv-x="569" 
d="M496 716v-716h-423v716h423zM435 57v602h-301v-602h301z" />
    <glyph glyph-name=".null" horiz-adv-x="0" 
 />
    <glyph glyph-name="uni000D" unicode="&#xd;" horiz-adv-x="0" 
 />
    <glyph glyph-name="uni0002" horiz-adv-x="0" 
 />
    <glyph glyph-name="uni0009" unicode="&#x9;" horiz-adv-x="0" 
 />
    <glyph glyph-name="uni000A" unicode="&#xa;" horiz-adv-x="0" 
 />
    <glyph glyph-name="space" unicode=" " horiz-adv-x="224" 
 />
    <glyph glyph-name="exclam" unicode="!" horiz-adv-x="221" 
d="M88 473l43 243h85l-43 -243l-56 -262h-65zM13.5 12.5q-18.5 18.5 -18.5 45.5q0 26 18.5 44.5t45.5 18.5q26 0 44.5 -18.5t18.5 -44.5q0 -27 -18.5 -45.5t-44.5 -18.5q-27 0 -45.5 18.5z" />
    <glyph glyph-name="quotedbl" unicode="&#x22;" horiz-adv-x="306" 
d="M106 716h77l-39 -221h-77zM249 716h77l-39 -221h-77z" />
    <glyph glyph-name="numbersign" unicode="#" horiz-adv-x="626" 
d="M142 206h-123l14 70h122l25 141h-125l13 70h124l34 197h74l-34 -197h142l34 197h74l-34 -197h123l-13 -70h-122l-25 -141h126l-14 -70h-124l-36 -206h-74l35 206h-141l-36 -206h-74zM371 276l25 141h-142l-25 -141h142z" />
    <glyph glyph-name="dollar" unicode="$" horiz-adv-x="526" 
d="M170 -12q-66 11 -116.5 58t-60.5 122l80 30q5 -49 34 -84t78 -45l44 251q-72 32 -112.5 77t-40.5 113q0 50 26.5 91t76 67t116.5 31l15 85h70l-15 -88q57 -11 94.5 -47.5t52.5 -86.5l-81 -32q-21 67 -80 83l-42 -237q76 -36 114.5 -78.5t38.5 -107.5q0 -88 -62 -142
t-160 -62l-15 -86h-70zM281 617q-53 -5 -86 -32.5t-33 -76.5q0 -61 82 -103zM341 102q34 29 34 81q0 37 -20.5 62t-61.5 45l-39 -223q53 6 87 35z" />
    <glyph glyph-name="percent" unicode="%" horiz-adv-x="811" 
d="M101 400q-42 42 -42 107q0 53 26 97.5t71 70t101 25.5q64 0 105.5 -42t41.5 -107q0 -53 -26 -97.5t-71 -70t-100 -25.5q-64 0 -106 42zM98 32l562 659l47 -40l-562 -658zM301 456q34 36 34 89q0 41 -24.5 67t-61.5 26q-52 0 -86.5 -36t-34.5 -89q0 -41 25 -67t62 -26
q52 0 86 36zM444 26q-42 42 -42 107q0 53 26 97.5t71 70t101 25.5q64 0 105.5 -42t41.5 -107q0 -53 -26 -97.5t-71 -70t-100 -25.5q-64 0 -106 42zM644 82q34 36 34 89q0 41 -24.5 67t-61.5 26q-52 0 -86.5 -36t-34.5 -89q0 -41 25 -67t62 -26q52 0 86 36z" />
    <glyph glyph-name="ampersand" unicode="&#x26;" horiz-adv-x="615" 
d="M110 11q-50 27 -79 76t-29 114q0 80 42 143t125 104l-1 2q-33 57 -33 110q0 44 22 83.5t63.5 64t97.5 24.5q66 0 105.5 -33.5t55.5 -92.5l-83 -34q-20 79 -87 79q-37 0 -62 -25.5t-25 -65.5q0 -35 24 -78l176 -299l80 116l56 -41l-98 -140l55 -93l-74 -41l-40 68
q-78 -68 -180 -68q-61 0 -111 27zM364 115l-158 270q-56 -26 -90.5 -72t-34.5 -108q0 -39 19 -72t53 -52.5t77 -19.5q78 0 134 54z" />
    <glyph glyph-name="quotesingle" unicode="'" horiz-adv-x="163" 
d="M106 716h77l-39 -221h-77z" />
    <glyph glyph-name="parenleft" unicode="(" horiz-adv-x="320" 
d="M86 34q-34 99 -34 216q0 153 73.5 293.5t194.5 236.5l48 -45q-112 -105 -171.5 -226.5t-59.5 -273.5q0 -177 93 -327l-60 -44q-50 71 -84 170z" />
    <glyph glyph-name="parenright" unicode=")" horiz-adv-x="320" 
d="M-46 -91q112 104 171.5 226t59.5 274q0 177 -93 327l61 44q50 -71 83.5 -170t33.5 -216q0 -153 -73 -293.5t-195 -236.5z" />
    <glyph glyph-name="asterisk" unicode="*" horiz-adv-x="429" 
d="M88 421l97 104l-1 8l-101 38l27 64l104 -40l6 2l21 119h71l-21 -119l5 -2l106 37l22 -65l-117 -43l-3 -7l56 -99l-65 -42l-56 101h-7l-91 -101z" />
    <glyph glyph-name="plus" unicode="+" horiz-adv-x="544" 
d="M216 236h-183l13 70h182l32 182h70l-32 -182h182l-12 -70h-182l-32 -182h-70z" />
    <glyph glyph-name="comma" unicode="," horiz-adv-x="224" 
d="M44 0q-13 5 -25 20t-12 38q0 27 18.5 45t43.5 18q27 0 46 -18t19 -45q0 -15 -9 -29t-30 -40l-83 -99l-35 29z" />
    <glyph glyph-name="hyphen" unicode="-" horiz-adv-x="427" 
d="M369 345l-12 -70h-318l12 70h318z" />
    <glyph glyph-name="period" unicode="." horiz-adv-x="221" 
d="M12.5 12.5q-18.5 18.5 -18.5 45.5q0 26 18.5 44.5t45.5 18.5q26 0 44.5 -18.5t18.5 -44.5q0 -27 -18.5 -45.5t-44.5 -18.5q-27 0 -45.5 18.5z" />
    <glyph glyph-name="slash" unicode="/" horiz-adv-x="429" 
d="M384 716h82l-424 -716h-81z" />
    <glyph glyph-name="zero" unicode="0" horiz-adv-x="643" 
d="M145.5 20q-51.5 36 -79.5 103t-28 156q0 110 43.5 207t120 155.5t170.5 58.5q108 0 168.5 -78t60.5 -216q0 -111 -43.5 -208t-120 -155.5t-171.5 -58.5q-69 0 -120.5 36zM392.5 111q55.5 46 88.5 123t33 165q0 103 -39 161.5t-114 58.5q-60 0 -114.5 -47.5t-88 -124.5
t-33.5 -162q0 -104 39.5 -162t109.5 -58q63 0 118.5 46z" />
    <glyph glyph-name="one" unicode="1" horiz-adv-x="380" 
d="M242 564l-128 -85l-39 65l217 140h56l-121 -684h-84z" />
    <glyph glyph-name="two" unicode="2" horiz-adv-x="525" 
d="M-3 85q36 31 143.5 124t151.5 133q41 36 63.5 59.5t36.5 51t14 60.5q0 48 -30.5 77t-84.5 29q-53 0 -88 -32t-49 -71l-75 34q22 61 78.5 105.5t144.5 44.5q55 0 99 -23t68.5 -62.5t24.5 -88.5q0 -48 -19.5 -88.5t-50 -74t-79.5 -76.5l-239 -206h322l-14 -81h-431z" />
    <glyph glyph-name="three" unicode="3" horiz-adv-x="536" 
d="M117 3q-45 19 -75.5 58t-37.5 94l83 32q7 -57 42.5 -89.5t91.5 -32.5q66 0 111 37.5t45 100.5q0 55 -35 85.5t-91 30.5h-58l13 79h54q68 0 108 32.5t40 89.5q0 44 -31.5 71.5t-79.5 27.5q-49 0 -82 -27t-52 -68l-75 35q26 62 81 101.5t138 39.5q54 0 96.5 -21.5t67 -59.5
t24.5 -85q0 -62 -33 -104.5t-88 -65.5v-4q38 -17 64 -56t26 -91q0 -68 -34.5 -120.5t-92.5 -80.5t-126 -28q-49 0 -94 19z" />
    <glyph glyph-name="four" unicode="4" horiz-adv-x="592" 
d="M333 147h-328l11 64l399 473h97l-80 -457h88l-14 -80h-88l-27 -147h-84zM347 227l59 332h-4l-276 -332h221z" />
    <glyph glyph-name="five" unicode="5" horiz-adv-x="563" 
d="M123 5q-46 21 -77 63t-36 101l81 30q5 -60 39.5 -97t91.5 -37q49 0 89.5 21t64 58.5t23.5 85.5q0 60 -34 96.5t-93 36.5q-36 0 -70.5 -16.5t-59.5 -45.5l-80 38l104 345h355l-14 -81h-285l-64 -207l4 -1q60 45 131 45q86 0 139 -54t53 -147q0 -69 -34 -127.5t-95 -93
t-138 -34.5q-49 0 -95 21z" />
    <glyph glyph-name="six" unicode="6" horiz-adv-x="556" 
d="M123 11q-49 27 -77.5 74.5t-28.5 106.5q0 63 27 114t90 122l238 272l60 -47l-207 -237l2 -2q38 20 77 20q52 0 94.5 -26t67 -73t24.5 -105q0 -73 -35.5 -129t-94.5 -86.5t-128 -30.5q-60 0 -109 27zM322.5 85q37.5 20 59.5 56t22 82q0 60 -38.5 97.5t-98.5 37.5
q-47 0 -84.5 -22t-58.5 -59t-21 -82q0 -37 18.5 -66.5t50 -46.5t67.5 -17q46 0 83.5 20z" />
    <glyph glyph-name="seven" unicode="7" horiz-adv-x="529" 
d="M21 33l413 570h-347l16 81h437l-14 -87l-441 -613z" />
    <glyph glyph-name="eight" unicode="8" horiz-adv-x="552" 
d="M109 8q-47 24 -73 65.5t-26 90.5q0 66 40.5 117.5t106.5 77.5l1 4q-68 54 -68 130q0 55 31 103t85 76t120 28q83 0 134 -46t51 -122q0 -62 -35 -104.5t-85 -65.5l-1 -4q38 -19 63 -58.5t25 -86.5q0 -67 -36 -119.5t-96.5 -81t-129.5 -28.5q-60 0 -107 24zM355 414
q32 16 50.5 43t18.5 59q0 48 -30 75.5t-78 27.5q-58 0 -98.5 -34t-40.5 -88q0 -44 30.5 -71.5t77.5 -27.5q38 0 70 16zM303.5 82.5q38.5 17.5 63 50t24.5 75.5q0 49 -36.5 80t-91.5 31q-42 0 -80 -18.5t-61.5 -52t-23.5 -77.5q0 -47 35.5 -76.5t89.5 -29.5q42 0 80.5 17.5z
" />
    <glyph glyph-name="nine" unicode="9" horiz-adv-x="555" 
d="M120 31l207 237l-2 2q-37 -20 -73 -20q-53 0 -96.5 26.5t-68.5 73t-25 104.5q0 73 35.5 129t94.5 86.5t128 30.5q60 0 109.5 -27t77.5 -74.5t28 -106.5q0 -63 -27 -114t-90 -122l-238 -272zM369.5 348q37.5 22 58.5 59t21 82q0 37 -18.5 66.5t-50 46.5t-67.5 17
q-46 0 -83.5 -20t-59 -56t-21.5 -82q0 -60 38 -97.5t98 -37.5q47 0 84.5 22z" />
    <glyph glyph-name="colon" unicode=":" horiz-adv-x="221" 
d="M82.5 406.5q-18.5 18.5 -18.5 45.5t18.5 45.5t45.5 18.5q26 0 44.5 -18.5t18.5 -45.5t-18.5 -45.5t-44.5 -18.5q-27 0 -45.5 18.5zM12.5 12.5q-18.5 18.5 -18.5 45.5q0 26 18.5 44.5t45.5 18.5q26 0 44.5 -18.5t18.5 -44.5q0 -27 -18.5 -45.5t-44.5 -18.5
q-27 0 -45.5 18.5z" />
    <glyph glyph-name="semicolon" unicode=";" horiz-adv-x="228" 
d="M90.5 406.5q-18.5 18.5 -18.5 45.5t18.5 45.5t45.5 18.5q26 0 44.5 -18.5t18.5 -45.5t-18.5 -45.5t-44.5 -18.5q-27 0 -45.5 18.5zM-19 -64l66 80q-13 5 -25 20t-12 38q0 27 19 45.5t44 18.5q27 0 45.5 -18t18.5 -45q0 -15 -9.5 -30t-29.5 -39l-83 -99z" />
    <glyph glyph-name="less" unicode="&#x3c;" horiz-adv-x="497" 
d="M34 240l10 62l416 184l-14 -82l-316 -134l-1 -4l269 -137l-13 -73z" />
    <glyph glyph-name="equal" unicode="=" horiz-adv-x="556" 
d="M70 449h447l-12 -70h-447zM37 259h447l-13 -70h-447z" />
    <glyph glyph-name="greater" unicode="&#x3e;" horiz-adv-x="497" 
d="M19 138l317 134l1 4l-269 137l13 73l351 -184l-10 -62l-417 -184z" />
    <glyph glyph-name="question" unicode="?" horiz-adv-x="487" 
d="M174 259q9 52 32 84.5t83 77.5q45 33 71.5 65t26.5 71q0 42 -29.5 68t-77.5 26q-50 0 -84.5 -28t-48.5 -71l-74 33q23 65 78.5 106t140.5 41q52 0 94 -22t65.5 -59t23.5 -82q0 -59 -33.5 -103t-97.5 -93q-39 -30 -58.5 -57t-26.5 -63l-7 -42h-86zM136.5 12.5
q-18.5 18.5 -18.5 45.5q0 26 18.5 44.5t44.5 18.5q27 0 45.5 -18.5t18.5 -44.5q0 -27 -18.5 -45.5t-45.5 -18.5q-26 0 -44.5 18.5z" />
    <glyph glyph-name="at" unicode="@" horiz-adv-x="864" 
d="M200.5 -35.5q-78.5 46.5 -122.5 126t-44 173.5q0 118 58 215.5t160 154t228 56.5q94 0 173 -41.5t125.5 -116t46.5 -170.5q0 -70 -22 -131t-63.5 -98t-96.5 -37q-39 0 -66.5 20.5t-37.5 55.5q-26 -36 -66 -56t-84 -20t-83.5 22.5t-63 63t-23.5 92.5q0 56 27 109.5
t77.5 87t119.5 33.5q43 0 76 -18t49 -44h4l8 48h67l-46 -261q-2 -14 -2 -22q0 -20 13 -35t38 -15q32 0 56 29.5t37.5 76t13.5 96.5q0 79 -36.5 138.5t-102 92.5t-151.5 33q-102 0 -184.5 -46.5t-129.5 -127.5t-47 -181q0 -81 37 -145.5t100.5 -101t139.5 -36.5t136 28
l22 -62q-73 -33 -165 -33q-97 0 -175.5 46.5zM479 186.5q33 20.5 52 55.5t19 77q0 52 -30.5 83.5t-81.5 31.5q-42 0 -74.5 -21t-50.5 -57t-18 -79q0 -53 31.5 -82t80.5 -29q39 0 72 20.5z" />
    <glyph glyph-name="A" unicode="A" horiz-adv-x="669" 
d="M347 716h96l145 -716h-90l-36 197h-309l-108 -197h-95zM446 277l-50 258l-14 77h-4l-183 -335h251z" />
    <glyph glyph-name="B" unicode="B" horiz-adv-x="605" 
d="M141 716h244q57 0 99.5 -23.5t65 -63t22.5 -86.5q0 -63 -37 -107.5t-91 -63.5l-1 -4q96 -49 96 -150q0 -60 -33.5 -110t-91.5 -79t-129 -29h-271zM343 406q61 0 102 33.5t41 90.5q0 45 -28.5 75t-79.5 30h-167l-41 -229h173zM303 81q37 0 71.5 16t56 46.5t21.5 72.5
q0 50 -32.5 80t-87.5 30h-176l-43 -245h190z" />
    <glyph glyph-name="C" unicode="C" horiz-adv-x="740" 
d="M188.5 24q-71.5 40 -111.5 113t-40 169q0 110 56.5 208.5t155.5 158t220 59.5q81 0 146 -33.5t99 -86.5l-68 -56q-33 49 -78 72t-108 23q-92 0 -169.5 -48t-122.5 -126.5t-45 -166.5q0 -73 31 -128.5t85.5 -86t121.5 -30.5q73 0 129 27t111 81l54 -61q-67 -66 -138.5 -97
t-165.5 -31q-91 0 -162.5 40z" />
    <glyph glyph-name="D" unicode="D" horiz-adv-x="703" 
d="M141 716h216q97 0 166 -40t104.5 -109.5t35.5 -158.5q0 -109 -51 -202.5t-147 -149.5t-225 -56h-226zM245 81q93 0 169 42.5t119 116t43 162.5q0 113 -61.5 173t-172.5 60h-131l-98 -554h132z" />
    <glyph glyph-name="E" unicode="E" horiz-adv-x="550" 
d="M141 716h414l-14 -81h-330l-42 -237h298l-14 -80h-298l-42 -237h330l-15 -81h-414z" />
    <glyph glyph-name="F" unicode="F" horiz-adv-x="530" 
d="M141 716h414l-14 -81h-330l-43 -245h298l-14 -80h-298l-56 -310h-84z" />
    <glyph glyph-name="G" unicode="G" horiz-adv-x="814" 
d="M199 24q-73 40 -117 115t-44 174q0 113 55.5 209t155 153t226.5 57q78 0 145 -29.5t101 -80.5l-69 -58q-26 40 -78 63.5t-113 23.5q-93 0 -170 -44t-121.5 -120.5t-44.5 -169.5q0 -78 33 -135t88.5 -87t122.5 -30q132 0 219 90q55 56 78 147h-260l14 79h345q0 -20 -5 -52
q-24 -141 -111 -229q-110 -116 -292 -116q-85 0 -158 40z" />
    <glyph glyph-name="H" unicode="H" horiz-adv-x="698" 
d="M141 716h84l-55 -310h369l56 310h84l-127 -716h-84l57 326h-369l-58 -326h-84z" />
    <glyph glyph-name="I" unicode="I" horiz-adv-x="244" 
d="M141 716h84l-127 -716h-84z" />
    <glyph glyph-name="J" unicode="J" horiz-adv-x="531" 
d="M55 29q-53 45 -62 121l82 32q6 -61 39 -89t83 -28q60 0 103.5 42t54.5 107l88 502h84l-87 -496q-20 -117 -88 -176.5t-165 -59.5q-79 0 -132 45z" />
    <glyph glyph-name="K" unicode="K" horiz-adv-x="626" 
d="M141 716h84l-65 -374h4l385 374h112l-1 -4l-319 -306l213 -402l-1 -4h-99l-180 341l-138 -131l-38 -210h-84z" />
    <glyph glyph-name="L" unicode="L" horiz-adv-x="508" 
d="M141 716h84l-112 -635h314l-15 -81h-398z" />
    <glyph glyph-name="M" unicode="M" horiz-adv-x="866" 
d="M141 716h119l126 -587h4l331 587h126l-127 -716h-84l80 455l29 136h-4l-335 -591h-71l-132 591h-4l-20 -136l-81 -455h-84z" />
    <glyph glyph-name="N" unicode="N" horiz-adv-x="707" 
d="M141 716h97l265 -570h4l21 138l76 432h85l-127 -716h-81l-277 597h-4l-20 -138l-82 -459h-84z" />
    <glyph glyph-name="O" unicode="O" horiz-adv-x="825" 
d="M197.5 25.5q-74.5 41.5 -117.5 115.5t-43 168q0 110 54 207.5t150.5 156.5t218.5 59q90 0 164 -41.5t117 -115.5t43 -168q0 -110 -53.5 -207.5t-150 -156.5t-217.5 -59q-91 0 -165.5 41.5zM535 112.5q75 47.5 118.5 125t43.5 162.5q0 76 -32.5 133t-89 87.5t-125.5 30.5
q-89 0 -163.5 -47.5t-118 -125t-43.5 -162.5q0 -76 32.5 -133t88.5 -87.5t125 -30.5q89 0 164 47.5z" />
    <glyph glyph-name="P" unicode="P" horiz-adv-x="576" 
d="M141 716h235q56 0 100 -23.5t69 -65.5t25 -96q0 -73 -33.5 -127.5t-93.5 -83t-136 -28.5h-156l-53 -292h-84zM322 373q71 0 116 37.5t45 109.5q0 53 -32.5 84t-81.5 31h-158l-46 -262h157z" />
    <glyph glyph-name="Q" unicode="Q" horiz-adv-x="825" 
d="M533 20q-81 -36 -170 -36q-91 0 -165.5 41.5t-117.5 115.5t-43 168q0 110 54 207.5t150.5 156.5t218.5 59q90 0 164 -41.5t117 -115.5t43 -168q0 -103 -47 -194.5t-130 -150.5l33 -69l-75 -38zM496 92l-65 134l76 40l63 -127q58 48 92.5 117.5t34.5 143.5q0 76 -32.5 133
t-89 87.5t-125.5 30.5q-89 0 -163.5 -47.5t-118 -125t-43.5 -162.5q0 -76 32.5 -133t88.5 -87.5t125 -30.5q63 0 125 27z" />
    <glyph glyph-name="R" unicode="R" horiz-adv-x="586" 
d="M141 716h235q56 0 100 -24t69 -67t25 -99q0 -88 -57.5 -149t-151.5 -79l-3 -3l149 -291l-1 -4h-95l-146 292h-114l-53 -292h-84zM317 371q71 0 118.5 41t47.5 112q0 48 -32.5 79.5t-88.5 31.5h-151l-46 -264h152z" />
    <glyph glyph-name="S" unicode="S" horiz-adv-x="564" 
d="M79 35.5q-62 51.5 -76 142.5l81 33q8 -65 48 -105.5t107 -40.5q41 0 78.5 17.5t61 49.5t23.5 74q0 45 -30.5 74.5t-98.5 54.5l-43 16q-63 24 -103 67t-40 111q0 58 32.5 104t87 72.5t118.5 26.5q65 0 110 -23.5t68.5 -57.5t28.5 -67l-82 -30q-7 38 -38 67.5t-93 29.5
q-61 0 -102.5 -31.5t-41.5 -83.5q0 -41 28 -68t83 -48l43 -16q161 -60 161 -186q0 -70 -34 -123t-93.5 -82t-133.5 -29q-88 0 -150 51.5z" />
    <glyph glyph-name="T" unicode="T" horiz-adv-x="538" 
d="M273 635h-201l15 81h486l-15 -81h-200l-113 -635h-84z" />
    <glyph glyph-name="U" unicode="U" horiz-adv-x="661" 
d="M156 10.5q-50 26.5 -79.5 75t-29.5 113.5q0 44 8 94l75 423h84l-78 -443q-6 -35 -6 -61q0 -68 38 -107.5t112 -39.5q85 0 140.5 54.5t71.5 141.5l80 455h84l-82 -466q-23 -126 -102 -196t-206 -70q-60 0 -110 26.5z" />
    <glyph glyph-name="V" unicode="V" horiz-adv-x="631" 
d="M76 716h91l85 -519l12 -71h4l38 71l276 519h96l-389 -716h-87z" />
    <glyph glyph-name="W" unicode="W" horiz-adv-x="944" 
d="M79 716h91l38 -526l4 -49h4l23 49l252 526h88l61 -526l6 -49h4l20 49l223 526h95l-316 -716h-88l-65 518l-7 56h-4l-26 -56l-248 -518h-89z" />
    <glyph glyph-name="X" unicode="X" horiz-adv-x="629" 
d="M267 375l-169 341h100l130 -277h4l228 277h104l-290 -348l183 -368h-100l-146 299h-4l-249 -299h-100z" />
    <glyph glyph-name="Y" unicode="Y" horiz-adv-x="595" 
d="M250 331l-174 385h97l130 -300h4l233 300h102l-307 -385l-59 -331h-84z" />
    <glyph glyph-name="Z" unicode="Z" horiz-adv-x="571" 
d="M-11 89l479 546h-367l14 81h468l-16 -89l-480 -546h388l-15 -81h-487z" />
    <glyph glyph-name="bracketleft" unicode="[" horiz-adv-x="303" 
d="M150 792h201l-12 -70h-125l-136 -776h124l-12 -70h-200z" />
    <glyph glyph-name="backslash" unicode="\" horiz-adv-x="430" 
d="M91 716h77l170 -716h-77z" />
    <glyph glyph-name="bracketright" unicode="]" horiz-adv-x="303" 
d="M-37 -54h123l136 776h-123l12 70h201l-161 -916h-200z" />
    <glyph glyph-name="asciicircum" unicode="^" horiz-adv-x="464" 
d="M285 634h-4l-167 -224h-93l241 306h66l133 -306h-84z" />
    <glyph glyph-name="underscore" unicode="_" horiz-adv-x="476" 
d="M406 -146l-13 -70h-475l13 70h475z" />
    <glyph glyph-name="grave" unicode="`" horiz-adv-x="397" 
d="M162 716h91l29 -127h-72z" />
    <glyph glyph-name="a" unicode="a" horiz-adv-x="528" 
d="M107.5 4.5q-38.5 20.5 -61 56t-22.5 79.5q0 85 62.5 135.5t171.5 50.5q40 0 78.5 -9.5t68.5 -25.5l6 30q3 17 3 29q0 45 -35.5 72.5t-89.5 27.5q-83 0 -137 -68l-66 47q36 46 91 71.5t121 25.5q92 0 144.5 -44.5t52.5 -119.5q0 -21 -5 -51l-56 -311h-81l13 72h-4
q-27 -40 -71 -64t-100 -24q-45 0 -83.5 20.5zM330 104.5q51 45.5 63 116.5q-31 18 -62 27t-78 9q-63 0 -102.5 -29.5t-39.5 -81.5q0 -40 28.5 -63.5t70.5 -23.5q69 0 120 45.5z" />
    <glyph glyph-name="b" unicode="b" horiz-adv-x="601" 
d="M162.5 10.5q-44.5 26.5 -66.5 65.5h-4l-14 -76h-79l126 716h84l-37 -211l-17 -71h4q24 39 69.5 65.5t106.5 26.5t110 -30.5t76.5 -84.5t27.5 -123q0 -81 -36.5 -151t-102 -111.5t-147.5 -41.5q-56 0 -100.5 26.5zM363 89.5q46 28.5 72.5 79t26.5 113.5q0 73 -42 120
t-108 47q-53 0 -97.5 -32t-70 -84.5t-25.5 -111.5q0 -49 19 -85t51.5 -55.5t71.5 -19.5q56 0 102 28.5z" />
    <glyph glyph-name="c" unicode="c" horiz-adv-x="544" 
d="M119 16q-51 32 -78.5 86t-27.5 117q0 85 38 155t105.5 111t153.5 41q82 0 134 -41t69 -100l-79 -31q-14 45 -48.5 70t-85.5 25q-55 0 -101 -29t-73 -80t-27 -115q0 -70 40.5 -117t106.5 -47q52 0 93.5 25.5t65.5 71.5l68 -33q-40 -72 -97.5 -106.5t-140.5 -34.5
q-65 0 -116 32z" />
    <glyph glyph-name="d" unicode="d" horiz-adv-x="602" 
d="M113.5 12.5q-47.5 28.5 -74.5 81t-27 121.5q0 85 38 156t105 113t151 42q57 0 100 -27t62 -66h4l9 71l37 212h85l-127 -716h-81l14 75h-4q-29 -42 -75.5 -66.5t-109.5 -24.5q-59 0 -106.5 28.5zM344.5 92q46.5 31 73 83.5t26.5 115.5q0 72 -41 115t-103 43
q-57 0 -103 -29.5t-72.5 -81.5t-26.5 -115q0 -74 40.5 -118t103.5 -44q56 0 102.5 31z" />
    <glyph glyph-name="e" unicode="e" horiz-adv-x="564" 
d="M120 15.5q-52 31.5 -79.5 85t-27.5 117.5q0 80 36 151t102 114t151 43q66 0 114 -29t73 -78t25 -108q0 -43 -9 -72h-404q-2 -20 -2 -32q0 -44 20.5 -77.5t54.5 -51t72 -17.5q59 0 100 24.5t69 70.5l65 -37q-38 -66 -99 -100.5t-140 -34.5q-69 0 -121 31.5zM429 309v14
q0 33 -16 62t-47 46.5t-74 17.5q-64 0 -111.5 -40t-65.5 -100h314z" />
    <glyph glyph-name="f" unicode="f" horiz-adv-x="380" 
d="M134 433h-95l14 77h94l10 55q12 74 64.5 116.5t125.5 42.5q45 0 74 -12l-15 -83q-30 16 -69 16q-34 0 -62 -23t-35 -66l-8 -46h131l-14 -77h-131l-76 -433h-85z" />
    <glyph glyph-name="g" unicode="g" horiz-adv-x="597" 
d="M103.5 -211q-43.5 21 -69.5 53.5t-33 68.5l82 33q11 -44 45 -71.5t89 -27.5q79 0 130 47t65 129l10 56h-4q-29 -42 -73 -64.5t-108 -22.5q-57 0 -104 28.5t-74 81t-27 119.5q0 81 36 151.5t101.5 113t150.5 42.5q58 0 101 -25t61 -64h4l13 73h81l-87 -494
q-22 -126 -98 -187t-190 -61q-58 0 -101.5 21zM359.5 98q46.5 31 72.5 82.5t26 110.5q0 72 -39 115t-100 43q-60 0 -106 -30t-71 -81.5t-25 -114.5q0 -73 39 -114.5t99 -41.5q58 0 104.5 31z" />
    <glyph glyph-name="h" unicode="h" horiz-adv-x="561" 
d="M125 716h84l-37 -211l-17 -70h4q29 41 74 66t102 25q78 0 120.5 -41.5t42.5 -109.5q0 -29 -6 -68l-55 -307h-84l54 307q5 30 5 49q0 43 -29.5 68t-77.5 25q-62 0 -110.5 -48t-61.5 -124l-50 -277h-84z" />
    <glyph glyph-name="i" unicode="i" horiz-adv-x="226" 
d="M122 621q-18 18 -18 43q0 26 18 43.5t43 17.5t43 -18t18 -43t-18 -43t-43 -18t-43 18zM94 510h85l-90 -510h-84z" />
    <glyph glyph-name="j" unicode="j" horiz-adv-x="230" 
d="M125 616q-18 18 -18 43q0 26 18 43.5t43 17.5q26 0 43.5 -17.5t17.5 -43.5q0 -25 -17.5 -43t-43.5 -18q-25 0 -43 18zM-130 -218l14 79q7 -4 19 -7t22 -3q31 0 47.5 18.5t22.5 52.5l104 588h85l-104 -592q-14 -79 -55 -111.5t-106 -32.5q-25 0 -49 8z" />
    <glyph glyph-name="k" unicode="k" horiz-adv-x="507" 
d="M126 716h85l-78 -444l274 238h116l-1 -4l-238 -202l152 -300l-1 -4h-99l-120 246l-103 -88l-28 -158h-85z" />
    <glyph glyph-name="l" unicode="l" horiz-adv-x="212" 
d="M125 716h84l-126 -716h-84z" />
    <glyph glyph-name="m" unicode="m" horiz-adv-x="876" 
d="M169 510l-13 -75h4q27 43 69 67t99 24t93.5 -26t50.5 -73q28 46 77 72.5t110 26.5q74 0 115 -38.5t41 -101.5q0 -27 -9 -77l-54 -309h-85l55 314q5 30 5 49q0 40 -25 63t-72 23q-60 0 -105 -48.5t-58 -120.5l-50 -280h-84l55 313q5 30 5 48q0 41 -26 64.5t-71 23.5
q-61 0 -106 -49.5t-57 -121.5l-50 -278h-84l89 510h81z" />
    <glyph glyph-name="n" unicode="n" horiz-adv-x="561" 
d="M160 435q27 41 71.5 66t102.5 25q76 0 120 -41.5t44 -109.5q0 -35 -7 -71l-54 -304h-84l54 306q6 29 6 50q0 44 -29.5 68.5t-78.5 24.5q-62 0 -110 -46t-61 -116l-51 -287h-84l89 510h81l-13 -75h4z" />
    <glyph glyph-name="o" unicode="o" horiz-adv-x="585" 
d="M125.5 16q-53.5 32 -83 87.5t-29.5 123.5q0 82 37.5 150.5t105.5 108.5t156 40q68 0 121 -32t82.5 -87.5t29.5 -123.5q0 -83 -37.5 -151.5t-105.5 -108t-155 -39.5q-68 0 -121.5 32zM361 90.5q46 29.5 72 79t26 108.5q0 48 -20 87t-55.5 61.5t-81.5 22.5
q-58 0 -104.5 -29.5t-72.5 -79.5t-26 -108q0 -49 20 -88t55.5 -61t81.5 -22q59 0 105 29.5z" />
    <glyph glyph-name="p" unicode="p" horiz-adv-x="597" 
d="M93 510h81l-13 -75h4q29 42 75.5 66.5t109.5 24.5q59 0 106.5 -28.5t74.5 -81t27 -122.5q0 -84 -38 -155.5t-105.5 -113t-151.5 -41.5q-56 0 -99.5 26.5t-62.5 65.5h-4l-8 -71l-40 -221h-84zM373 90.5q46 29.5 72 81.5t26 115q0 75 -40 118.5t-104 43.5q-56 0 -102.5 -31
t-73 -84t-26.5 -117q0 -71 41.5 -113.5t102.5 -42.5q58 0 104 29.5z" />
    <glyph glyph-name="q" unicode="q" horiz-adv-x="598" 
d="M392 5l16 70h-4q-23 -41 -67.5 -66t-107.5 -25q-62 0 -111 30t-77 84.5t-28 123.5q0 80 37 150t102.5 112t147.5 42q58 0 101.5 -26t65.5 -66h4l14 76h80l-128 -727h-85zM349 93q44 32 69.5 84.5t25.5 111.5q0 73 -41.5 116.5t-103.5 43.5q-55 0 -100.5 -28.5t-72 -79
t-26.5 -113.5q0 -74 42 -120.5t110 -46.5q53 0 97 32z" />
    <glyph glyph-name="r" unicode="r" horiz-adv-x="375" 
d="M88 510h81l-13 -76h4q20 42 66.5 66.5t96.5 24.5q37 0 59 -10l-16 -93q-26 17 -69 17q-37 0 -72 -21t-60 -56.5t-32 -76.5l-50 -285h-84z" />
    <glyph glyph-name="s" unicode="s" horiz-adv-x="468" 
d="M58.5 23q-52.5 39 -69.5 101l80 32q10 -46 47 -71.5t85 -25.5t79.5 23t31.5 58q0 31 -21 51.5t-65 31.5l-51 13q-61 16 -96.5 50t-35.5 86q0 43 25.5 78.5t71.5 55.5t103 20q68 0 119.5 -32t68.5 -84l-81 -31q-12 33 -41 52t-71 19q-48 0 -77.5 -20t-29.5 -52
q0 -22 19.5 -41t54.5 -28l66 -17q60 -15 94.5 -52t34.5 -90q0 -75 -55 -120.5t-153 -45.5q-81 0 -133.5 39z" />
    <glyph glyph-name="t" unicode="t" horiz-adv-x="366" 
d="M107 22.5q-33 30.5 -33 80.5q0 23 5 49l50 281h-90l14 77h89l26 144h84l-25 -144h125l-14 -77h-125l-48 -271q-4 -23 -4 -39q0 -25 15.5 -38.5t41.5 -13.5q32 0 61 17l-14 -83q-32 -13 -72 -13q-53 0 -86 30.5z" />
    <glyph glyph-name="u" unicode="u" horiz-adv-x="561" 
d="M363 74q-27 -41 -72 -65.5t-103 -24.5q-76 0 -120 41.5t-44 109.5q0 33 7 71l54 304h85l-55 -306q-5 -33 -5 -50q0 -44 29.5 -68.5t77.5 -24.5q62 0 110 45.5t61 115.5l51 288h85l-90 -510h-80l13 74h-4z" />
    <glyph glyph-name="v" unicode="v" horiz-adv-x="514" 
d="M32 510h90l85 -410h2l231 410h92l-298 -510h-87z" />
    <glyph glyph-name="w" unicode="w" horiz-adv-x="778" 
d="M32 510h86l48 -403h1l200 403h90l59 -402h1l190 402h89l-254 -510h-89l-58 407l-203 -407h-86z" />
    <glyph glyph-name="x" unicode="x" horiz-adv-x="486" 
d="M170 261l-129 249h95l95 -188l158 188h103l-222 -254l135 -256h-95l-99 196l-163 -196h-103z" />
    <glyph glyph-name="y" unicode="y" horiz-adv-x="516" 
d="M174 33l-127 477h90l94 -379h2l222 379h95l-445 -726h-89z" />
    <glyph glyph-name="z" unicode="z" horiz-adv-x="481" 
d="M345 433h-290l14 77h396l-12 -73l-362 -360h301l-14 -77h-407l12 73z" />
    <glyph glyph-name="braceleft" unicode="{" horiz-adv-x="314" 
d="M79 -89.5q-38 34.5 -38 89.5q0 21 3 39l31 176q2 14 2 21q0 31 -16 47t-45 16l12 70q33 0 57 21t32 64l31 175q14 81 59.5 122t128.5 41h25l-12 -70h-22q-41 0 -67.5 -25t-34.5 -71l-32 -175q-9 -49 -29.5 -76t-57.5 -39l-1 -4q26 -10 39 -29t13 -50q0 -17 -4 -36
l-32 -176q-3 -18 -3 -26q0 -33 20.5 -51t52.5 -18h21l-12 -70h-22q-61 0 -99 34.5z" />
    <glyph glyph-name="bar" unicode="|" horiz-adv-x="218" 
d="M151 792h77l-161 -912h-77z" />
    <glyph glyph-name="braceright" unicode="}" horiz-adv-x="313" 
d="M-38 -54h22q41 0 67.5 25t34.5 71l32 175q9 49 29.5 76t57.5 39l1 4q-26 10 -39 29t-13 50q0 17 4 36l32 176q3 18 3 26q0 33 -20 51t-53 18h-21l12 70h22q61 0 99 -34.5t38 -89.5q0 -21 -3 -39l-31 -176q-2 -14 -2 -21q0 -31 16 -47t45 -16l-12 -70q-33 0 -57 -21
t-32 -64l-31 -175q-14 -81 -59.5 -122t-127.5 -41h-26z" />
    <glyph glyph-name="asciitilde" unicode="~" horiz-adv-x="524" 
d="M299 245q-26 9 -62 27q-36 17 -56.5 24.5t-41.5 7.5q-25 0 -42 -16.5t-23 -38.5h-66q7 62 42.5 96.5t95.5 34.5q27 0 53 -9t62 -27q36 -17 56.5 -24.5t41.5 -7.5q25 0 42 16.5t22 38.5h67q-8 -62 -43 -96.5t-95 -34.5q-27 0 -53 9z" />
    <glyph glyph-name="uni00A0" unicode="&#xa0;" horiz-adv-x="224" 
 />
    <glyph glyph-name="exclamdown" unicode="&#xa1;" horiz-adv-x="221" 
d="M94.5 416.5q-18.5 18.5 -18.5 45.5t18.5 45.5t44.5 18.5q27 0 45.5 -18.5t18.5 -45.5t-18.5 -45.5t-45.5 -18.5q-26 0 -44.5 18.5zM22 27l58 277h65l-38 -277l-44 -243h-84z" />
    <glyph glyph-name="cent" unicode="&#xa2;" horiz-adv-x="520" 
d="M195 86q-77 13 -124.5 75.5t-47.5 148.5q0 77 34 141t94 103t135 45l15 85h70l-16 -87q62 -11 100.5 -48t53.5 -87l-80 -32q-23 75 -87 90l-63 -359q40 8 68 31t52 63l70 -33q-41 -66 -88.5 -99t-115.5 -39l-15 -84h-70zM272 523q-72 -11 -118 -69.5t-46 -137.5
q0 -57 27 -98.5t73 -55.5z" />
    <glyph glyph-name="sterling" unicode="&#xa3;" horiz-adv-x="513" 
d="M-18 73q55 26 91.5 71t36.5 96q0 6 -1 9h-96l12 71h69q-3 11 -11 33q-14 40 -21.5 68.5t-7.5 61.5q0 58 28.5 108t81.5 79.5t123 29.5q77 0 121 -39.5t61 -101.5l-83 -32q-23 92 -112 92q-58 0 -95.5 -39.5t-37.5 -97.5q0 -27 7 -53t22 -67q3 -7 7 -17.5t8 -24.5h140
l-12 -71h-119l1 -5q-2 -46 -26 -86.5t-64 -72.5l4 -4h183q37 0 59.5 15t39.5 44l64 -29q-27 -56 -69 -83.5t-108 -27.5h-309z" />
    <glyph glyph-name="currency" unicode="&#xa4;" horiz-adv-x="593" 
d="M59 143l60 58q-38 57 -38 124q0 69 38 124l-60 59l50 50l59 -57q56 43 128 43q73 0 129 -43l59 57l49 -50l-59 -58q38 -57 38 -125q0 -67 -38 -124l59 -58l-49 -50l-59 57q-57 -44 -129 -44q-71 0 -128 44l-59 -57zM365.5 199.5q31.5 19.5 50 53t18.5 72.5t-18.5 72.5
t-50 53t-69.5 19.5q-37 0 -68.5 -19.5t-50 -53t-18.5 -72.5t18.5 -72.5t50 -53t68.5 -19.5q38 0 69.5 19.5z" />
    <glyph glyph-name="yen" unicode="&#xa5;" horiz-adv-x="565" 
d="M208 169h-170l12 70h171l15 85h-171l13 70h125l-134 290h93l99 -232l25 -57h4l222 289h98l-233 -290h122l-12 -70h-167l-15 -85h167l-13 -70h-167l-29 -169h-85z" />
    <glyph glyph-name="brokenbar" unicode="&#xa6;" horiz-adv-x="218" 
d="M148 756h77l-67 -380h-77zM66 292h77l-73 -412h-77z" />
    <glyph glyph-name="section" unicode="&#xa7;" horiz-adv-x="528" 
d="M84.5 -209.5q-46.5 22.5 -76.5 65.5t-35 102l80 32q8 -63 43.5 -102t98.5 -39q60 0 101.5 32t41.5 88q0 47 -31.5 75t-99.5 50l-4 1q-75 24 -118 67.5t-43 102.5q0 50 34 92.5t85 65.5q-29 23 -46.5 55.5t-17.5 70.5q0 50 27 92t77 66.5t115 24.5q84 0 133 -42t63 -103
l-84 -32q-5 37 -35 66.5t-85 29.5q-48 0 -85.5 -25.5t-37.5 -66.5q0 -37 30 -63t93 -50l4 -1q80 -31 123.5 -75t43.5 -109q0 -54 -27.5 -94.5t-74.5 -67.5q48 -45 48 -119q0 -58 -30 -106.5t-84.5 -77t-125.5 -28.5q-54 0 -100.5 22.5zM368.5 186.5q22.5 27.5 22.5 60.5
q0 41 -33.5 73.5t-96.5 53.5l-19 6q-45 -13 -78 -42t-33 -67q0 -35 28 -58.5t83 -41.5q42 -15 71 -29q33 17 55.5 44.5z" />
    <glyph glyph-name="dieresis" unicode="&#xa8;" horiz-adv-x="392" 
d="M127.5 621.5q-16.5 16.5 -16.5 37.5q0 23 16 38.5t38 15.5q23 0 38.5 -15.5t15.5 -38.5q0 -22 -15.5 -38t-38.5 -16q-21 0 -37.5 16.5zM292 621.5q-16 16.5 -16 37.5q0 23 16 38.5t37 15.5q23 0 38.5 -15.5t15.5 -38.5q0 -22 -15.5 -38t-38.5 -16q-21 0 -37 16.5z" />
    <glyph glyph-name="copyright" unicode="&#xa9;" horiz-adv-x="530" 
d="M150 303q-53 31 -84 84t-31 115t31 115t84 84t115 31t115 -31t84 -84t31 -115t-31 -115t-84 -84t-115 -31t-115 31zM357.5 343q42.5 25 67.5 67.5t25 91.5q0 50 -25 92.5t-67.5 67t-92.5 24.5q-49 0 -91.5 -24.5t-67.5 -67t-25 -92.5q0 -49 25 -91.5t67.5 -67.5t91.5 -25
q50 0 92.5 25zM185 418q-34 35 -34 84q0 50 34 84.5t84 34.5q28 0 48 -10t39 -29l-31 -28q-11 13 -23.5 19t-32.5 6q-30 0 -52 -22.5t-22 -54.5t22 -54.5t52 -22.5q37 0 61 32l33 -26q-36 -48 -94 -48q-50 0 -84 35z" />
    <glyph glyph-name="ordfeminine" unicode="&#xaa;" horiz-adv-x="474" 
d="M90 308q-42 36 -42 96q0 49 29.5 86t77.5 56.5t102 19.5q70 0 128 -30l2 16q2 18 2 19q0 41 -28 65t-71 24q-40 0 -69.5 -13t-51.5 -42l-62 36q24 40 72 65.5t117 25.5q73 0 122 -41t49 -109q0 -18 -3 -36l-46 -260h-78l12 65h-4q-26 -35 -65 -57t-84 -22q-67 0 -109 36z
M318 379q46 37 56 93q-26 16 -52.5 24t-62.5 8q-50 0 -88.5 -23.5t-38.5 -69.5q0 -33 25.5 -51t57.5 -18q57 0 103 37z" />
    <glyph glyph-name="guillemotleft" unicode="&#xab;" horiz-adv-x="548" 
d="M177 54l-162 217l238 217l44 -49l-189 -173l124 -167zM377 54l-162 217l238 217l44 -49l-189 -173l124 -167z" />
    <glyph glyph-name="logicalnot" unicode="&#xac;" horiz-adv-x="555" 
d="M397 312h-363l12 70h430l-49 -277h-67z" />
    <glyph glyph-name="uni00AD" unicode="&#xad;" horiz-adv-x="427" 
d="M369 345l-12 -70h-318l12 70h318z" />
    <glyph glyph-name="registered" unicode="&#xae;" horiz-adv-x="530" 
d="M150 303q-53 31 -84 84t-31 115t31 115t84 84t115 31t115 -31t84 -84t31 -115t-31 -115t-84 -84t-115 -31t-115 31zM357.5 343q42.5 25 67.5 67.5t25 91.5q0 50 -25 92.5t-67.5 67t-92.5 24.5q-49 0 -91.5 -24.5t-67.5 -67t-25 -92.5q0 -49 25 -91.5t67.5 -67.5t91.5 -25
q50 0 92.5 25zM189 615h95q29 0 51 -21t22 -51q0 -23 -14.5 -41t-35.5 -24l-2 -2l60 -85v-2h-50l-56 85h-26v-85h-44v226zM280 514q13 0 23 8t10 21q0 12 -9 21t-23 9h-48v-59h47z" />
    <glyph glyph-name="macron" unicode="&#xaf;" horiz-adv-x="399" 
d="M120 692h276l-12 -66h-276z" />
    <glyph glyph-name="degree" unicode="&#xb0;" horiz-adv-x="323" 
d="M101 474.5q-35 32.5 -35 81.5q0 63 41.5 103.5t104.5 40.5q49 0 83.5 -32.5t34.5 -81.5q0 -63 -41 -103.5t-105 -40.5q-48 0 -83 32.5zM243.5 523.5q22.5 22.5 22.5 55.5q0 27 -16.5 44.5t-42.5 17.5q-31 0 -54 -22.5t-23 -55.5q0 -27 17 -44.5t43 -17.5q31 0 53.5 22.5z
" />
    <glyph glyph-name="plusminus" unicode="&#xb1;" horiz-adv-x="544" 
d="M227 299h-183l13 70h182l28 157h70l-28 -157h182l-12 -70h-182l-28 -157h-70zM4 70h435l-13 -70h-434z" />
    <glyph glyph-name="uni00B2" unicode="&#xb2;" horiz-adv-x="302" 
d="M30 406l158 136q55 43 55 78q0 21 -14 33t-36 12q-49 0 -71 -61l-56 25q13 45 49.5 70t83.5 25q49 0 80.5 -27.5t31.5 -69.5q0 -37 -18.5 -63t-57.5 -59l-114 -96h156l-12 -59h-246z" />
    <glyph glyph-name="uni00B3" unicode="&#xb3;" horiz-adv-x="321" 
d="M78.5 367.5q-34.5 25.5 -43.5 73.5l60 22q16 -62 69 -62q30 0 50.5 17.5t20.5 43.5q0 25 -16.5 37.5t-46.5 12.5h-32l10 56h36q27 0 46.5 15.5t19.5 39.5q0 20 -14 31t-34 11q-43 0 -68 -45l-54 23q14 37 49 59t81 22q47 0 77 -26t30 -65q0 -29 -20 -55t-47 -36
q23 -11 36.5 -31t13.5 -47q0 -52 -41 -87t-103 -35q-45 0 -79.5 25.5z" />
    <glyph glyph-name="acute" unicode="&#xb4;" horiz-adv-x="397" 
d="M266 716h95l-93 -127h-77z" />
    <glyph glyph-name="mu" unicode="&#xb5;" horiz-adv-x="561" 
d="M85 510h85l-56 -315q-4 -21 -4 -41q0 -45 29 -69t78 -24q62 0 110 45.5t61 115.5l51 288h85l-90 -510h-80l13 74h-4q-27 -41 -72.5 -65.5t-104.5 -24.5q-30 0 -58 12.5t-42 32.5h-4l-7 -60l-34 -185h-83z" />
    <glyph glyph-name="paragraph" unicode="&#xb6;" horiz-adv-x="614" 
d="M292 296h-44q-61 0 -112.5 25.5t-82 73.5t-30.5 111t30.5 111t82 73.5t112.5 25.5h288v-932h-78v851h-89v-851h-77v512z" />
    <glyph glyph-name="periodcentered" unicode="&#xb7;" horiz-adv-x="166" 
d="M39.5 278.5q-18.5 18.5 -18.5 45.5t18.5 45.5t44.5 18.5q27 0 45.5 -18.5t18.5 -45.5t-18.5 -45.5t-45.5 -18.5q-26 0 -44.5 18.5z" />
    <glyph glyph-name="cedilla" unicode="&#xb8;" horiz-adv-x="403" 
d="M26.5 -217.5q-25.5 19.5 -31.5 47.5l53 22q2 -15 13.5 -25.5t27.5 -10.5q21 0 35.5 13.5t14.5 36.5q0 16 -11 27t-28 11q-19 0 -36 -17l-41 20l51 93h53l-29 -49q15 3 22 3q34 0 55 -24.5t21 -63.5q0 -45 -30.5 -74t-80.5 -29q-33 0 -58.5 19.5z" />
    <glyph glyph-name="uni00B9" unicode="&#xb9;" horiz-adv-x="239" 
d="M158 629l-55 -41l-31 49l111 79h56l-65 -366h-65z" />
    <glyph glyph-name="ordmasculine" unicode="&#xba;" horiz-adv-x="515" 
d="M148.5 297q-43.5 25 -68 70t-24.5 102q0 66 32.5 127t91.5 98.5t134 37.5q87 0 139.5 -53.5t52.5 -142.5q0 -70 -34.5 -131t-94 -97t-129.5 -36q-56 0 -99.5 25zM338.5 369.5q38.5 23.5 61.5 66t23 95.5q0 56 -35 91.5t-84 35.5q-46 0 -84 -25t-60 -67.5t-22 -91.5
q0 -57 33.5 -92.5t83.5 -35.5q45 0 83.5 23.5z" />
    <glyph glyph-name="guillemotright" unicode="&#xbb;" horiz-adv-x="548" 
d="M131 488l161 -217l-238 -217l-43 49l188 173l-124 167zM331 488l161 -217l-238 -217l-43 49l188 173l-124 167z" />
    <glyph glyph-name="onequarter" unicode="&#xbc;" horiz-adv-x="704" 
d="M183 629l-55 -41l-31 49l111 79h56l-65 -366h-65zM643 723l49 -40l-588 -691l-52 41zM505 74h-171l7 44l220 248h61l-42 -236h49l-10 -56h-49l-13 -74h-65zM515 130l23 132h-3l-118 -132h98z" />
    <glyph glyph-name="onehalf" unicode="&#xbd;" horiz-adv-x="774" 
d="M183 629l-55 -41l-31 49l111 79h56l-65 -366h-65zM642 723l49 -40l-588 -691l-52 41zM445 56l159 136q55 43 55 78q0 21 -14.5 33t-36.5 12q-48 0 -71 -61l-55 25q13 45 49.5 70t83.5 25q49 0 80 -27.5t31 -69.5q0 -37 -18.5 -63.5t-57.5 -58.5l-113 -96h155l-11 -59
h-246z" />
    <glyph glyph-name="threequarters" unicode="&#xbe;" horiz-adv-x="824" 
d="M122.5 367.5q-34.5 25.5 -43.5 73.5l60 22q16 -62 69 -62q30 0 50.5 17.5t20.5 43.5q0 25 -16.5 37.5t-46.5 12.5h-32l10 56h36q27 0 46.5 15.5t19.5 39.5q0 20 -14 31t-34 11q-43 0 -68 -45l-54 23q14 37 49 59t81 22q47 0 77 -26t30 -65q0 -29 -20 -55t-47 -36
q23 -11 36.5 -31t13.5 -47q0 -52 -41 -87t-103 -35q-45 0 -79.5 25.5zM729 723l49 -40l-588 -691l-52 41zM618 74h-171l7 44l220 248h61l-42 -236h49l-10 -56h-49l-13 -74h-65zM628 130l23 132h-3l-118 -132h98z" />
    <glyph glyph-name="questiondown" unicode="&#xbf;" horiz-adv-x="477" 
d="M234.5 416.5q-18.5 18.5 -18.5 45.5t18.5 45.5t45.5 18.5t45.5 -18.5t18.5 -45.5t-18.5 -45.5t-45.5 -18.5t-45.5 18.5zM72 -210q-42 22 -65.5 59t-23.5 82q0 59 33.5 103t97.5 93q38 30 57.5 57t26.5 63l11 57h86l-11 -63q-9 -51 -32.5 -84t-83.5 -78q-46 -34 -72 -66
t-26 -70q0 -42 29.5 -68t78.5 -26q50 0 84.5 28t48.5 71l73 -33q-23 -65 -78.5 -106t-139.5 -41q-52 0 -94 22z" />
    <glyph glyph-name="Agrave" unicode="&#xc0;" horiz-adv-x="669" 
d="M347 716h96l145 -716h-90l-36 197h-309l-108 -197h-95zM446 277l-50 258l-14 77h-4l-183 -335h251zM314 900h91l29 -127h-72z" />
    <glyph glyph-name="Aacute" unicode="&#xc1;" horiz-adv-x="669" 
d="M347 716h96l145 -716h-90l-36 197h-309l-108 -197h-95zM446 277l-50 258l-14 77h-4l-183 -335h251zM439 900h95l-93 -127h-77z" />
    <glyph glyph-name="Acircumflex" unicode="&#xc2;" horiz-adv-x="669" 
d="M347 716h96l145 -716h-90l-36 197h-309l-108 -197h-95zM446 277l-50 258l-14 77h-4l-183 -335h251zM260 784l123 116h75l81 -116l-1 -5h-76l-44 63h-8l-63 -63h-88z" />
    <glyph glyph-name="Atilde" unicode="&#xc3;" horiz-adv-x="669" 
d="M347 716h96l145 -716h-90l-36 197h-309l-108 -197h-95zM446 277l-50 258l-14 77h-4l-183 -335h251zM446 786q-15 6 -34 18q-18 11 -31.5 17t-29.5 6q-33 0 -42 -37h-70q8 56 38 85t74 29q17 0 32.5 -6t34.5 -18q18 -11 31.5 -17t28.5 -6q33 0 42 37h70q-7 -56 -37.5 -85
t-74.5 -29q-17 0 -32 6z" />
    <glyph glyph-name="Adieresis" unicode="&#xc4;" horiz-adv-x="669" 
d="M347 716h96l145 -716h-90l-36 197h-309l-108 -197h-95zM446 277l-50 258l-14 77h-4l-183 -335h251zM294.5 805.5q-16.5 16.5 -16.5 37.5q0 23 16 38.5t38 15.5q23 0 38.5 -15.5t15.5 -38.5q0 -22 -15.5 -38t-38.5 -16q-21 0 -37.5 16.5zM459 805.5q-16 16.5 -16 37.5
q0 23 16 38.5t37 15.5q23 0 38.5 -15.5t15.5 -38.5q0 -22 -15.5 -38t-38.5 -16q-21 0 -37 16.5z" />
    <glyph glyph-name="Aring" unicode="&#xc5;" horiz-adv-x="669" 
d="M327 680q-15 15 -24 34.5t-9 41.5q0 43 30 73t73 30t73.5 -30t30.5 -73q0 -26 -13 -49.5t-35 -37.5l135 -669h-90l-36 197h-309l-108 -197h-95zM428 725q13 13 13 31t-13 31t-31 13t-30.5 -13t-12.5 -31t12.5 -31t30.5 -13t31 13zM446 277l-50 258l-14 75h-5l-182 -333
h251z" />
    <glyph glyph-name="AE" unicode="&#xc6;" horiz-adv-x="959" 
d="M495 716h469l-14 -81h-330l-42 -237h298l-14 -80h-298l-42 -237h330l-15 -81h-414l35 197h-262l-152 -197h-102zM472 277l63 358h-4l-38 -50l-237 -308h216z" />
    <glyph glyph-name="Ccedilla" unicode="&#xc7;" horiz-adv-x="740" 
d="M331 -49q15 3 22 3q34 0 55 -24.5t21 -63.5q0 -45 -30.5 -74t-80.5 -29q-33 0 -58.5 19.5t-31.5 47.5l53 22q2 -15 13.5 -25.5t27.5 -10.5q21 0 35.5 13.5t14.5 36.5q0 16 -11 27t-28 11q-19 0 -36 -17l-41 20l44 80q-78 11 -137.5 53.5t-92.5 110.5t-33 155
q0 110 56.5 208.5t155.5 158t220 59.5q81 0 146 -33.5t99 -86.5l-68 -56q-33 49 -78 72t-108 23q-92 0 -169.5 -48t-122.5 -126.5t-45 -166.5q0 -73 31 -128.5t85.5 -86t121.5 -30.5q73 0 129 27t111 81l54 -61q-67 -66 -138.5 -97t-165.5 -31z" />
    <glyph glyph-name="Egrave" unicode="&#xc8;" horiz-adv-x="550" 
d="M141 716h414l-14 -81h-330l-42 -237h298l-14 -80h-298l-42 -237h330l-15 -81h-414zM275 900h91l29 -127h-72z" />
    <glyph glyph-name="Eacute" unicode="&#xc9;" horiz-adv-x="550" 
d="M141 716h414l-14 -81h-330l-42 -237h298l-14 -80h-298l-42 -237h330l-15 -81h-414zM400 900h95l-93 -127h-77z" />
    <glyph glyph-name="Ecircumflex" unicode="&#xca;" horiz-adv-x="550" 
d="M141 716h414l-14 -81h-330l-42 -237h298l-14 -80h-298l-42 -237h330l-15 -81h-414zM221 784l123 116h75l81 -116l-1 -5h-76l-44 63h-8l-63 -63h-88z" />
    <glyph glyph-name="Edieresis" unicode="&#xcb;" horiz-adv-x="550" 
d="M141 716h414l-14 -81h-330l-42 -237h298l-14 -80h-298l-42 -237h330l-15 -81h-414zM255.5 805.5q-16.5 16.5 -16.5 37.5q0 23 16 38.5t38 15.5q23 0 38.5 -15.5t15.5 -38.5q0 -22 -15.5 -38t-38.5 -16q-21 0 -37.5 16.5zM420 805.5q-16 16.5 -16 37.5q0 23 16 38.5
t37 15.5q23 0 38.5 -15.5t15.5 -38.5q0 -22 -15.5 -38t-38.5 -16q-21 0 -37 16.5z" />
    <glyph glyph-name="Igrave" unicode="&#xcc;" horiz-adv-x="244" 
d="M141 716h84l-127 -716h-84zM105 900h91l29 -127h-72z" />
    <glyph glyph-name="Iacute" unicode="&#xcd;" horiz-adv-x="244" 
d="M141 716h84l-127 -716h-84zM230 900h95l-93 -127h-77z" />
    <glyph glyph-name="Icircumflex" unicode="&#xce;" horiz-adv-x="244" 
d="M141 716h84l-127 -716h-84zM51 784l123 116h75l81 -116l-1 -5h-76l-44 63h-8l-63 -63h-88z" />
    <glyph glyph-name="Idieresis" unicode="&#xcf;" horiz-adv-x="245" 
d="M97 806q-16 16 -16 38q0 23 16 38.5t38 15.5q23 0 38 -15.5t15 -38.5q0 -22 -15 -38t-38 -16q-22 0 -38 16zM230 806q-16 16 -16 38q0 23 16 38.5t37 15.5q23 0 38.5 -15.5t15.5 -38.5q0 -22 -15.5 -38t-38.5 -16q-21 0 -37 16zM141 716h84l-127 -716h-84z" />
    <glyph glyph-name="Eth" unicode="&#xd0;" horiz-adv-x="752" 
d="M124 322h-75l12 70h76l58 324h216q97 0 166 -40t104.5 -109.5t35.5 -158.5q0 -109 -51 -202.5t-147 -149.5t-226 -56h-225zM298 81q94 0 170 42.5t119 116t43 162.5q0 113 -61.5 173t-172.5 60h-132l-42 -243h203l-12 -70h-204l-42 -241h131z" />
    <glyph glyph-name="Ntilde" unicode="&#xd1;" horiz-adv-x="707" 
d="M141 716h97l265 -570h4l21 138l76 432h85l-127 -716h-81l-277 597h-4l-20 -138l-82 -459h-84zM458 786q-15 6 -34 18q-18 11 -31.5 17t-29.5 6q-33 0 -42 -37h-70q8 56 38 85t74 29q17 0 32.5 -6t34.5 -18q18 -11 31.5 -17t28.5 -6q33 0 42 37h70q-7 -56 -37.5 -85
t-74.5 -29q-17 0 -32 6z" />
    <glyph glyph-name="Ograve" unicode="&#xd2;" horiz-adv-x="825" 
d="M197.5 25.5q-74.5 41.5 -117.5 115.5t-43 168q0 110 54 207.5t150.5 156.5t218.5 59q90 0 164 -41.5t117 -115.5t43 -168q0 -110 -53.5 -207.5t-150 -156.5t-217.5 -59q-91 0 -165.5 41.5zM535 112.5q75 47.5 118.5 125t43.5 162.5q0 76 -32.5 133t-89 87.5t-125.5 30.5
q-89 0 -163.5 -47.5t-118 -125t-43.5 -162.5q0 -76 32.5 -133t88.5 -87.5t125 -30.5q89 0 164 47.5zM381 900h91l29 -127h-72z" />
    <glyph glyph-name="Oacute" unicode="&#xd3;" horiz-adv-x="825" 
d="M197.5 25.5q-74.5 41.5 -117.5 115.5t-43 168q0 110 54 207.5t150.5 156.5t218.5 59q90 0 164 -41.5t117 -115.5t43 -168q0 -110 -53.5 -207.5t-150 -156.5t-217.5 -59q-91 0 -165.5 41.5zM535 112.5q75 47.5 118.5 125t43.5 162.5q0 76 -32.5 133t-89 87.5t-125.5 30.5
q-89 0 -163.5 -47.5t-118 -125t-43.5 -162.5q0 -76 32.5 -133t88.5 -87.5t125 -30.5q89 0 164 47.5zM506 900h95l-93 -127h-77z" />
    <glyph glyph-name="Ocircumflex" unicode="&#xd4;" horiz-adv-x="825" 
d="M197.5 25.5q-74.5 41.5 -117.5 115.5t-43 168q0 110 54 207.5t150.5 156.5t218.5 59q90 0 164 -41.5t117 -115.5t43 -168q0 -110 -53.5 -207.5t-150 -156.5t-217.5 -59q-91 0 -165.5 41.5zM535 112.5q75 47.5 118.5 125t43.5 162.5q0 76 -32.5 133t-89 87.5t-125.5 30.5
q-89 0 -163.5 -47.5t-118 -125t-43.5 -162.5q0 -76 32.5 -133t88.5 -87.5t125 -30.5q89 0 164 47.5zM327 784l123 116h75l81 -116l-1 -5h-76l-44 63h-8l-63 -63h-88z" />
    <glyph glyph-name="Otilde" unicode="&#xd5;" horiz-adv-x="825" 
d="M197.5 25.5q-74.5 41.5 -117.5 115.5t-43 168q0 110 54 207.5t150.5 156.5t218.5 59q90 0 164 -41.5t117 -115.5t43 -168q0 -110 -53.5 -207.5t-150 -156.5t-217.5 -59q-91 0 -165.5 41.5zM535 112.5q75 47.5 118.5 125t43.5 162.5q0 76 -32.5 133t-89 87.5t-125.5 30.5
q-89 0 -163.5 -47.5t-118 -125t-43.5 -162.5q0 -76 32.5 -133t88.5 -87.5t125 -30.5q89 0 164 47.5zM513 786q-15 6 -34 18q-18 11 -31.5 17t-29.5 6q-33 0 -42 -37h-70q8 56 38 85t74 29q17 0 32.5 -6t34.5 -18q18 -11 31.5 -17t28.5 -6q33 0 42 37h70q-7 -56 -37.5 -85
t-74.5 -29q-17 0 -32 6z" />
    <glyph glyph-name="Odieresis" unicode="&#xd6;" horiz-adv-x="825" 
d="M197.5 25.5q-74.5 41.5 -117.5 115.5t-43 168q0 110 54 207.5t150.5 156.5t218.5 59q90 0 164 -41.5t117 -115.5t43 -168q0 -110 -53.5 -207.5t-150 -156.5t-217.5 -59q-91 0 -165.5 41.5zM535 112.5q75 47.5 118.5 125t43.5 162.5q0 76 -32.5 133t-89 87.5t-125.5 30.5
q-89 0 -163.5 -47.5t-118 -125t-43.5 -162.5q0 -76 32.5 -133t88.5 -87.5t125 -30.5q89 0 164 47.5zM361.5 805.5q-16.5 16.5 -16.5 37.5q0 23 16 38.5t38 15.5q23 0 38.5 -15.5t15.5 -38.5q0 -22 -15.5 -38t-38.5 -16q-21 0 -37.5 16.5zM526 805.5q-16 16.5 -16 37.5
q0 23 16 38.5t37 15.5q23 0 38.5 -15.5t15.5 -38.5q0 -22 -15.5 -38t-38.5 -16q-21 0 -37 16.5z" />
    <glyph glyph-name="multiply" unicode="&#xd7;" horiz-adv-x="531" 
d="M14 119l187 155l-130 153l53 45l131 -154l187 156l43 -52l-186 -155l130 -152l-53 -45l-131 153l-188 -156z" />
    <glyph glyph-name="Oslash" unicode="&#xd8;" horiz-adv-x="825" 
d="M81 5l53 66q-46 45 -71.5 105.5t-25.5 132.5q0 110 54 207.5t150.5 156.5t218.5 59q91 0 168 -44l54 68l58 -45l-54 -66q47 -44 72.5 -105t25.5 -133q0 -110 -53.5 -207.5t-150 -156.5t-217.5 -59q-93 0 -170 44l-53 -67zM574 620q-57 31 -124 31q-89 0 -163.5 -47.5
t-118 -125t-43.5 -162.5q0 -110 64 -177zM535 112.5q75 47.5 118.5 125t43.5 162.5q0 107 -65 177l-385 -482q58 -30 124 -30q89 0 164 47.5z" />
    <glyph glyph-name="Ugrave" unicode="&#xd9;" horiz-adv-x="661" 
d="M156 10.5q-50 26.5 -79.5 75t-29.5 113.5q0 44 8 94l75 423h84l-78 -443q-6 -35 -6 -61q0 -68 38 -107.5t112 -39.5q85 0 140.5 54.5t71.5 141.5l80 455h84l-82 -466q-23 -126 -102 -196t-206 -70q-60 0 -110 26.5zM308 900h91l29 -127h-72z" />
    <glyph glyph-name="Uacute" unicode="&#xda;" horiz-adv-x="661" 
d="M156 10.5q-50 26.5 -79.5 75t-29.5 113.5q0 44 8 94l75 423h84l-78 -443q-6 -35 -6 -61q0 -68 38 -107.5t112 -39.5q85 0 140.5 54.5t71.5 141.5l80 455h84l-82 -466q-23 -126 -102 -196t-206 -70q-60 0 -110 26.5zM433 900h95l-93 -127h-77z" />
    <glyph glyph-name="Ucircumflex" unicode="&#xdb;" horiz-adv-x="661" 
d="M156 10.5q-50 26.5 -79.5 75t-29.5 113.5q0 44 8 94l75 423h84l-78 -443q-6 -35 -6 -61q0 -68 38 -107.5t112 -39.5q85 0 140.5 54.5t71.5 141.5l80 455h84l-82 -466q-23 -126 -102 -196t-206 -70q-60 0 -110 26.5zM254 784l123 116h75l81 -116l-1 -5h-76l-44 63h-8
l-63 -63h-88z" />
    <glyph glyph-name="Udieresis" unicode="&#xdc;" horiz-adv-x="661" 
d="M156 10.5q-50 26.5 -79.5 75t-29.5 113.5q0 44 8 94l75 423h84l-78 -443q-6 -35 -6 -61q0 -68 38 -107.5t112 -39.5q85 0 140.5 54.5t71.5 141.5l80 455h84l-82 -466q-23 -126 -102 -196t-206 -70q-60 0 -110 26.5zM288.5 805.5q-16.5 16.5 -16.5 37.5q0 23 16 38.5
t38 15.5q23 0 38.5 -15.5t15.5 -38.5q0 -22 -15.5 -38t-38.5 -16q-21 0 -37.5 16.5zM453 805.5q-16 16.5 -16 37.5q0 23 16 38.5t37 15.5q23 0 38.5 -15.5t15.5 -38.5q0 -22 -15.5 -38t-38.5 -16q-21 0 -37 16.5z" />
    <glyph glyph-name="Yacute" unicode="&#xdd;" horiz-adv-x="595" 
d="M250 331l-174 385h97l130 -300h4l233 300h102l-307 -385l-59 -331h-84zM393 900h95l-93 -127h-77z" />
    <glyph glyph-name="Thorn" unicode="&#xde;" horiz-adv-x="561" 
d="M135 716h85l-22 -123h151q56 0 100.5 -23.5t69.5 -65.5t25 -96q0 -73 -34 -127.5t-94 -83t-136 -28.5h-157l-30 -169h-85zM296 250q70 0 115 37.5t45 109.5q0 52 -32.5 83.5t-81.5 31.5h-158l-46 -262h158z" />
    <glyph glyph-name="germandbls" unicode="&#xdf;" horiz-adv-x="558" 
d="M474 324.5q26 -40.5 26 -95.5q0 -69 -34.5 -123t-93.5 -84t-132 -30q-39 0 -63 5l14 80q27 -4 56 -4q71 0 118 40t47 108q0 55 -33.5 89t-99.5 34h-33l14 78h27q39 0 74 15.5t56.5 45t21.5 69.5q0 45 -31.5 72t-80.5 27q-55 0 -93.5 -36.5t-49.5 -98.5l-90 -516h-87
l91 516q17 99 77 157.5t161 58.5q57 0 100 -23t66.5 -62.5t23.5 -87.5q0 -61 -33 -105t-87 -65v-4q42 -20 68 -60.5z" />
    <glyph glyph-name="agrave" unicode="&#xe0;" horiz-adv-x="528" 
d="M107.5 4.5q-38.5 20.5 -61 56t-22.5 79.5q0 85 62.5 135.5t171.5 50.5q40 0 78.5 -9.5t68.5 -25.5l6 30q3 17 3 29q0 45 -35.5 72.5t-89.5 27.5q-83 0 -137 -68l-66 47q36 46 91 71.5t121 25.5q92 0 144.5 -44.5t52.5 -119.5q0 -21 -5 -51l-56 -311h-81l13 72h-4
q-27 -40 -71 -64t-100 -24q-45 0 -83.5 20.5zM330 104.5q51 45.5 63 116.5q-31 18 -62 27t-78 9q-63 0 -102.5 -29.5t-39.5 -81.5q0 -40 28.5 -63.5t70.5 -23.5q69 0 120 45.5zM235 736h91l29 -127h-72z" />
    <glyph glyph-name="aacute" unicode="&#xe1;" horiz-adv-x="528" 
d="M107.5 4.5q-38.5 20.5 -61 56t-22.5 79.5q0 85 62.5 135.5t171.5 50.5q40 0 78.5 -9.5t68.5 -25.5l6 30q3 17 3 29q0 45 -35.5 72.5t-89.5 27.5q-83 0 -137 -68l-66 47q36 46 91 71.5t121 25.5q92 0 144.5 -44.5t52.5 -119.5q0 -21 -5 -51l-56 -311h-81l13 72h-4
q-27 -40 -71 -64t-100 -24q-45 0 -83.5 20.5zM330 104.5q51 45.5 63 116.5q-31 18 -62 27t-78 9q-63 0 -102.5 -29.5t-39.5 -81.5q0 -40 28.5 -63.5t70.5 -23.5q69 0 120 45.5zM352 736h95l-93 -127h-76z" />
    <glyph glyph-name="acircumflex" unicode="&#xe2;" horiz-adv-x="528" 
d="M107.5 4.5q-38.5 20.5 -61 56t-22.5 79.5q0 85 62.5 135.5t171.5 50.5q40 0 78.5 -9.5t68.5 -25.5l6 30q3 17 3 29q0 45 -35.5 72.5t-89.5 27.5q-83 0 -137 -68l-66 47q36 46 91 71.5t121 25.5q92 0 144.5 -44.5t52.5 -119.5q0 -21 -5 -51l-56 -311h-81l13 72h-4
q-27 -40 -71 -64t-100 -24q-45 0 -83.5 20.5zM330 104.5q51 45.5 63 116.5q-31 18 -62 27t-78 9q-63 0 -102.5 -29.5t-39.5 -81.5q0 -40 28.5 -63.5t70.5 -23.5q69 0 120 45.5zM175 619l123 117h74l82 -117l-1 -5h-77l-43 64h-9l-62 -64h-88z" />
    <glyph glyph-name="atilde" unicode="&#xe3;" horiz-adv-x="528" 
d="M107.5 4.5q-38.5 20.5 -61 56t-22.5 79.5q0 85 62.5 135.5t171.5 50.5q40 0 78.5 -9.5t68.5 -25.5l6 30q3 17 3 29q0 45 -35.5 72.5t-89.5 27.5q-83 0 -137 -68l-66 47q36 46 91 71.5t121 25.5q92 0 144.5 -44.5t52.5 -119.5q0 -21 -5 -51l-56 -311h-81l13 72h-4
q-27 -40 -71 -64t-100 -24q-45 0 -83.5 20.5zM330 104.5q51 45.5 63 116.5q-31 18 -62 27t-78 9q-63 0 -102.5 -29.5t-39.5 -81.5q0 -40 28.5 -63.5t70.5 -23.5q69 0 120 45.5zM360 622q-15 6 -34 18q-18 11 -31.5 17t-29.5 6q-33 0 -42 -37h-70q7 56 37 84.5t74 28.5
q17 0 31 -6t36 -18q18 -11 31.5 -17t29.5 -6q32 0 41 37h71q-8 -56 -38 -84.5t-74 -28.5q-17 0 -32 6z" />
    <glyph glyph-name="adieresis" unicode="&#xe4;" horiz-adv-x="528" 
d="M107.5 4.5q-38.5 20.5 -61 56t-22.5 79.5q0 85 62.5 135.5t171.5 50.5q40 0 78.5 -9.5t68.5 -25.5l6 30q3 17 3 29q0 45 -35.5 72.5t-89.5 27.5q-83 0 -137 -68l-66 47q36 46 91 71.5t121 25.5q92 0 144.5 -44.5t52.5 -119.5q0 -21 -5 -51l-56 -311h-81l13 72h-4
q-27 -40 -71 -64t-100 -24q-45 0 -83.5 20.5zM330 104.5q51 45.5 63 116.5q-31 18 -62 27t-78 9q-63 0 -102.5 -29.5t-39.5 -81.5q0 -40 28.5 -63.5t70.5 -23.5q69 0 120 45.5zM209 641q-16 16 -16 38q0 23 15.5 38t37.5 15q24 0 39 -15t15 -38q0 -22 -15.5 -38t-38.5 -16
q-21 0 -37 16zM373 641q-16 16 -16 38q0 23 16 38t38 15q23 0 38 -15t15 -38q0 -22 -15 -38t-38 -16q-22 0 -38 16z" />
    <glyph glyph-name="aring" unicode="&#xe5;" horiz-adv-x="528" 
d="M107.5 4.5q-38.5 20.5 -61 56t-22.5 79.5q0 85 62.5 135.5t171.5 50.5q40 0 78.5 -9.5t68.5 -25.5l6 30q3 17 3 29q0 45 -35.5 72.5t-89.5 27.5q-83 0 -137 -68l-66 47q36 46 91 71.5t121 25.5q92 0 144.5 -44.5t52.5 -119.5q0 -21 -5 -51l-56 -311h-81l13 72h-4
q-27 -40 -71 -64t-100 -24q-45 0 -83.5 20.5zM330 104.5q51 45.5 63 116.5q-31 18 -62 27t-78 9q-63 0 -102.5 -29.5t-39.5 -81.5q0 -40 28.5 -63.5t70.5 -23.5q69 0 120 45.5zM257.5 618.5q-30.5 30.5 -30.5 73.5t30.5 73t73.5 30t73 -30t30 -73t-30 -73.5t-73 -30.5
t-73.5 30.5zM364 658q14 14 14 34q0 19 -14 33t-33 14q-20 0 -33.5 -13.5t-13.5 -33.5t13.5 -34t33.5 -14q19 0 33 14z" />
    <glyph glyph-name="ae" unicode="&#xe6;" horiz-adv-x="944" 
d="M107.5 4.5q-38.5 20.5 -61 56t-22.5 79.5q0 91 67 138.5t174 47.5q45 0 82.5 -10t58.5 -23l6 31q3 21 3 23q0 47 -33.5 75t-88.5 28q-43 0 -79 -17.5t-57 -50.5l-70 41q31 49 85.5 76t126.5 27q64 0 111 -26.5t67 -69.5q36 46 89 71t116 25q66 0 114 -29t73 -78t25 -108
q0 -42 -9 -72h-403q-2 -18 -2 -32q0 -44 20.5 -77.5t53.5 -51t71 -17.5q60 0 100.5 24t69.5 71l65 -37q-38 -66 -99 -100.5t-141 -34.5q-71 0 -123.5 37t-74.5 92q-40 -64 -100 -96.5t-131 -32.5q-45 0 -83.5 20.5zM809 309v14q0 32 -15.5 61t-46.5 47t-75 18
q-63 0 -110.5 -39.5t-66.5 -100.5h314zM330 104.5q51 45.5 63 116.5q-64 36 -140 36q-63 0 -102.5 -29.5t-39.5 -81.5q0 -40 28.5 -63.5t70.5 -23.5q69 0 120 45.5z" />
    <glyph glyph-name="ccedilla" unicode="&#xe7;" horiz-adv-x="544" 
d="M339.5 86.5q41.5 25.5 65.5 71.5l68 -33q-40 -72 -97.5 -106.5t-140.5 -34.5h-5l-20 -33q15 3 22 3q34 0 55 -24.5t21 -63.5q0 -45 -30.5 -74t-80.5 -29q-33 0 -58.5 19.5t-31.5 47.5l53 22q2 -15 13.5 -25.5t27.5 -10.5q21 0 35.5 13.5t14.5 36.5q0 16 -11 27t-28 11
q-19 0 -36 -17l-41 20l46 83q-76 18 -122 82.5t-46 146.5q0 85 38 155t105.5 111t153.5 41q82 0 134 -41t69 -100l-79 -31q-14 45 -48.5 70t-85.5 25q-55 0 -101 -29t-73 -80t-27 -115q0 -70 40.5 -117t106.5 -47q52 0 93.5 25.5z" />
    <glyph glyph-name="egrave" unicode="&#xe8;" horiz-adv-x="564" 
d="M120 15.5q-52 31.5 -79.5 85t-27.5 117.5q0 80 36 151t102 114t151 43q66 0 114 -29t73 -78t25 -108q0 -43 -9 -72h-404q-2 -20 -2 -32q0 -44 20.5 -77.5t54.5 -51t72 -17.5q59 0 100 24.5t69 70.5l65 -37q-38 -66 -99 -100.5t-140 -34.5q-69 0 -121 31.5zM429 309v14
q0 33 -16 62t-47 46.5t-74 17.5q-64 0 -111.5 -40t-65.5 -100h314zM235 736h91l29 -127h-72z" />
    <glyph glyph-name="eacute" unicode="&#xe9;" horiz-adv-x="564" 
d="M120 15.5q-52 31.5 -79.5 85t-27.5 117.5q0 80 36 151t102 114t151 43q66 0 114 -29t73 -78t25 -108q0 -43 -9 -72h-404q-2 -20 -2 -32q0 -44 20.5 -77.5t54.5 -51t72 -17.5q59 0 100 24.5t69 70.5l65 -37q-38 -66 -99 -100.5t-140 -34.5q-69 0 -121 31.5zM429 309v14
q0 33 -16 62t-47 46.5t-74 17.5q-64 0 -111.5 -40t-65.5 -100h314zM352 736h95l-93 -127h-76z" />
    <glyph glyph-name="ecircumflex" unicode="&#xea;" horiz-adv-x="564" 
d="M120 15.5q-52 31.5 -79.5 85t-27.5 117.5q0 80 36 151t102 114t151 43q66 0 114 -29t73 -78t25 -108q0 -43 -9 -72h-404q-2 -20 -2 -32q0 -44 20.5 -77.5t54.5 -51t72 -17.5q59 0 100 24.5t69 70.5l65 -37q-38 -66 -99 -100.5t-140 -34.5q-69 0 -121 31.5zM429 309v14
q0 33 -16 62t-47 46.5t-74 17.5q-64 0 -111.5 -40t-65.5 -100h314zM175 619l123 117h74l82 -117l-1 -5h-77l-43 64h-9l-62 -64h-88z" />
    <glyph glyph-name="edieresis" unicode="&#xeb;" horiz-adv-x="564" 
d="M120 15.5q-52 31.5 -79.5 85t-27.5 117.5q0 80 36 151t102 114t151 43q66 0 114 -29t73 -78t25 -108q0 -43 -9 -72h-404q-2 -20 -2 -32q0 -44 20.5 -77.5t54.5 -51t72 -17.5q59 0 100 24.5t69 70.5l65 -37q-38 -66 -99 -100.5t-140 -34.5q-69 0 -121 31.5zM429 309v14
q0 33 -16 62t-47 46.5t-74 17.5q-64 0 -111.5 -40t-65.5 -100h314zM209 641q-16 16 -16 38q0 23 15.5 38t37.5 15q24 0 39 -15t15 -38q0 -22 -15.5 -38t-38.5 -16q-21 0 -37 16zM373 641q-16 16 -16 38q0 23 16 38t38 15q23 0 38 -15t15 -38q0 -22 -15 -38t-38 -16
q-22 0 -38 16z" />
    <glyph glyph-name="igrave" unicode="&#xec;" horiz-adv-x="227" 
d="M95 510h85l-90 -510h-84zM73 736h91l29 -127h-72z" />
    <glyph glyph-name="iacute" unicode="&#xed;" horiz-adv-x="227" 
d="M95 510h85l-90 -510h-84zM190 736h95l-93 -127h-76z" />
    <glyph glyph-name="icircumflex" unicode="&#xee;" horiz-adv-x="227" 
d="M95 510h85l-90 -510h-84zM13 619l123 117h74l82 -117l-1 -5h-77l-43 64h-9l-62 -64h-88z" />
    <glyph glyph-name="idieresis" unicode="&#xef;" horiz-adv-x="227" 
d="M62.5 641q-16.5 16 -16.5 38q0 23 16 38t38 15q23 0 38.5 -15t15.5 -38q0 -22 -15.5 -38t-38.5 -16q-21 0 -37.5 16zM195 641q-16 16 -16 38q0 23 16 38t38 15q23 0 38 -15t15 -38q0 -22 -15 -38t-38 -16q-22 0 -38 16zM95 510h85l-90 -510h-84z" />
    <glyph glyph-name="eth" unicode="&#xf0;" horiz-adv-x="581" 
d="M129 14q-53 30 -83.5 82t-30.5 115q0 76 34.5 140.5t97 102t142.5 37.5q83 0 140 -59l5 3q-9 40 -28.5 70t-51.5 64l-136 -55l-24 59l103 41q-47 30 -103 44l28 72q93 -25 161 -81l112 47l23 -58l-85 -36q46 -54 71.5 -126.5t25.5 -151.5q0 -92 -32 -169.5t-96 -124
t-155 -46.5q-65 0 -118 30zM345.5 91q40.5 26 64 70.5t23.5 96.5q0 67 -38.5 111t-105.5 44q-54 0 -96.5 -26.5t-66 -72t-23.5 -99.5q0 -42 20 -76.5t54.5 -54t77.5 -19.5q50 0 90.5 26z" />
    <glyph glyph-name="ntilde" unicode="&#xf1;" horiz-adv-x="561" 
d="M160 435q27 41 71.5 66t102.5 25q76 0 120 -41.5t44 -109.5q0 -35 -7 -71l-54 -304h-84l54 306q6 29 6 50q0 44 -29.5 68.5t-78.5 24.5q-62 0 -110 -46t-61 -116l-51 -287h-84l89 510h81l-13 -75h4zM379 622q-15 6 -34 18q-18 11 -31.5 17t-29.5 6q-33 0 -42 -37h-70
q7 56 37 84.5t74 28.5q17 0 31 -6t36 -18q18 -11 31.5 -17t29.5 -6q32 0 41 37h71q-8 -56 -38 -84.5t-74 -28.5q-17 0 -32 6z" />
    <glyph glyph-name="ograve" unicode="&#xf2;" horiz-adv-x="585" 
d="M125.5 16q-53.5 32 -83 87.5t-29.5 123.5q0 82 37.5 150.5t105.5 108.5t156 40q68 0 121 -32t82.5 -87.5t29.5 -123.5q0 -83 -37.5 -151.5t-105.5 -108t-155 -39.5q-68 0 -121.5 32zM361 90.5q46 29.5 72 79t26 108.5q0 48 -20 87t-55.5 61.5t-81.5 22.5
q-58 0 -104.5 -29.5t-72.5 -79.5t-26 -108q0 -49 20 -88t55.5 -61t81.5 -22q59 0 105 29.5zM248 736h91l29 -127h-72z" />
    <glyph glyph-name="oacute" unicode="&#xf3;" horiz-adv-x="585" 
d="M125.5 16q-53.5 32 -83 87.5t-29.5 123.5q0 82 37.5 150.5t105.5 108.5t156 40q68 0 121 -32t82.5 -87.5t29.5 -123.5q0 -83 -37.5 -151.5t-105.5 -108t-155 -39.5q-68 0 -121.5 32zM361 90.5q46 29.5 72 79t26 108.5q0 48 -20 87t-55.5 61.5t-81.5 22.5
q-58 0 -104.5 -29.5t-72.5 -79.5t-26 -108q0 -49 20 -88t55.5 -61t81.5 -22q59 0 105 29.5zM365 736h95l-93 -127h-76z" />
    <glyph glyph-name="ocircumflex" unicode="&#xf4;" horiz-adv-x="585" 
d="M125.5 16q-53.5 32 -83 87.5t-29.5 123.5q0 82 37.5 150.5t105.5 108.5t156 40q68 0 121 -32t82.5 -87.5t29.5 -123.5q0 -83 -37.5 -151.5t-105.5 -108t-155 -39.5q-68 0 -121.5 32zM361 90.5q46 29.5 72 79t26 108.5q0 48 -20 87t-55.5 61.5t-81.5 22.5
q-58 0 -104.5 -29.5t-72.5 -79.5t-26 -108q0 -49 20 -88t55.5 -61t81.5 -22q59 0 105 29.5zM188 619l123 117h74l82 -117l-1 -5h-77l-43 64h-9l-62 -64h-88z" />
    <glyph glyph-name="otilde" unicode="&#xf5;" horiz-adv-x="585" 
d="M125.5 16q-53.5 32 -83 87.5t-29.5 123.5q0 82 37.5 150.5t105.5 108.5t156 40q68 0 121 -32t82.5 -87.5t29.5 -123.5q0 -83 -37.5 -151.5t-105.5 -108t-155 -39.5q-68 0 -121.5 32zM361 90.5q46 29.5 72 79t26 108.5q0 48 -20 87t-55.5 61.5t-81.5 22.5
q-58 0 -104.5 -29.5t-72.5 -79.5t-26 -108q0 -49 20 -88t55.5 -61t81.5 -22q59 0 105 29.5zM373 622q-15 6 -34 18q-18 11 -31.5 17t-29.5 6q-33 0 -42 -37h-70q7 56 37 84.5t74 28.5q17 0 31 -6t36 -18q18 -11 31.5 -17t29.5 -6q32 0 41 37h71q-8 -56 -38 -84.5t-74 -28.5
q-17 0 -32 6z" />
    <glyph glyph-name="odieresis" unicode="&#xf6;" horiz-adv-x="585" 
d="M125.5 16q-53.5 32 -83 87.5t-29.5 123.5q0 82 37.5 150.5t105.5 108.5t156 40q68 0 121 -32t82.5 -87.5t29.5 -123.5q0 -83 -37.5 -151.5t-105.5 -108t-155 -39.5q-68 0 -121.5 32zM361 90.5q46 29.5 72 79t26 108.5q0 48 -20 87t-55.5 61.5t-81.5 22.5
q-58 0 -104.5 -29.5t-72.5 -79.5t-26 -108q0 -49 20 -88t55.5 -61t81.5 -22q59 0 105 29.5zM222 641q-16 16 -16 38q0 23 15.5 38t37.5 15q24 0 39 -15t15 -38q0 -22 -15.5 -38t-38.5 -16q-21 0 -37 16zM386 641q-16 16 -16 38q0 23 16 38t38 15q23 0 38 -15t15 -38
q0 -22 -15 -38t-38 -16q-22 0 -38 16z" />
    <glyph glyph-name="divide" unicode="&#xf7;" horiz-adv-x="544" 
d="M243.5 413.5q-18.5 18.5 -18.5 44.5q0 27 18.5 45.5t45.5 18.5q26 0 44.5 -18.5t18.5 -45.5q0 -26 -18.5 -44.5t-44.5 -18.5q-27 0 -45.5 18.5zM45 306h435l-13 -70h-435zM178.5 38.5q-18.5 18.5 -18.5 45.5q0 26 18.5 44.5t44.5 18.5q27 0 45.5 -18.5t18.5 -44.5
q0 -27 -18.5 -45.5t-45.5 -18.5q-26 0 -44.5 18.5z" />
    <glyph glyph-name="oslash" unicode="&#xf8;" horiz-adv-x="585" 
d="M46 8l34 43q-32 33 -49.5 78.5t-17.5 97.5q0 82 37.5 150.5t105.5 108.5t156 40q63 0 117 -30l37 48l53 -41l-38 -49q31 -32 47.5 -76t16.5 -95q0 -83 -37.5 -151.5t-105.5 -108t-155 -39.5q-61 0 -113 27l-34 -43zM377 429q-34 20 -75 20q-58 0 -104.5 -29.5
t-72.5 -79.5t-26 -108q0 -64 35 -112zM361 90.5q46 29.5 72 79t26 108.5q0 63 -32 107l-241 -308q34 -16 70 -16q59 0 105 29.5z" />
    <glyph glyph-name="ugrave" unicode="&#xf9;" horiz-adv-x="561" 
d="M363 74q-27 -41 -72 -65.5t-103 -24.5q-76 0 -120 41.5t-44 109.5q0 33 7 71l54 304h85l-55 -306q-5 -33 -5 -50q0 -44 29.5 -68.5t77.5 -24.5q62 0 110 45.5t61 115.5l51 288h85l-90 -510h-80l13 74h-4zM240 736h91l29 -127h-72z" />
    <glyph glyph-name="uacute" unicode="&#xfa;" horiz-adv-x="561" 
d="M363 74q-27 -41 -72 -65.5t-103 -24.5q-76 0 -120 41.5t-44 109.5q0 33 7 71l54 304h85l-55 -306q-5 -33 -5 -50q0 -44 29.5 -68.5t77.5 -24.5q62 0 110 45.5t61 115.5l51 288h85l-90 -510h-80l13 74h-4zM357 736h95l-93 -127h-76z" />
    <glyph glyph-name="ucircumflex" unicode="&#xfb;" horiz-adv-x="561" 
d="M363 74q-27 -41 -72 -65.5t-103 -24.5q-76 0 -120 41.5t-44 109.5q0 33 7 71l54 304h85l-55 -306q-5 -33 -5 -50q0 -44 29.5 -68.5t77.5 -24.5q62 0 110 45.5t61 115.5l51 288h85l-90 -510h-80l13 74h-4zM180 619l123 117h74l82 -117l-1 -5h-77l-43 64h-9l-62 -64h-88z
" />
    <glyph glyph-name="udieresis" unicode="&#xfc;" horiz-adv-x="561" 
d="M363 74q-27 -41 -72 -65.5t-103 -24.5q-76 0 -120 41.5t-44 109.5q0 33 7 71l54 304h85l-55 -306q-5 -33 -5 -50q0 -44 29.5 -68.5t77.5 -24.5q62 0 110 45.5t61 115.5l51 288h85l-90 -510h-80l13 74h-4zM214 641q-16 16 -16 38q0 23 15.5 38t37.5 15q24 0 39 -15t15 -38
q0 -22 -15.5 -38t-38.5 -16q-21 0 -37 16zM378 641q-16 16 -16 38q0 23 16 38t38 15q23 0 38 -15t15 -38q0 -22 -15 -38t-38 -16q-22 0 -38 16z" />
    <glyph glyph-name="yacute" unicode="&#xfd;" horiz-adv-x="516" 
d="M174 33l-127 477h90l94 -379h2l222 379h95l-445 -726h-89zM342 736h95l-93 -127h-76z" />
    <glyph glyph-name="thorn" unicode="&#xfe;" horiz-adv-x="585" 
d="M135 716h85l-37 -210l-17 -71h4q29 42 75.5 66.5t109.5 24.5q59 0 106.5 -28.5t74.5 -81t27 -122.5q0 -84 -38 -155.5t-105.5 -113t-151.5 -41.5q-56 0 -99 26.5t-62 65.5h-4l-9 -71l-39 -221h-84zM379 90.5q46 29.5 72 81.5t26 115q0 74 -40.5 118t-104.5 44
q-56 0 -102 -31t-72.5 -84t-26.5 -117q0 -72 41 -114t103 -42q58 0 104 29.5z" />
    <glyph glyph-name="ydieresis" unicode="&#xff;" horiz-adv-x="516" 
d="M174 33l-127 477h90l94 -379h2l222 379h95l-445 -726h-89zM199 641q-16 16 -16 38q0 23 15.5 38t37.5 15q24 0 39 -15t15 -38q0 -22 -15.5 -38t-38.5 -16q-21 0 -37 16zM363 641q-16 16 -16 38q0 23 16 38t38 15q23 0 38 -15t15 -38q0 -22 -15 -38t-38 -16q-22 0 -38 16z
" />
    <glyph glyph-name="Amacron" unicode="&#x100;" horiz-adv-x="669" 
d="M347 716h96l145 -716h-90l-36 197h-309l-108 -197h-95zM446 277l-50 258l-14 77h-4l-183 -335h251zM282 876h276l-12 -66h-276z" />
    <glyph glyph-name="amacron" unicode="&#x101;" horiz-adv-x="528" 
d="M107.5 4.5q-38.5 20.5 -61 56t-22.5 79.5q0 85 62.5 135.5t171.5 50.5q40 0 78.5 -9.5t68.5 -25.5l6 30q3 17 3 29q0 45 -35.5 72.5t-89.5 27.5q-83 0 -137 -68l-66 47q36 46 91 71.5t121 25.5q92 0 144.5 -44.5t52.5 -119.5q0 -21 -5 -51l-56 -311h-81l13 72h-4
q-27 -40 -71 -64t-100 -24q-45 0 -83.5 20.5zM330 104.5q51 45.5 63 116.5q-31 18 -62 27t-78 9q-63 0 -102.5 -29.5t-39.5 -81.5q0 -40 28.5 -63.5t70.5 -23.5q69 0 120 45.5zM196 712h277l-12 -67h-277z" />
    <glyph glyph-name="Abreve" unicode="&#x102;" horiz-adv-x="669" 
d="M347 716h96l145 -716h-90l-36 197h-309l-108 -197h-95zM446 277l-50 258l-14 77h-4l-183 -335h251zM326.5 801.5q-32.5 29.5 -32.5 73.5q0 7 2 21h69q-1 -5 -1 -12q0 -21 12.5 -34.5t36.5 -13.5q26 0 44.5 16t23.5 44h68q-9 -61 -47.5 -92.5t-96.5 -31.5
q-46 0 -78.5 29.5z" />
    <glyph glyph-name="abreve" unicode="&#x103;" horiz-adv-x="528" 
d="M107.5 4.5q-38.5 20.5 -61 56t-22.5 79.5q0 85 62.5 135.5t171.5 50.5q40 0 78.5 -9.5t68.5 -25.5l6 30q3 17 3 29q0 45 -35.5 72.5t-89.5 27.5q-83 0 -137 -68l-66 47q36 46 91 71.5t121 25.5q92 0 144.5 -44.5t52.5 -119.5q0 -21 -5 -51l-56 -311h-81l13 72h-4
q-27 -40 -71 -64t-100 -24q-45 0 -83.5 20.5zM330 104.5q51 45.5 63 116.5q-31 18 -62 27t-78 9q-63 0 -102.5 -29.5t-39.5 -81.5q0 -40 28.5 -63.5t70.5 -23.5q69 0 120 45.5zM239.5 636.5q-32.5 29.5 -32.5 74.5q0 7 2 21h69q-1 -5 -1 -12q0 -21 12.5 -35t36.5 -14
q26 0 44.5 16.5t23.5 44.5h68q-10 -62 -48 -93.5t-96 -31.5q-46 0 -78.5 29.5z" />
    <glyph glyph-name="Aogonek" unicode="&#x104;" horiz-adv-x="669" 
d="M447.5 -197.5q-28.5 26.5 -28.5 65.5q0 78 78 134l-35 195h-309l-108 -197h-95l397 716h96l145 -716q-35 -20 -63 -51.5t-28 -62.5q0 -19 11.5 -29.5t28.5 -10.5q21 0 42 9l-12 -72q-11 -4 -20.5 -5.5t-26.5 -1.5q-44 0 -72.5 26.5zM446 277l-50 258l-14 77h-4l-183 -335
h251z" />
    <glyph glyph-name="aogonek" unicode="&#x105;" horiz-adv-x="528" 
d="M293.5 -197.5q-28.5 26.5 -28.5 65.5q0 40 23.5 73.5t65.5 59.5l12 71h-4q-27 -40 -71 -64t-100 -24q-45 0 -83.5 20.5t-61 56t-22.5 79.5q0 85 62.5 135.5t171.5 50.5q40 0 78.5 -9.5t68.5 -25.5l6 30q3 17 3 29q0 45 -35.5 72.5t-89.5 27.5q-83 0 -137 -68l-66 47
q36 46 91 71.5t121 25.5q92 0 144.5 -44.5t52.5 -119.5q0 -21 -5 -51l-56 -311q-35 -20 -63 -51.5t-28 -62.5q0 -19 11.5 -29.5t29.5 -10.5q20 0 42 9l-13 -72q-18 -7 -47 -7q-44 0 -72.5 26.5zM330 104.5q51 45.5 63 116.5q-31 18 -62 27t-78 9q-63 0 -102.5 -29.5
t-39.5 -81.5q0 -40 28.5 -63.5t70.5 -23.5q69 0 120 45.5z" />
    <glyph glyph-name="Cacute" unicode="&#x106;" horiz-adv-x="740" 
d="M188.5 24q-71.5 40 -111.5 113t-40 169q0 110 56.5 208.5t155.5 158t220 59.5q81 0 146 -33.5t99 -86.5l-68 -56q-33 49 -78 72t-108 23q-92 0 -169.5 -48t-122.5 -126.5t-45 -166.5q0 -73 31 -128.5t85.5 -86t121.5 -30.5q73 0 129 27t111 81l54 -61q-67 -66 -138.5 -97
t-165.5 -31q-91 0 -162.5 40zM503 900h95l-93 -127h-77z" />
    <glyph glyph-name="cacute" unicode="&#x107;" horiz-adv-x="544" 
d="M119 16q-51 32 -78.5 86t-27.5 117q0 85 38 155t105.5 111t153.5 41q82 0 134 -41t69 -100l-79 -31q-14 45 -48.5 70t-85.5 25q-55 0 -101 -29t-73 -80t-27 -115q0 -70 40.5 -117t106.5 -47q52 0 93.5 25.5t65.5 71.5l68 -33q-40 -72 -97.5 -106.5t-140.5 -34.5
q-65 0 -116 32zM354 736h95l-93 -127h-76z" />
    <glyph glyph-name="Ccircumflex" unicode="&#x108;" horiz-adv-x="740" 
d="M188.5 24q-71.5 40 -111.5 113t-40 169q0 110 56.5 208.5t155.5 158t220 59.5q81 0 146 -33.5t99 -86.5l-68 -56q-33 49 -78 72t-108 23q-92 0 -169.5 -48t-122.5 -126.5t-45 -166.5q0 -73 31 -128.5t85.5 -86t121.5 -30.5q73 0 129 27t111 81l54 -61q-67 -66 -138.5 -97
t-165.5 -31q-91 0 -162.5 40zM324 784l123 116h75l81 -116l-1 -5h-76l-44 63h-8l-63 -63h-88z" />
    <glyph glyph-name="ccircumflex" unicode="&#x109;" horiz-adv-x="544" 
d="M119 16q-51 32 -78.5 86t-27.5 117q0 85 38 155t105.5 111t153.5 41q82 0 134 -41t69 -100l-79 -31q-14 45 -48.5 70t-85.5 25q-55 0 -101 -29t-73 -80t-27 -115q0 -70 40.5 -117t106.5 -47q52 0 93.5 25.5t65.5 71.5l68 -33q-40 -72 -97.5 -106.5t-140.5 -34.5
q-65 0 -116 32zM177 619l123 117h74l82 -117l-1 -5h-77l-43 64h-9l-62 -64h-88z" />
    <glyph glyph-name="Cdotaccent" unicode="&#x10a;" horiz-adv-x="740" 
d="M188.5 24q-71.5 40 -111.5 113t-40 169q0 110 56.5 208.5t155.5 158t220 59.5q81 0 146 -33.5t99 -86.5l-68 -56q-33 49 -78 72t-108 23q-92 0 -169.5 -48t-122.5 -126.5t-45 -166.5q0 -73 31 -128.5t85.5 -86t121.5 -30.5q73 0 129 27t111 81l54 -61q-67 -66 -138.5 -97
t-165.5 -31q-91 0 -162.5 40zM446 822q-15 15 -15 34q0 21 15 35t35 14q21 0 35 -14t14 -35q0 -20 -14 -34.5t-35 -14.5q-20 0 -35 15z" />
    <glyph glyph-name="cdotaccent" unicode="&#x10b;" horiz-adv-x="544" 
d="M119 16q-51 32 -78.5 86t-27.5 117q0 85 38 155t105.5 111t153.5 41q82 0 134 -41t69 -100l-79 -31q-14 45 -48.5 70t-85.5 25q-55 0 -101 -29t-73 -80t-27 -115q0 -70 40.5 -117t106.5 -47q52 0 93.5 25.5t65.5 71.5l68 -33q-40 -72 -97.5 -106.5t-140.5 -34.5
q-65 0 -116 32zM294 641q-16 16 -16 38q0 23 15.5 38t37.5 15q23 0 38.5 -15t15.5 -38q0 -22 -15.5 -38t-38.5 -16q-21 0 -37 16z" />
    <glyph glyph-name="Ccaron" unicode="&#x10c;" horiz-adv-x="740" 
d="M188.5 24q-71.5 40 -111.5 113t-40 169q0 110 56.5 208.5t155.5 158t220 59.5q81 0 146 -33.5t99 -86.5l-68 -56q-33 49 -78 72t-108 23q-92 0 -169.5 -48t-122.5 -126.5t-45 -166.5q0 -73 31 -128.5t85.5 -86t121.5 -30.5q73 0 129 27t111 81l54 -61q-67 -66 -138.5 -97
t-165.5 -31q-91 0 -162.5 40zM352 895l1 5h77l43 -63h8l63 63h88l-1 -5l-123 -116h-75z" />
    <glyph glyph-name="ccaron" unicode="&#x10d;" horiz-adv-x="544" 
d="M119 16q-51 32 -78.5 86t-27.5 117q0 85 38 155t105.5 111t153.5 41q82 0 134 -41t69 -100l-79 -31q-14 45 -48.5 70t-85.5 25q-55 0 -101 -29t-73 -80t-27 -115q0 -70 40.5 -117t106.5 -47q52 0 93.5 25.5t65.5 71.5l68 -33q-40 -72 -97.5 -106.5t-140.5 -34.5
q-65 0 -116 32zM204 731l1 5h77l44 -64h8l62 64h89l-1 -5l-124 -117h-74z" />
    <glyph glyph-name="Dcaron" unicode="&#x10e;" horiz-adv-x="703" 
d="M141 716h216q97 0 166 -40t104.5 -109.5t35.5 -158.5q0 -109 -51 -202.5t-147 -149.5t-225 -56h-226zM245 81q93 0 169 42.5t119 116t43 162.5q0 113 -61.5 173t-172.5 60h-131l-98 -554h132zM247 895l1 5h77l43 -63h8l63 63h88l-1 -5l-123 -116h-75z" />
    <glyph glyph-name="dcaron" unicode="&#x10f;" horiz-adv-x="681" 
d="M113.5 12.5q-47.5 28.5 -74.5 81t-27 121.5q0 85 38 156t105 113t151 42q57 0 100 -27t62 -66h4l9 71l37 212h85l-127 -716h-81l14 75h-4q-29 -42 -75.5 -66.5t-109.5 -24.5q-59 0 -106.5 28.5zM344.5 92q46.5 31 73 83.5t26.5 115.5q0 72 -41 115t-103 43
q-57 0 -103 -29.5t-72.5 -81.5t-26.5 -115q0 -74 40.5 -118t103.5 -44q56 0 102.5 31zM667 716h92l-63 -189h-62z" />
    <glyph glyph-name="Dcroat" unicode="&#x110;" horiz-adv-x="700" 
d="M-9 339l11 66h80l56 311h216q97 0 166 -40t104.5 -109.5t35.5 -158.5q0 -109 -51 -202.5t-147 -149.5t-226 -56h-225l59 339h-79zM411 123.5q76 42.5 119 116t43 162.5q0 113 -61.5 173t-172.5 60h-131l-41 -230h184l-11 -66h-185l-45 -258h132q93 0 169 42.5z" />
    <glyph glyph-name="dcroat" unicode="&#x111;" horiz-adv-x="604" 
d="M113.5 12.5q-47.5 28.5 -74.5 81t-27 121.5q0 85 38 156t105 113t151 42q57 0 100 -27t62 -66h4l9 71l14 79h-155l12 67h154l12 66h85l-13 -66h64l-12 -67h-63l-103 -583h-81l14 75h-4q-29 -42 -75.5 -66.5t-109.5 -24.5q-59 0 -106.5 28.5zM344.5 92q46.5 31 73 83.5
t26.5 115.5q0 72 -41 115t-103 43q-57 0 -103 -29.5t-72.5 -81.5t-26.5 -115q0 -74 40.5 -118t103.5 -44q56 0 102.5 31z" />
    <glyph glyph-name="Emacron" unicode="&#x112;" horiz-adv-x="550" 
d="M141 716h414l-14 -81h-330l-42 -237h298l-14 -80h-298l-42 -237h330l-15 -81h-414zM243 876h276l-12 -66h-276z" />
    <glyph glyph-name="emacron" unicode="&#x113;" horiz-adv-x="564" 
d="M120 15.5q-52 31.5 -79.5 85t-27.5 117.5q0 80 36 151t102 114t151 43q66 0 114 -29t73 -78t25 -108q0 -43 -9 -72h-404q-2 -20 -2 -32q0 -44 20.5 -77.5t54.5 -51t72 -17.5q59 0 100 24.5t69 70.5l65 -37q-38 -66 -99 -100.5t-140 -34.5q-69 0 -121 31.5zM429 309v14
q0 33 -16 62t-47 46.5t-74 17.5q-64 0 -111.5 -40t-65.5 -100h314zM196 712h277l-12 -67h-277z" />
    <glyph glyph-name="Ebreve" unicode="&#x114;" horiz-adv-x="550" 
d="M141 716h414l-14 -81h-330l-42 -237h298l-14 -80h-298l-42 -237h330l-15 -81h-414zM287.5 801.5q-32.5 29.5 -32.5 73.5q0 7 2 21h69q-1 -5 -1 -12q0 -21 12.5 -34.5t36.5 -13.5q26 0 44.5 16t23.5 44h68q-9 -61 -47.5 -92.5t-96.5 -31.5q-46 0 -78.5 29.5z" />
    <glyph glyph-name="ebreve" unicode="&#x115;" horiz-adv-x="564" 
d="M120 15.5q-52 31.5 -79.5 85t-27.5 117.5q0 80 36 151t102 114t151 43q66 0 114 -29t73 -78t25 -108q0 -43 -9 -72h-404q-2 -20 -2 -32q0 -44 20.5 -77.5t54.5 -51t72 -17.5q59 0 100 24.5t69 70.5l65 -37q-38 -66 -99 -100.5t-140 -34.5q-69 0 -121 31.5zM429 309v14
q0 33 -16 62t-47 46.5t-74 17.5q-64 0 -111.5 -40t-65.5 -100h314zM239.5 636.5q-32.5 29.5 -32.5 74.5q0 7 2 21h69q-1 -5 -1 -12q0 -21 12.5 -35t36.5 -14q26 0 44.5 16.5t23.5 44.5h68q-10 -62 -48 -93.5t-96 -31.5q-46 0 -78.5 29.5z" />
    <glyph glyph-name="Edotaccent" unicode="&#x116;" horiz-adv-x="550" 
d="M141 716h414l-14 -81h-330l-42 -237h298l-14 -80h-298l-42 -237h330l-15 -81h-414zM343 822q-15 15 -15 34q0 21 15 35t35 14q21 0 35 -14t14 -35q0 -20 -14 -34.5t-35 -14.5q-20 0 -35 15z" />
    <glyph glyph-name="edotaccent" unicode="&#x117;" horiz-adv-x="564" 
d="M120 15.5q-52 31.5 -79.5 85t-27.5 117.5q0 80 36 151t102 114t151 43q66 0 114 -29t73 -78t25 -108q0 -43 -9 -72h-404q-2 -20 -2 -32q0 -44 20.5 -77.5t54.5 -51t72 -17.5q59 0 100 24.5t69 70.5l65 -37q-38 -66 -99 -100.5t-140 -34.5q-69 0 -121 31.5zM429 309v14
q0 33 -16 62t-47 46.5t-74 17.5q-64 0 -111.5 -40t-65.5 -100h314zM292 641q-16 16 -16 38q0 23 15.5 38t37.5 15q23 0 38.5 -15t15.5 -38q0 -22 -15.5 -38t-38.5 -16q-21 0 -37 16z" />
    <glyph glyph-name="Eogonek" unicode="&#x118;" horiz-adv-x="550" 
d="M141 716h414l-14 -81h-330l-42 -237h298l-14 -80h-298l-42 -237h330l-15 -81h-414zM287 -197.5q-29 26.5 -29 65.5q0 78 85 132h85q-35 -20 -63 -51.5t-28 -62.5q0 -19 11 -29.5t29 -10.5q12 0 20.5 2t21.5 7l-12 -72q-11 -4 -20.5 -5.5t-26.5 -1.5q-44 0 -73 26.5z" />
    <glyph glyph-name="eogonek" unicode="&#x119;" horiz-adv-x="564" 
d="M199 -197.5q-29 26.5 -29 65.5q0 69 63 116h-4q-65 3 -114 35t-75.5 84.5t-26.5 114.5q0 80 36 151t102 114t151 43q66 0 114 -29t73 -78t25 -108q0 -43 -9 -72h-404q-2 -20 -2 -32q0 -44 20.5 -77.5t54.5 -51t72 -17.5q59 0 100 24.5t69 70.5l65 -37q-24 -42 -56.5 -71
t-69.5 -43q-43 -18 -74.5 -52t-31.5 -67q0 -19 11.5 -29.5t29.5 -10.5q20 0 42 9l-12 -72q-11 -4 -20.5 -5.5t-26.5 -1.5q-44 0 -73 26.5zM429 309v14q0 33 -16 62t-47 46.5t-74 17.5q-64 0 -111.5 -40t-65.5 -100h314z" />
    <glyph glyph-name="Ecaron" unicode="&#x11a;" horiz-adv-x="550" 
d="M141 716h414l-14 -81h-330l-42 -237h298l-14 -80h-298l-42 -237h330l-15 -81h-414zM249 895l1 5h77l43 -63h8l63 63h88l-1 -5l-123 -116h-75z" />
    <glyph glyph-name="ecaron" unicode="&#x11b;" horiz-adv-x="564" 
d="M120 15.5q-52 31.5 -79.5 85t-27.5 117.5q0 80 36 151t102 114t151 43q66 0 114 -29t73 -78t25 -108q0 -43 -9 -72h-404q-2 -20 -2 -32q0 -44 20.5 -77.5t54.5 -51t72 -17.5q59 0 100 24.5t69 70.5l65 -37q-38 -66 -99 -100.5t-140 -34.5q-69 0 -121 31.5zM429 309v14
q0 33 -16 62t-47 46.5t-74 17.5q-64 0 -111.5 -40t-65.5 -100h314zM202 731l1 5h77l44 -64h8l62 64h89l-1 -5l-124 -117h-74z" />
    <glyph glyph-name="Gcircumflex" unicode="&#x11c;" horiz-adv-x="814" 
d="M199 24q-73 40 -117 115t-44 174q0 113 55.5 209t155 153t226.5 57q78 0 145 -29.5t101 -80.5l-69 -58q-26 40 -78 63.5t-113 23.5q-93 0 -170 -44t-121.5 -120.5t-44.5 -169.5q0 -78 33 -135t88.5 -87t122.5 -30q132 0 219 90q55 56 78 147h-260l14 79h345q0 -20 -5 -52
q-24 -141 -111 -229q-110 -116 -292 -116q-85 0 -158 40zM330 784l123 116h75l81 -116l-1 -5h-76l-44 63h-8l-63 -63h-88z" />
    <glyph glyph-name="gcircumflex" unicode="&#x11d;" horiz-adv-x="597" 
d="M103.5 -211q-43.5 21 -69.5 53.5t-33 68.5l82 33q11 -44 45 -71.5t89 -27.5q79 0 130 47t65 129l10 56h-4q-29 -42 -73 -64.5t-108 -22.5q-57 0 -104 28.5t-74 81t-27 119.5q0 81 36 151.5t101.5 113t150.5 42.5q58 0 101 -25t61 -64h4l13 73h81l-87 -494
q-22 -126 -98 -187t-190 -61q-58 0 -101.5 21zM359.5 98q46.5 31 72.5 82.5t26 110.5q0 72 -39 115t-100 43q-60 0 -106 -30t-71 -81.5t-25 -114.5q0 -73 39 -114.5t99 -41.5q58 0 104.5 31zM198 619l123 117h74l82 -117l-1 -5h-77l-43 64h-9l-62 -64h-88z" />
    <glyph glyph-name="Gbreve" unicode="&#x11e;" horiz-adv-x="814" 
d="M199 24q-73 40 -117 115t-44 174q0 113 55.5 209t155 153t226.5 57q78 0 145 -29.5t101 -80.5l-69 -58q-26 40 -78 63.5t-113 23.5q-93 0 -170 -44t-121.5 -120.5t-44.5 -169.5q0 -78 33 -135t88.5 -87t122.5 -30q132 0 219 90q55 56 78 147h-260l14 79h345q0 -20 -5 -52
q-24 -141 -111 -229q-110 -116 -292 -116q-85 0 -158 40zM396.5 801.5q-32.5 29.5 -32.5 73.5q0 7 2 21h69q-1 -5 -1 -12q0 -21 12.5 -34.5t36.5 -13.5q26 0 44.5 16t23.5 44h68q-9 -61 -47.5 -92.5t-96.5 -31.5q-46 0 -78.5 29.5z" />
    <glyph glyph-name="gbreve" unicode="&#x11f;" horiz-adv-x="597" 
d="M103.5 -211q-43.5 21 -69.5 53.5t-33 68.5l82 33q11 -44 45 -71.5t89 -27.5q79 0 130 47t65 129l10 56h-4q-29 -42 -73 -64.5t-108 -22.5q-57 0 -104 28.5t-74 81t-27 119.5q0 81 36 151.5t101.5 113t150.5 42.5q58 0 101 -25t61 -64h4l13 73h81l-87 -494
q-22 -126 -98 -187t-190 -61q-58 0 -101.5 21zM359.5 98q46.5 31 72.5 82.5t26 110.5q0 72 -39 115t-100 43q-60 0 -106 -30t-71 -81.5t-25 -114.5q0 -73 39 -114.5t99 -41.5q58 0 104.5 31zM262.5 636.5q-32.5 29.5 -32.5 74.5q0 7 2 21h69q-1 -5 -1 -12q0 -21 12.5 -35
t36.5 -14q26 0 44.5 16.5t23.5 44.5h68q-10 -62 -48 -93.5t-96 -31.5q-46 0 -78.5 29.5z" />
    <glyph glyph-name="Gdotaccent" unicode="&#x120;" horiz-adv-x="814" 
d="M199 24q-73 40 -117 115t-44 174q0 113 55.5 209t155 153t226.5 57q78 0 145 -29.5t101 -80.5l-69 -58q-26 40 -78 63.5t-113 23.5q-93 0 -170 -44t-121.5 -120.5t-44.5 -169.5q0 -78 33 -135t88.5 -87t122.5 -30q132 0 219 90q55 56 78 147h-260l14 79h345q0 -20 -5 -52
q-24 -141 -111 -229q-110 -116 -292 -116q-85 0 -158 40zM452 822q-15 15 -15 34q0 21 15 35t35 14q21 0 35 -14t14 -35q0 -20 -14 -34.5t-35 -14.5q-20 0 -35 15z" />
    <glyph glyph-name="gdotaccent" unicode="&#x121;" horiz-adv-x="597" 
d="M103.5 -211q-43.5 21 -69.5 53.5t-33 68.5l82 33q11 -44 45 -71.5t89 -27.5q79 0 130 47t65 129l10 56h-4q-29 -42 -73 -64.5t-108 -22.5q-57 0 -104 28.5t-74 81t-27 119.5q0 81 36 151.5t101.5 113t150.5 42.5q58 0 101 -25t61 -64h4l13 73h81l-87 -494
q-22 -126 -98 -187t-190 -61q-58 0 -101.5 21zM359.5 98q46.5 31 72.5 82.5t26 110.5q0 72 -39 115t-100 43q-60 0 -106 -30t-71 -81.5t-25 -114.5q0 -73 39 -114.5t99 -41.5q58 0 104.5 31zM315 641q-16 16 -16 38q0 23 15.5 38t37.5 15q23 0 38.5 -15t15.5 -38
q0 -22 -15.5 -38t-38.5 -16q-21 0 -37 16z" />
    <glyph glyph-name="uni0122" unicode="&#x122;" horiz-adv-x="814" 
d="M199 24q-73 40 -117 115t-44 174q0 113 55.5 209t155 153t226.5 57q78 0 145 -29.5t101 -80.5l-69 -58q-26 40 -78 63.5t-113 23.5q-93 0 -170 -44t-121.5 -120.5t-44.5 -169.5q0 -78 33 -135t88.5 -87t122.5 -30q132 0 219 90q55 56 78 147h-260l14 79h345q0 -20 -5 -52
q-24 -141 -111 -229q-110 -116 -292 -116q-85 0 -158 40zM330 -155q-18 4 -29 18.5t-11 33.5q0 21 16 38t40 17q25 0 40.5 -16.5t15.5 -40.5q0 -30 -18 -51l-71 -86l-34 29z" />
    <glyph glyph-name="uni0123" unicode="&#x123;" horiz-adv-x="597" 
d="M103.5 -211q-43.5 21 -69.5 53.5t-33 68.5l82 33q11 -44 45 -71.5t89 -27.5q79 0 130 47t65 129l10 56h-4q-29 -42 -73 -64.5t-108 -22.5q-57 0 -104 28.5t-74 81t-27 119.5q0 81 36 151.5t101.5 113t150.5 42.5q58 0 101 -25t61 -64h4l13 73h81l-87 -494
q-22 -126 -98 -187t-190 -61q-58 0 -101.5 21zM359.5 98q46.5 31 72.5 82.5t26 110.5q0 72 -39 115t-100 43q-60 0 -106 -30t-71 -81.5t-25 -114.5q0 -73 39 -114.5t99 -41.5q58 0 104.5 31zM365 699q18 -4 29 -18.5t11 -33.5q0 -21 -16 -38t-40 -17q-25 0 -40.5 16.5
t-15.5 40.5q0 30 18 51l71 86l34 -29z" />
    <glyph glyph-name="Hcircumflex" unicode="&#x124;" horiz-adv-x="698" 
d="M141 716h84l-55 -310h369l56 310h84l-127 -716h-84l57 326h-369l-58 -326h-84zM277 784l123 116h75l81 -116l-1 -5h-76l-44 63h-8l-63 -63h-88z" />
    <glyph glyph-name="hcircumflex" unicode="&#x125;" horiz-adv-x="561" 
d="M125 716h84l-37 -211l-17 -70h4q29 41 74 66t102 25q78 0 120.5 -41.5t42.5 -109.5q0 -29 -6 -68l-55 -307h-84l54 307q5 30 5 49q0 43 -29.5 68t-77.5 25q-62 0 -110.5 -48t-61.5 -124l-50 -277h-84zM211 783l123 117h74l82 -117l-1 -5h-77l-43 64h-9l-62 -64h-88z" />
    <glyph glyph-name="Hbar" unicode="&#x126;" horiz-adv-x="698" 
d="M40 509l12 66h64l25 141h84l-25 -141h369l26 141h84l-25 -141h64l-11 -66h-64l-91 -509h-84l57 326h-369l-58 -326h-84l90 509h-64zM557 509h-369l-18 -103h369z" />
    <glyph glyph-name="hbar" unicode="&#x127;" horiz-adv-x="560" 
d="M100 583h-64l12 67h64l12 66h84l-12 -66h149l-12 -67h-148l-14 -78l-17 -70h4q29 41 74 66t102 25q78 0 120.5 -41.5t42.5 -109.5q0 -29 -6 -68l-55 -307h-84l54 307q5 30 5 49q0 43 -29.5 68t-77.5 25q-62 0 -110.5 -48t-61.5 -124l-50 -277h-84z" />
    <glyph glyph-name="Itilde" unicode="&#x128;" horiz-adv-x="244" 
d="M141 716h84l-127 -716h-84zM237 786q-15 6 -34 18q-18 11 -31.5 17t-29.5 6q-33 0 -42 -37h-70q8 56 38 85t74 29q17 0 32.5 -6t34.5 -18q18 -11 31.5 -17t28.5 -6q33 0 42 37h70q-7 -56 -37.5 -85t-74.5 -29q-17 0 -32 6z" />
    <glyph glyph-name="itilde" unicode="&#x129;" horiz-adv-x="227" 
d="M95 510h85l-90 -510h-84zM198 622q-15 6 -34 18q-18 11 -31.5 17t-29.5 6q-33 0 -42 -37h-70q7 56 37 84.5t74 28.5q17 0 31 -6t36 -18q18 -11 31.5 -17t29.5 -6q32 0 41 37h71q-8 -56 -38 -84.5t-74 -28.5q-17 0 -32 6z" />
    <glyph glyph-name="Imacron" unicode="&#x12a;" horiz-adv-x="244" 
d="M90 876h245l-12 -66h-245zM144 716h84l-127 -716h-84z" />
    <glyph glyph-name="imacron" unicode="&#x12b;" horiz-adv-x="227" 
d="M95 510h85l-90 -510h-84zM34 712h277l-12 -67h-277z" />
    <glyph glyph-name="Ibreve" unicode="&#x12c;" horiz-adv-x="244" 
d="M141 716h84l-127 -716h-84zM117.5 801.5q-32.5 29.5 -32.5 73.5q0 7 2 21h69q-1 -5 -1 -12q0 -21 12.5 -34.5t36.5 -13.5q26 0 44.5 16t23.5 44h68q-9 -61 -47.5 -92.5t-96.5 -31.5q-46 0 -78.5 29.5z" />
    <glyph glyph-name="ibreve" unicode="&#x12d;" horiz-adv-x="227" 
d="M95 510h85l-90 -510h-84zM77.5 636.5q-32.5 29.5 -32.5 74.5q0 7 2 21h69q-1 -5 -1 -12q0 -21 12.5 -35t36.5 -14q26 0 44.5 16.5t23.5 44.5h68q-10 -62 -48 -93.5t-96 -31.5q-46 0 -78.5 29.5z" />
    <glyph glyph-name="Iogonek" unicode="&#x12e;" horiz-adv-x="244" 
d="M-42.5 -197.5q-28.5 26.5 -28.5 65.5q0 80 85 133l127 715h84l-127 -716q-35 -20 -63 -51.5t-28 -62.5q0 -19 11.5 -29.5t29.5 -10.5q20 0 42 9l-13 -72q-18 -7 -47 -7q-44 0 -72.5 26.5z" />
    <glyph glyph-name="iogonek" unicode="&#x12f;" horiz-adv-x="223" 
d="M122.5 622q-17.5 17 -17.5 42t17.5 42t42.5 17t42 -17t17 -42t-17 -42t-42 -17t-42.5 17zM-50.5 -197.5q-28.5 26.5 -28.5 65.5q0 79 85 133l89 509h85l-90 -510q-35 -20 -63 -51.5t-28 -62.5q0 -19 11 -29.5t29 -10.5q21 0 42 9l-12 -72q-11 -4 -20.5 -5.5t-26.5 -1.5
q-44 0 -72.5 26.5z" />
    <glyph glyph-name="Idotaccent" unicode="&#x130;" horiz-adv-x="244" 
d="M141 716h84l-127 -716h-84zM173 822q-15 15 -15 34q0 21 15 35t35 14q21 0 35 -14t14 -35q0 -20 -14 -34.5t-35 -14.5q-20 0 -35 15z" />
    <glyph glyph-name="dotlessi" unicode="&#x131;" horiz-adv-x="227" 
d="M95 510h85l-90 -510h-84z" />
    <glyph glyph-name="Jcircumflex" unicode="&#x134;" horiz-adv-x="531" 
d="M55 29q-53 45 -62 121l82 32q6 -61 39 -89t83 -28q60 0 103.5 42t54.5 107l88 502h84l-87 -496q-20 -117 -88 -176.5t-165 -59.5q-79 0 -132 45zM353 784l123 116h75l81 -116l-1 -5h-76l-44 63h-8l-63 -63h-88z" />
    <glyph glyph-name="jcircumflex" unicode="&#x135;" horiz-adv-x="230" 
d="M-130 -218l14 79q7 -4 19 -7t22 -3q31 0 47.5 18.5t22.5 52.5l104 588h85l-104 -592q-14 -79 -55 -111.5t-106 -32.5q-25 0 -49 8zM18 619l123 117h74l82 -117l-1 -5h-77l-43 64h-9l-62 -64h-88z" />
    <glyph glyph-name="uni0136" unicode="&#x136;" horiz-adv-x="626" 
d="M141 716h84l-65 -374h4l385 374h112l-1 -4l-319 -306l213 -402l-1 -4h-99l-180 341l-138 -131l-38 -210h-84zM240 -155q-18 4 -29 18.5t-11 33.5q0 21 16 38t40 17q25 0 40.5 -16.5t15.5 -40.5q0 -30 -18 -51l-71 -86l-34 29z" />
    <glyph glyph-name="uni0137" unicode="&#x137;" horiz-adv-x="507" 
d="M126 716h85l-78 -444l274 238h116l-1 -4l-238 -202l152 -300l-1 -4h-99l-120 246l-103 -88l-28 -158h-85zM178 -155q-18 4 -29 18.5t-11 33.5q0 21 16 38t40 17q25 0 40.5 -16.5t15.5 -40.5q0 -30 -18 -51l-71 -86l-34 29z" />
    <glyph glyph-name="kgreenlandic" unicode="&#x138;" horiz-adv-x="489" 
d="M88 510h85l-41 -231h4l252 231h111l-1 -4l-271 -241l194 -261l-1 -4h-102l-185 257h-4l-47 -257h-83z" />
    <glyph glyph-name="Lacute" unicode="&#x139;" horiz-adv-x="508" 
d="M141 716h84l-112 -635h314l-15 -81h-398zM230 900h95l-93 -127h-77z" />
    <glyph glyph-name="lacute" unicode="&#x13a;" horiz-adv-x="212" 
d="M125 716h84l-126 -716h-84zM213 900h95l-93 -127h-76z" />
    <glyph glyph-name="uni013B" unicode="&#x13b;" horiz-adv-x="508" 
d="M141 716h84l-112 -635h314l-15 -81h-398zM202 -155q-18 4 -29 18.5t-11 33.5q0 21 16 38t40 17q25 0 40.5 -16.5t15.5 -40.5q0 -30 -18 -51l-71 -86l-34 29z" />
    <glyph glyph-name="uni013C" unicode="&#x13c;" horiz-adv-x="212" 
d="M125 716h84l-126 -716h-84zM7 -155q-18 4 -29 18.5t-11 33.5q0 21 16 38t40 17q25 0 40.5 -16.5t15.5 -40.5q0 -30 -18 -51l-71 -86l-34 29z" />
    <glyph glyph-name="Lcaron" unicode="&#x13d;" horiz-adv-x="508" 
d="M141 716h84l-112 -635h314l-15 -81h-398zM378 716h92l-63 -189h-62z" />
    <glyph glyph-name="lcaron" unicode="&#x13e;" horiz-adv-x="309" 
d="M125 716h84l-126 -716h-84zM298 716h92l-63 -189h-62z" />
    <glyph glyph-name="Ldot" unicode="&#x13f;" horiz-adv-x="508" 
d="M141 716h84l-112 -635h314l-15 -81h-398zM304.5 298.5q-18.5 18.5 -18.5 45.5t18.5 45.5t44.5 18.5q27 0 45.5 -18.5t18.5 -45.5t-18.5 -45.5t-45.5 -18.5q-26 0 -44.5 18.5z" />
    <glyph glyph-name="Lslash" unicode="&#x141;" horiz-adv-x="569" 
d="M60 242l-34 62l120 67l62 345h84l-50 -286l140 79l34 -63l-191 -107l-45 -258h314l-15 -81h-398l50 281z" />
    <glyph glyph-name="lslash" unicode="&#x142;" horiz-adv-x="357" 
d="M123 310l-65 -41l-37 61l119 78l55 308h84l-44 -251l80 53l38 -63l-136 -87l-65 -368h-83z" />
    <glyph glyph-name="Nacute" unicode="&#x143;" horiz-adv-x="707" 
d="M141 716h97l265 -570h4l21 138l76 432h85l-127 -716h-81l-277 597h-4l-20 -138l-82 -459h-84zM451 900h95l-93 -127h-77z" />
    <glyph glyph-name="nacute" unicode="&#x144;" horiz-adv-x="561" 
d="M160 435q27 41 71.5 66t102.5 25q76 0 120 -41.5t44 -109.5q0 -35 -7 -71l-54 -304h-84l54 306q6 29 6 50q0 44 -29.5 68.5t-78.5 24.5q-62 0 -110 -46t-61 -116l-51 -287h-84l89 510h81l-13 -75h4zM371 736h95l-93 -127h-76z" />
    <glyph glyph-name="uni0145" unicode="&#x145;" horiz-adv-x="707" 
d="M141 716h97l265 -570h4l21 138l76 432h85l-127 -716h-81l-277 597h-4l-20 -138l-82 -459h-84zM266 -155q-18 4 -29 18.5t-11 33.5q0 21 16 38t40 17q25 0 40.5 -16.5t15.5 -40.5q0 -30 -18 -51l-71 -86l-34 29z" />
    <glyph glyph-name="uni0146" unicode="&#x146;" horiz-adv-x="561" 
d="M160 435q27 41 71.5 66t102.5 25q76 0 120 -41.5t44 -109.5q0 -35 -7 -71l-54 -304h-84l54 306q6 29 6 50q0 44 -29.5 68.5t-78.5 24.5q-62 0 -110 -46t-61 -116l-51 -287h-84l89 510h81l-13 -75h4zM191 -155q-18 4 -29 18.5t-11 33.5q0 21 16 38t40 17q25 0 40.5 -16.5
t15.5 -40.5q0 -30 -18 -51l-71 -86l-34 29z" />
    <glyph glyph-name="Ncaron" unicode="&#x147;" horiz-adv-x="707" 
d="M141 716h97l265 -570h4l21 138l76 432h85l-127 -716h-81l-277 597h-4l-20 -138l-82 -459h-84zM300 895l1 5h77l43 -63h8l63 63h88l-1 -5l-123 -116h-75z" />
    <glyph glyph-name="ncaron" unicode="&#x148;" horiz-adv-x="561" 
d="M160 435q27 41 71.5 66t102.5 25q76 0 120 -41.5t44 -109.5q0 -35 -7 -71l-54 -304h-84l54 306q6 29 6 50q0 44 -29.5 68.5t-78.5 24.5q-62 0 -110 -46t-61 -116l-51 -287h-84l89 510h81l-13 -75h4zM221 731l1 5h77l44 -64h8l62 64h89l-1 -5l-124 -117h-74z" />
    <glyph glyph-name="Eng" unicode="&#x14a;" horiz-adv-x="707" 
d="M340 -220l15 81q15 -10 37 -10q31 0 48 19.5t24 57.5l14 76l-274 593h-4l-20 -138l-82 -459h-84l127 716h97l265 -570h4l21 138l76 432h85l-140 -789q-14 -77 -57.5 -115t-108.5 -38q-25 0 -43 6z" />
    <glyph glyph-name="eng" unicode="&#x14b;" horiz-adv-x="562" 
d="M213 -218l14 79q7 -4 19 -7t23 -3q31 0 47.5 18.5t22.5 52.5l68 384q6 29 6 50q0 44 -29.5 68.5t-78.5 24.5q-62 0 -110 -46t-61 -116l-51 -287h-84l89 510h81l-13 -75h4q27 41 71.5 66t102.5 25q76 0 120 -41.5t44 -109.5q0 -35 -7 -71l-68 -386q-13 -79 -54 -111.5
t-106 -32.5q-24 0 -50 8z" />
    <glyph glyph-name="Omacron" unicode="&#x14c;" horiz-adv-x="825" 
d="M197.5 25.5q-74.5 41.5 -117.5 115.5t-43 168q0 110 54 207.5t150.5 156.5t218.5 59q90 0 164 -41.5t117 -115.5t43 -168q0 -110 -53.5 -207.5t-150 -156.5t-217.5 -59q-91 0 -165.5 41.5zM535 112.5q75 47.5 118.5 125t43.5 162.5q0 76 -32.5 133t-89 87.5t-125.5 30.5
q-89 0 -163.5 -47.5t-118 -125t-43.5 -162.5q0 -76 32.5 -133t88.5 -87.5t125 -30.5q89 0 164 47.5zM349 876h276l-12 -66h-276z" />
    <glyph glyph-name="omacron" unicode="&#x14d;" horiz-adv-x="585" 
d="M125.5 16q-53.5 32 -83 87.5t-29.5 123.5q0 82 37.5 150.5t105.5 108.5t156 40q68 0 121 -32t82.5 -87.5t29.5 -123.5q0 -83 -37.5 -151.5t-105.5 -108t-155 -39.5q-68 0 -121.5 32zM361 90.5q46 29.5 72 79t26 108.5q0 48 -20 87t-55.5 61.5t-81.5 22.5
q-58 0 -104.5 -29.5t-72.5 -79.5t-26 -108q0 -49 20 -88t55.5 -61t81.5 -22q59 0 105 29.5zM209 712h277l-12 -67h-277z" />
    <glyph glyph-name="Obreve" unicode="&#x14e;" horiz-adv-x="825" 
d="M197.5 25.5q-74.5 41.5 -117.5 115.5t-43 168q0 110 54 207.5t150.5 156.5t218.5 59q90 0 164 -41.5t117 -115.5t43 -168q0 -110 -53.5 -207.5t-150 -156.5t-217.5 -59q-91 0 -165.5 41.5zM535 112.5q75 47.5 118.5 125t43.5 162.5q0 76 -32.5 133t-89 87.5t-125.5 30.5
q-89 0 -163.5 -47.5t-118 -125t-43.5 -162.5q0 -76 32.5 -133t88.5 -87.5t125 -30.5q89 0 164 47.5zM393.5 801.5q-32.5 29.5 -32.5 73.5q0 7 2 21h69q-1 -5 -1 -12q0 -21 12.5 -34.5t36.5 -13.5q26 0 44.5 16t23.5 44h68q-9 -61 -47.5 -92.5t-96.5 -31.5q-46 0 -78.5 29.5z
" />
    <glyph glyph-name="obreve" unicode="&#x14f;" horiz-adv-x="585" 
d="M125.5 16q-53.5 32 -83 87.5t-29.5 123.5q0 82 37.5 150.5t105.5 108.5t156 40q68 0 121 -32t82.5 -87.5t29.5 -123.5q0 -83 -37.5 -151.5t-105.5 -108t-155 -39.5q-68 0 -121.5 32zM361 90.5q46 29.5 72 79t26 108.5q0 48 -20 87t-55.5 61.5t-81.5 22.5
q-58 0 -104.5 -29.5t-72.5 -79.5t-26 -108q0 -49 20 -88t55.5 -61t81.5 -22q59 0 105 29.5zM252.5 636.5q-32.5 29.5 -32.5 74.5q0 7 2 21h69q-1 -5 -1 -12q0 -21 12.5 -35t36.5 -14q26 0 44.5 16.5t23.5 44.5h68q-10 -62 -48 -93.5t-96 -31.5q-46 0 -78.5 29.5z" />
    <glyph glyph-name="Ohungarumlaut" unicode="&#x150;" horiz-adv-x="825" 
d="M197.5 25.5q-74.5 41.5 -117.5 115.5t-43 168q0 110 54 207.5t150.5 156.5t218.5 59q90 0 164 -41.5t117 -115.5t43 -168q0 -110 -53.5 -207.5t-150 -156.5t-217.5 -59q-91 0 -165.5 41.5zM535 112.5q75 47.5 118.5 125t43.5 162.5q0 76 -32.5 133t-89 87.5t-125.5 30.5
q-89 0 -163.5 -47.5t-118 -125t-43.5 -162.5q0 -76 32.5 -133t88.5 -87.5t125 -30.5q89 0 164 47.5zM442 900h95l-93 -127h-77zM569 900h95l-93 -127h-77z" />
    <glyph glyph-name="ohungarumlaut" unicode="&#x151;" horiz-adv-x="585" 
d="M125.5 16q-53.5 32 -83 87.5t-29.5 123.5q0 82 37.5 150.5t105.5 108.5t156 40q68 0 121 -32t82.5 -87.5t29.5 -123.5q0 -83 -37.5 -151.5t-105.5 -108t-155 -39.5q-68 0 -121.5 32zM361 90.5q46 29.5 72 79t26 108.5q0 48 -20 87t-55.5 61.5t-81.5 22.5
q-58 0 -104.5 -29.5t-72.5 -79.5t-26 -108q0 -49 20 -88t55.5 -61t81.5 -22q59 0 105 29.5zM285 736h95l-93 -127h-77zM444 736h95l-93 -127h-77z" />
    <glyph glyph-name="OE" unicode="&#x152;" horiz-adv-x="1165" 
d="M197.5 25.5q-74.5 41.5 -117.5 115.5t-43 168q0 110 54 207.5t151 156.5t219 59q88 0 159.5 -39.5t112.5 -109.5l24 133h414l-14 -81h-330l-42 -237h298l-14 -80h-298l-42 -237h330l-15 -81h-414l18 99q-57 -55 -129 -85t-156 -30q-91 0 -165.5 41.5zM534.5 112.5
q74.5 47.5 118 125t43.5 162.5q0 76 -32.5 133t-88.5 87.5t-125 30.5q-89 0 -164 -47.5t-118 -125t-43 -162.5q0 -76 32.5 -133t88.5 -87.5t125 -30.5q89 0 163.5 47.5z" />
    <glyph glyph-name="oe" unicode="&#x153;" horiz-adv-x="1005" 
d="M125.5 16q-53.5 32 -83 87.5t-29.5 123.5q0 82 37.5 150.5t105.5 108.5t156 40q68 0 121 -32.5t81 -88.5q39 56 98 88.5t132 32.5q65 0 113 -29t73.5 -78t25.5 -108q0 -42 -9 -72h-404q-2 -18 -2 -32q0 -44 20.5 -77.5t53.5 -51t71 -17.5q61 0 101.5 24t68.5 71l65 -37
q-37 -66 -98 -100.5t-141 -34.5q-67 0 -118 31t-79 84q-40 -54 -101.5 -84.5t-136.5 -30.5q-68 0 -121.5 32zM361 90.5q46 29.5 72 79t26 108.5q0 49 -20 88t-55.5 61t-81.5 22q-58 0 -104.5 -29.5t-72.5 -79.5t-26 -108q0 -49 20 -88t55.5 -61t81.5 -22q59 0 105 29.5z
M870 309v14q0 51 -35.5 88.5t-100.5 37.5q-64 0 -111 -39.5t-66 -100.5h313z" />
    <glyph glyph-name="Racute" unicode="&#x154;" horiz-adv-x="586" 
d="M141 716h235q56 0 100 -24t69 -67t25 -99q0 -88 -57.5 -149t-151.5 -79l-3 -3l149 -291l-1 -4h-95l-146 292h-114l-53 -292h-84zM317 371q71 0 118.5 41t47.5 112q0 48 -32.5 79.5t-88.5 31.5h-151l-46 -264h152zM379 900h95l-93 -127h-77z" />
    <glyph glyph-name="racute" unicode="&#x155;" horiz-adv-x="375" 
d="M88 510h81l-13 -76h4q20 42 66.5 66.5t96.5 24.5q37 0 59 -10l-16 -93q-26 17 -69 17q-37 0 -72 -21t-60 -56.5t-32 -76.5l-50 -285h-84zM287 736h95l-93 -127h-76z" />
    <glyph glyph-name="uni0156" unicode="&#x156;" horiz-adv-x="586" 
d="M141 716h235q56 0 100 -24t69 -67t25 -99q0 -88 -57.5 -149t-151.5 -79l-3 -3l149 -291l-1 -4h-95l-146 292h-114l-53 -292h-84zM317 371q71 0 118.5 41t47.5 112q0 48 -32.5 79.5t-88.5 31.5h-151l-46 -264h152zM219 -155q-18 4 -29 18.5t-11 33.5q0 21 16 38t40 17
q25 0 40.5 -16.5t15.5 -40.5q0 -30 -18 -51l-71 -86l-34 29z" />
    <glyph glyph-name="uni0157" unicode="&#x157;" horiz-adv-x="375" 
d="M88 510h81l-13 -76h4q20 42 66.5 66.5t96.5 24.5q37 0 59 -10l-16 -93q-26 17 -69 17q-37 0 -72 -21t-60 -56.5t-32 -76.5l-50 -285h-84zM7 -155q-18 4 -29 18.5t-11 33.5q0 21 16 38t40 17q25 0 40.5 -16.5t15.5 -40.5q0 -30 -18 -51l-71 -86l-34 29z" />
    <glyph glyph-name="Rcaron" unicode="&#x158;" horiz-adv-x="586" 
d="M141 716h235q56 0 100 -24t69 -67t25 -99q0 -88 -57.5 -149t-151.5 -79l-3 -3l149 -291l-1 -4h-95l-146 292h-114l-53 -292h-84zM317 371q71 0 118.5 41t47.5 112q0 48 -32.5 79.5t-88.5 31.5h-151l-46 -264h152zM228 895l1 5h77l43 -63h8l63 63h88l-1 -5l-123 -116h-75z
" />
    <glyph glyph-name="rcaron" unicode="&#x159;" horiz-adv-x="375" 
d="M88 510h81l-13 -76h4q20 42 66.5 66.5t96.5 24.5q37 0 59 -10l-16 -93q-26 17 -69 17q-37 0 -72 -21t-60 -56.5t-32 -76.5l-50 -285h-84zM137 731l1 5h77l44 -64h8l62 64h89l-1 -5l-124 -117h-74z" />
    <glyph glyph-name="Sacute" unicode="&#x15a;" horiz-adv-x="564" 
d="M79 35.5q-62 51.5 -76 142.5l81 33q8 -65 48 -105.5t107 -40.5q41 0 78.5 17.5t61 49.5t23.5 74q0 45 -30.5 74.5t-98.5 54.5l-43 16q-63 24 -103 67t-40 111q0 58 32.5 104t87 72.5t118.5 26.5q65 0 110 -23.5t68.5 -57.5t28.5 -67l-82 -30q-7 38 -38 67.5t-93 29.5
q-61 0 -102.5 -31.5t-41.5 -83.5q0 -41 28 -68t83 -48l43 -16q161 -60 161 -186q0 -70 -34 -123t-93.5 -82t-133.5 -29q-88 0 -150 51.5zM372 900h95l-93 -127h-77z" />
    <glyph glyph-name="sacute" unicode="&#x15b;" horiz-adv-x="468" 
d="M58.5 23q-52.5 39 -69.5 101l80 32q10 -46 47 -71.5t85 -25.5t79.5 23t31.5 58q0 31 -21 51.5t-65 31.5l-51 13q-61 16 -96.5 50t-35.5 86q0 43 25.5 78.5t71.5 55.5t103 20q68 0 119.5 -32t68.5 -84l-81 -31q-12 33 -41 52t-71 19q-48 0 -77.5 -20t-29.5 -52
q0 -22 19.5 -41t54.5 -28l66 -17q60 -15 94.5 -52t34.5 -90q0 -75 -55 -120.5t-153 -45.5q-81 0 -133.5 39zM299 736h95l-93 -127h-76z" />
    <glyph glyph-name="Scircumflex" unicode="&#x15c;" horiz-adv-x="564" 
d="M79 35.5q-62 51.5 -76 142.5l81 33q8 -65 48 -105.5t107 -40.5q41 0 78.5 17.5t61 49.5t23.5 74q0 45 -30.5 74.5t-98.5 54.5l-43 16q-63 24 -103 67t-40 111q0 58 32.5 104t87 72.5t118.5 26.5q65 0 110 -23.5t68.5 -57.5t28.5 -67l-82 -30q-7 38 -38 67.5t-93 29.5
q-61 0 -102.5 -31.5t-41.5 -83.5q0 -41 28 -68t83 -48l43 -16q161 -60 161 -186q0 -70 -34 -123t-93.5 -82t-133.5 -29q-88 0 -150 51.5zM193 784l123 116h75l81 -116l-1 -5h-76l-44 63h-8l-63 -63h-88z" />
    <glyph glyph-name="scircumflex" unicode="&#x15d;" horiz-adv-x="468" 
d="M58.5 23q-52.5 39 -69.5 101l80 32q10 -46 47 -71.5t85 -25.5t79.5 23t31.5 58q0 31 -21 51.5t-65 31.5l-51 13q-61 16 -96.5 50t-35.5 86q0 43 25.5 78.5t71.5 55.5t103 20q68 0 119.5 -32t68.5 -84l-81 -31q-12 33 -41 52t-71 19q-48 0 -77.5 -20t-29.5 -52
q0 -22 19.5 -41t54.5 -28l66 -17q60 -15 94.5 -52t34.5 -90q0 -75 -55 -120.5t-153 -45.5q-81 0 -133.5 39zM122 619l123 117h74l82 -117l-1 -5h-77l-43 64h-9l-62 -64h-88z" />
    <glyph glyph-name="Scedilla" unicode="&#x15e;" horiz-adv-x="564" 
d="M490 218q0 -70 -34 -123t-93.5 -82t-133.5 -29h-6l-20 -33q15 3 22 3q34 0 55 -24.5t21 -63.5q0 -45 -30.5 -74t-80.5 -29q-33 0 -58.5 19.5t-31.5 47.5l53 22q2 -15 13.5 -25.5t27.5 -10.5q21 0 35.5 13.5t14.5 36.5q0 16 -11 27t-28 11q-19 0 -36 -17l-41 20l45 83
q-67 15 -112.5 64t-57.5 124l81 33q8 -65 48 -105.5t107 -40.5q41 0 78.5 17.5t61 49.5t23.5 74q0 45 -30.5 74.5t-98.5 54.5l-43 16q-63 24 -103 67t-40 111q0 58 32.5 104t87 72.5t118.5 26.5q65 0 110 -23.5t68.5 -57.5t28.5 -67l-82 -30q-7 38 -38 67.5t-93 29.5
q-61 0 -102.5 -31.5t-41.5 -83.5q0 -41 28 -68t83 -48l43 -16q161 -60 161 -186z" />
    <glyph glyph-name="scedilla" unicode="&#x15f;" horiz-adv-x="468" 
d="M365.5 240q34.5 -37 34.5 -90q0 -75 -55 -120.5t-153 -45.5h-3l-20 -33q15 3 22 3q34 0 55 -24.5t21 -63.5q0 -45 -30.5 -74t-80.5 -29q-33 0 -58.5 19.5t-31.5 47.5l53 22q2 -15 13.5 -25.5t27.5 -10.5q21 0 35.5 13.5t14.5 36.5q0 16 -11 27t-28 11q-19 0 -36 -17
l-41 20l45 82q-59 12 -98 48t-52 87l80 32q10 -46 47 -71.5t85 -25.5t79.5 23t31.5 58q0 31 -21 51.5t-65 31.5l-51 13q-61 16 -96.5 50t-35.5 86q0 43 25.5 78.5t71.5 55.5t103 20q68 0 119.5 -32t68.5 -84l-81 -31q-12 33 -41 52t-71 19q-48 0 -77.5 -20t-29.5 -52
q0 -22 19.5 -41t54.5 -28l66 -17q60 -15 94.5 -52z" />
    <glyph glyph-name="Scaron" unicode="&#x160;" horiz-adv-x="564" 
d="M79 35.5q-62 51.5 -76 142.5l81 33q8 -65 48 -105.5t107 -40.5q41 0 78.5 17.5t61 49.5t23.5 74q0 45 -30.5 74.5t-98.5 54.5l-43 16q-63 24 -103 67t-40 111q0 58 32.5 104t87 72.5t118.5 26.5q65 0 110 -23.5t68.5 -57.5t28.5 -67l-82 -30q-7 38 -38 67.5t-93 29.5
q-61 0 -102.5 -31.5t-41.5 -83.5q0 -41 28 -68t83 -48l43 -16q161 -60 161 -186q0 -70 -34 -123t-93.5 -82t-133.5 -29q-88 0 -150 51.5zM221 895l1 5h77l43 -63h8l63 63h88l-1 -5l-123 -116h-75z" />
    <glyph glyph-name="scaron" unicode="&#x161;" horiz-adv-x="468" 
d="M58.5 23q-52.5 39 -69.5 101l80 32q10 -46 47 -71.5t85 -25.5t79.5 23t31.5 58q0 31 -21 51.5t-65 31.5l-51 13q-61 16 -96.5 50t-35.5 86q0 43 25.5 78.5t71.5 55.5t103 20q68 0 119.5 -32t68.5 -84l-81 -31q-12 33 -41 52t-71 19q-48 0 -77.5 -20t-29.5 -52
q0 -22 19.5 -41t54.5 -28l66 -17q60 -15 94.5 -52t34.5 -90q0 -75 -55 -120.5t-153 -45.5q-81 0 -133.5 39zM149 731l1 5h77l44 -64h8l62 64h89l-1 -5l-124 -117h-74z" />
    <glyph glyph-name="uni0162" unicode="&#x162;" horiz-adv-x="538" 
d="M130.5 -217.5q-25.5 19.5 -31.5 47.5l53 22q2 -15 13.5 -25.5t27.5 -10.5q20 0 34.5 13.5t14.5 36.5q0 16 -10.5 27t-27.5 11q-19 0 -36 -17l-41 20l51 93h-17l112 635h-201l15 81h486l-15 -81h-200l-113 -635h-14l-30 -49q18 3 23 3q34 0 55 -24.5t21 -63.5
q0 -45 -30.5 -74t-80.5 -29q-33 0 -58.5 19.5z" />
    <glyph glyph-name="uni0163" unicode="&#x163;" horiz-adv-x="366" 
d="M71.5 -217.5q-25.5 19.5 -32.5 47.5l53 22q3 -15 14.5 -25.5t27.5 -10.5q20 0 34.5 13.5t14.5 36.5q0 16 -10.5 27t-27.5 11q-20 0 -37 -17l-40 20l55 103q-23 14 -36 38t-13 55q0 22 5 49l50 281h-90l14 77h89l26 144h84l-25 -144h125l-14 -77h-125l-48 -272
q-4 -30 -4 -38q0 -22 14.5 -37t38.5 -15q17 0 28.5 3.5t22.5 10.5l15 -75q-20 -9 -40 -13.5t-47 -4.5q-9 0 -25 2l-26 -43q18 3 23 3q34 0 55 -24.5t21 -63.5q0 -45 -30.5 -74t-80.5 -29q-33 0 -58.5 19.5z" />
    <glyph glyph-name="Tcaron" unicode="&#x164;" horiz-adv-x="538" 
d="M273 635h-201l15 81h486l-15 -81h-200l-113 -635h-84zM216 895l1 5h77l43 -63h8l63 63h88l-1 -5l-123 -116h-75z" />
    <glyph glyph-name="tcaron" unicode="&#x165;" horiz-adv-x="349" 
d="M329 716h86l-50 -142h-61zM107 22.5q-33 30.5 -33 80.5q0 23 5 49l50 281h-90l14 77h89l26 144h84l-25 -144h125l-14 -77h-125l-48 -271q-4 -23 -4 -39q0 -25 15.5 -38.5t41.5 -13.5q32 0 61 17l-14 -83q-32 -13 -72 -13q-53 0 -86 30.5z" />
    <glyph glyph-name="Tbar" unicode="&#x166;" horiz-adv-x="538" 
d="M220 341h-129l12 66h129l41 228h-201l15 81h486l-15 -81h-200l-41 -228h131l-12 -66h-131l-60 -341h-84z" />
    <glyph glyph-name="tbar" unicode="&#x167;" horiz-adv-x="365" 
d="M107 22.5q-33 30.5 -33 80.5q0 23 5 49l15 82h-87l14 77h87l21 122h-90l14 77h89l26 144h84l-25 -144h125l-14 -77h-125l-21 -122h121l-14 -77h-121l-13 -72q-4 -23 -4 -39q0 -25 15.5 -38.5t41.5 -13.5q32 0 61 17l-14 -83q-32 -13 -72 -13q-53 0 -86 30.5z" />
    <glyph glyph-name="Utilde" unicode="&#x168;" horiz-adv-x="661" 
d="M156 10.5q-50 26.5 -79.5 75t-29.5 113.5q0 44 8 94l75 423h84l-78 -443q-6 -35 -6 -61q0 -68 38 -107.5t112 -39.5q85 0 140.5 54.5t71.5 141.5l80 455h84l-82 -466q-23 -126 -102 -196t-206 -70q-60 0 -110 26.5zM440 786q-15 6 -34 18q-18 11 -31.5 17t-29.5 6
q-33 0 -42 -37h-70q8 56 38 85t74 29q17 0 32.5 -6t34.5 -18q18 -11 31.5 -17t28.5 -6q33 0 42 37h70q-7 -56 -37.5 -85t-74.5 -29q-17 0 -32 6z" />
    <glyph glyph-name="utilde" unicode="&#x169;" horiz-adv-x="561" 
d="M363 74q-27 -41 -72 -65.5t-103 -24.5q-76 0 -120 41.5t-44 109.5q0 33 7 71l54 304h85l-55 -306q-5 -33 -5 -50q0 -44 29.5 -68.5t77.5 -24.5q62 0 110 45.5t61 115.5l51 288h85l-90 -510h-80l13 74h-4zM365 622q-15 6 -34 18q-18 11 -31.5 17t-29.5 6q-33 0 -42 -37
h-70q7 56 37 84.5t74 28.5q17 0 31 -6t36 -18q18 -11 31.5 -17t29.5 -6q32 0 41 37h71q-8 -56 -38 -84.5t-74 -28.5q-17 0 -32 6z" />
    <glyph glyph-name="Umacron" unicode="&#x16a;" horiz-adv-x="661" 
d="M156 10.5q-50 26.5 -79.5 75t-29.5 113.5q0 44 8 94l75 423h84l-78 -443q-6 -35 -6 -61q0 -68 38 -107.5t112 -39.5q85 0 140.5 54.5t71.5 141.5l80 455h84l-82 -466q-23 -126 -102 -196t-206 -70q-60 0 -110 26.5zM276 876h276l-12 -66h-276z" />
    <glyph glyph-name="umacron" unicode="&#x16b;" horiz-adv-x="561" 
d="M363 74q-27 -41 -72 -65.5t-103 -24.5q-76 0 -120 41.5t-44 109.5q0 33 7 71l54 304h85l-55 -306q-5 -33 -5 -50q0 -44 29.5 -68.5t77.5 -24.5q62 0 110 45.5t61 115.5l51 288h85l-90 -510h-80l13 74h-4zM201 712h277l-12 -67h-277z" />
    <glyph glyph-name="Ubreve" unicode="&#x16c;" horiz-adv-x="661" 
d="M156 10.5q-50 26.5 -79.5 75t-29.5 113.5q0 44 8 94l75 423h84l-78 -443q-6 -35 -6 -61q0 -68 38 -107.5t112 -39.5q85 0 140.5 54.5t71.5 141.5l80 455h84l-82 -466q-23 -126 -102 -196t-206 -70q-60 0 -110 26.5zM320.5 801.5q-32.5 29.5 -32.5 73.5q0 7 2 21h69
q-1 -5 -1 -12q0 -21 12.5 -34.5t36.5 -13.5q26 0 44.5 16t23.5 44h68q-9 -61 -47.5 -92.5t-96.5 -31.5q-46 0 -78.5 29.5z" />
    <glyph glyph-name="ubreve" unicode="&#x16d;" horiz-adv-x="561" 
d="M363 74q-27 -41 -72 -65.5t-103 -24.5q-76 0 -120 41.5t-44 109.5q0 33 7 71l54 304h85l-55 -306q-5 -33 -5 -50q0 -44 29.5 -68.5t77.5 -24.5q62 0 110 45.5t61 115.5l51 288h85l-90 -510h-80l13 74h-4zM244.5 636.5q-32.5 29.5 -32.5 74.5q0 7 2 21h69q-1 -5 -1 -12
q0 -21 12.5 -35t36.5 -14q26 0 44.5 16.5t23.5 44.5h68q-10 -62 -48 -93.5t-96 -31.5q-46 0 -78.5 29.5z" />
    <glyph glyph-name="Uring" unicode="&#x16e;" horiz-adv-x="661" 
d="M156 10.5q-50 26.5 -79.5 75t-29.5 113.5q0 44 8 94l75 423h84l-78 -443q-6 -35 -6 -61q0 -68 38 -107.5t112 -39.5q85 0 140.5 54.5t71.5 141.5l80 455h84l-82 -466q-23 -126 -102 -196t-206 -70q-60 0 -110 26.5zM338 783q-30 30 -30 73q0 44 29.5 73.5t73.5 29.5
q43 0 73.5 -30t30.5 -73t-30.5 -73t-73.5 -30t-73 30zM444 822q14 14 14 34t-14 33.5t-33 13.5t-33 -14t-14 -33t14 -33.5t33 -14.5t33 14z" />
    <glyph glyph-name="uring" unicode="&#x16f;" horiz-adv-x="561" 
d="M363 74q-27 -41 -72 -65.5t-103 -24.5q-76 0 -120 41.5t-44 109.5q0 33 7 71l54 304h85l-55 -306q-5 -33 -5 -50q0 -44 29.5 -68.5t77.5 -24.5q62 0 110 45.5t61 115.5l51 288h85l-90 -510h-80l13 74h-4zM262.5 618.5q-30.5 30.5 -30.5 73.5t30.5 73t73.5 30t73 -30
t30 -73t-30 -73.5t-73 -30.5t-73.5 30.5zM369 658q14 14 14 34q0 19 -14 33t-33 14q-20 0 -33.5 -13.5t-13.5 -33.5t13.5 -34t33.5 -14q19 0 33 14z" />
    <glyph glyph-name="Uhungarumlaut" unicode="&#x170;" horiz-adv-x="661" 
d="M156 10.5q-50 26.5 -79.5 75t-29.5 113.5q0 44 8 94l75 423h84l-78 -443q-6 -35 -6 -61q0 -68 38 -107.5t112 -39.5q85 0 140.5 54.5t71.5 141.5l80 455h84l-82 -466q-23 -126 -102 -196t-206 -70q-60 0 -110 26.5zM369 900h95l-93 -127h-77zM496 900h95l-93 -127h-77z
" />
    <glyph glyph-name="uhungarumlaut" unicode="&#x171;" horiz-adv-x="561" 
d="M363 74q-27 -41 -72 -65.5t-103 -24.5q-76 0 -120 41.5t-44 109.5q0 33 7 71l54 304h85l-55 -306q-5 -33 -5 -50q0 -44 29.5 -68.5t77.5 -24.5q62 0 110 45.5t61 115.5l51 288h85l-90 -510h-80l13 74h-4zM277 736h95l-93 -127h-77zM436 736h95l-93 -127h-77z" />
    <glyph glyph-name="Uogonek" unicode="&#x172;" horiz-adv-x="661" 
d="M234 -197.5q-29 26.5 -29 65.5q0 34 16.5 63.5t46.5 52.5h-6q-59 1 -108 27.5t-78 75t-29 112.5q0 44 8 94l75 423h84l-78 -443q-6 -35 -6 -61q0 -68 38 -107.5t112 -39.5q85 0 140.5 54.5t71.5 141.5l80 455h84l-82 -466q-17 -93 -64 -154.5t-114 -86.5
q-51 -20 -81.5 -53t-30.5 -70q0 -19 11 -29.5t29 -10.5q12 0 20.5 2t21.5 7l-12 -72q-11 -4 -20.5 -5.5t-26.5 -1.5q-44 0 -73 26.5z" />
    <glyph glyph-name="uogonek" unicode="&#x173;" horiz-adv-x="561" 
d="M293.5 -197.5q-28.5 26.5 -28.5 65.5q0 81 89 133l13 73h-4q-27 -41 -72 -65.5t-103 -24.5q-76 0 -120 41.5t-44 109.5q0 33 7 71l54 304h85l-55 -306q-5 -33 -5 -50q0 -44 29.5 -68.5t77.5 -24.5q62 0 110 45.5t61 115.5l51 288h85l-90 -510q-35 -20 -63 -51.5
t-28 -62.5q0 -19 11.5 -29.5t28.5 -10.5q21 0 42 9l-12 -72q-11 -4 -20.5 -5.5t-26.5 -1.5q-44 0 -72.5 26.5z" />
    <glyph glyph-name="Wcircumflex" unicode="&#x174;" horiz-adv-x="944" 
d="M79 716h91l38 -526l4 -49h4l23 49l252 526h88l61 -526l6 -49h4l20 49l223 526h95l-316 -716h-88l-65 518l-7 56h-4l-26 -56l-248 -518h-89zM400 784l123 116h75l81 -116l-1 -5h-76l-44 63h-8l-63 -63h-88z" />
    <glyph glyph-name="wcircumflex" unicode="&#x175;" horiz-adv-x="778" 
d="M32 510h86l48 -403h1l200 403h90l59 -402h1l190 402h89l-254 -510h-89l-58 407l-203 -407h-86zM283 619l123 117h74l82 -117l-1 -5h-77l-43 64h-9l-62 -64h-88z" />
    <glyph glyph-name="Ycircumflex" unicode="&#x176;" horiz-adv-x="595" 
d="M250 331l-174 385h97l130 -300h4l233 300h102l-307 -385l-59 -331h-84zM214 784l123 116h75l81 -116l-1 -5h-76l-44 63h-8l-63 -63h-88z" />
    <glyph glyph-name="ycircumflex" unicode="&#x177;" horiz-adv-x="516" 
d="M174 33l-127 477h90l94 -379h2l222 379h95l-445 -726h-89zM165 619l123 117h74l82 -117l-1 -5h-77l-43 64h-9l-62 -64h-88z" />
    <glyph glyph-name="Ydieresis" unicode="&#x178;" horiz-adv-x="595" 
d="M250 331l-174 385h97l130 -300h4l233 300h102l-307 -385l-59 -331h-84zM248.5 805.5q-16.5 16.5 -16.5 37.5q0 23 16 38.5t38 15.5q23 0 38.5 -15.5t15.5 -38.5q0 -22 -15.5 -38t-38.5 -16q-21 0 -37.5 16.5zM413 805.5q-16 16.5 -16 37.5q0 23 16 38.5t37 15.5
q23 0 38.5 -15.5t15.5 -38.5q0 -22 -15.5 -38t-38.5 -16q-21 0 -37 16.5z" />
    <glyph glyph-name="Zacute" unicode="&#x179;" horiz-adv-x="571" 
d="M-11 89l479 546h-367l14 81h468l-16 -89l-480 -546h388l-15 -81h-487zM383 900h95l-93 -127h-77z" />
    <glyph glyph-name="zacute" unicode="&#x17a;" horiz-adv-x="481" 
d="M345 433h-290l14 77h396l-12 -73l-362 -360h301l-14 -77h-407l12 73zM308 736h95l-93 -127h-76z" />
    <glyph glyph-name="Zdotaccent" unicode="&#x17b;" horiz-adv-x="571" 
d="M-11 89l479 546h-367l14 81h468l-16 -89l-480 -546h388l-15 -81h-487zM326 822q-15 15 -15 34q0 21 15 35t35 14q21 0 35 -14t14 -35q0 -20 -14 -34.5t-35 -14.5q-20 0 -35 15z" />
    <glyph glyph-name="zdotaccent" unicode="&#x17c;" horiz-adv-x="481" 
d="M345 433h-290l14 77h396l-12 -73l-362 -360h301l-14 -77h-407l12 73zM248 641q-16 16 -16 38q0 23 15.5 38t37.5 15q23 0 38.5 -15t15.5 -38q0 -22 -15.5 -38t-38.5 -16q-21 0 -37 16z" />
    <glyph glyph-name="Zcaron" unicode="&#x17d;" horiz-adv-x="571" 
d="M-11 89l479 546h-367l14 81h468l-16 -89l-480 -546h388l-15 -81h-487zM232 895l1 5h77l43 -63h8l63 63h88l-1 -5l-123 -116h-75z" />
    <glyph glyph-name="zcaron" unicode="&#x17e;" horiz-adv-x="481" 
d="M345 433h-290l14 77h396l-12 -73l-362 -360h301l-14 -77h-407l12 73zM158 731l1 5h77l44 -64h8l62 64h89l-1 -5l-124 -117h-74z" />
    <glyph glyph-name="florin" unicode="&#x192;" horiz-adv-x="556" 
d="M424.5 626q-22.5 -17 -29.5 -49l-35 -174h131v-78h-146l-82 -412q-12 -59 -52.5 -96t-100.5 -37q-32 0 -61 10v82q33 -15 62 -15q28 0 47.5 18.5t25.5 50.5l79 399h-105v78h120l37 185q11 59 55.5 95.5t108.5 36.5q22 0 32.5 -2t25.5 -7v-83q-25 15 -59 15
q-31 0 -53.5 -17z" />
    <glyph glyph-name="Aringacute" unicode="&#x1fa;" horiz-adv-x="669" 
d="M327 680q-15 15 -24 34.5t-9 41.5q0 40 26 69t66 34l2 -1l44 74h86l-63 -90q21 -14 33.5 -37t12.5 -49t-13 -49.5t-35 -37.5l135 -669h-90l-36 197h-309l-108 -197h-95zM428 725q13 13 13 31t-13 31t-31 13t-30.5 -13t-12.5 -31t12.5 -31t30.5 -13t31 13zM446 277
l-50 258l-14 75h-5l-182 -333h251z" />
    <glyph glyph-name="aringacute" unicode="&#x1fb;" horiz-adv-x="528" 
d="M353 917h95l-78 -106h-75zM249 616q-30 30 -30 73q0 44 30 73.5t73 29.5t73.5 -30t30.5 -73t-30.5 -73t-73.5 -30t-73 30zM355 655q14 14 14 34t-13.5 33.5t-33.5 13.5q-19 0 -33 -14t-14 -33t14 -33.5t33 -14.5t33 14zM107.5 4.5q-38.5 20.5 -61 56t-22.5 79.5
q0 85 62.5 135.5t171.5 50.5q40 0 78.5 -9.5t68.5 -25.5l6 30q3 17 3 29q0 45 -35.5 72.5t-89.5 27.5q-83 0 -137 -68l-66 47q36 46 91 71.5t121 25.5q92 0 144.5 -44.5t52.5 -119.5q0 -21 -5 -51l-56 -311h-81l13 72h-4q-27 -40 -71 -64t-100 -24q-45 0 -83.5 20.5z
M330 104.5q51 45.5 63 116.5q-31 18 -62 27t-78 9q-63 0 -102.5 -29.5t-39.5 -81.5q0 -40 28.5 -63.5t70.5 -23.5q69 0 120 45.5z" />
    <glyph glyph-name="AEacute" unicode="&#x1fc;" horiz-adv-x="959" 
d="M495 716h469l-14 -81h-330l-42 -237h298l-14 -80h-298l-42 -237h330l-15 -81h-414l35 197h-262l-152 -197h-102zM472 277l63 358h-4l-38 -50l-237 -308h216zM776 900h95l-93 -127h-77z" />
    <glyph glyph-name="aeacute" unicode="&#x1fd;" horiz-adv-x="944" 
d="M107.5 4.5q-38.5 20.5 -61 56t-22.5 79.5q0 91 67 138.5t174 47.5q45 0 82.5 -10t58.5 -23l6 31q3 21 3 23q0 47 -33.5 75t-88.5 28q-43 0 -79 -17.5t-57 -50.5l-70 41q31 49 85.5 76t126.5 27q64 0 111 -26.5t67 -69.5q36 46 89 71t116 25q66 0 114 -29t73 -78t25 -108
q0 -42 -9 -72h-403q-2 -18 -2 -32q0 -44 20.5 -77.5t53.5 -51t71 -17.5q60 0 100.5 24t69.5 71l65 -37q-38 -66 -99 -100.5t-141 -34.5q-71 0 -123.5 37t-74.5 92q-40 -64 -100 -96.5t-131 -32.5q-45 0 -83.5 20.5zM809 309v14q0 32 -15.5 61t-46.5 47t-75 18
q-63 0 -110.5 -39.5t-66.5 -100.5h314zM330 104.5q51 45.5 63 116.5q-64 36 -140 36q-63 0 -102.5 -29.5t-39.5 -81.5q0 -40 28.5 -63.5t70.5 -23.5q69 0 120 45.5zM538 736h95l-93 -127h-76z" />
    <glyph glyph-name="Oslashacute" unicode="&#x1fe;" horiz-adv-x="825" 
d="M81 5l53 66q-46 45 -71.5 105.5t-25.5 132.5q0 110 54 207.5t150.5 156.5t218.5 59q91 0 168 -44l54 68l58 -45l-54 -66q47 -44 72.5 -105t25.5 -133q0 -110 -53.5 -207.5t-150 -156.5t-217.5 -59q-93 0 -170 44l-53 -67zM574 620q-57 31 -124 31q-89 0 -163.5 -47.5
t-118 -125t-43.5 -162.5q0 -110 64 -177zM535 112.5q75 47.5 118.5 125t43.5 162.5q0 107 -65 177l-385 -482q58 -30 124 -30q89 0 164 47.5zM506 900h95l-93 -127h-77z" />
    <glyph glyph-name="oslashacute" unicode="&#x1ff;" horiz-adv-x="585" 
d="M46 8l34 43q-32 33 -49.5 78.5t-17.5 97.5q0 82 37.5 150.5t105.5 108.5t156 40q63 0 117 -30l37 48l53 -41l-38 -49q31 -32 47.5 -76t16.5 -95q0 -83 -37.5 -151.5t-105.5 -108t-155 -39.5q-61 0 -113 27l-34 -43zM377 429q-34 20 -75 20q-58 0 -104.5 -29.5
t-72.5 -79.5t-26 -108q0 -64 35 -112zM361 90.5q46 29.5 72 79t26 108.5q0 63 -32 107l-241 -308q34 -16 70 -16q59 0 105 29.5zM365 736h95l-93 -127h-76z" />
    <glyph glyph-name="uni0218" unicode="&#x218;" horiz-adv-x="564" 
d="M79 35.5q-62 51.5 -76 142.5l81 33q8 -65 48 -105.5t107 -40.5q41 0 78.5 17.5t61 49.5t23.5 74q0 45 -30.5 74.5t-98.5 54.5l-43 16q-63 24 -103 67t-40 111q0 58 32.5 104t87 72.5t118.5 26.5q65 0 110 -23.5t68.5 -57.5t28.5 -67l-82 -30q-7 38 -38 67.5t-93 29.5
q-61 0 -102.5 -31.5t-41.5 -83.5q0 -41 28 -68t83 -48l43 -16q161 -60 161 -186q0 -70 -34 -123t-93.5 -82t-133.5 -29q-88 0 -150 51.5zM172 -155q-18 4 -29 18.5t-11 33.5q0 21 16 38t40 17q25 0 40.5 -16.5t15.5 -40.5q0 -30 -18 -51l-71 -86l-34 29z" />
    <glyph glyph-name="uni0219" unicode="&#x219;" horiz-adv-x="468" 
d="M58.5 23q-52.5 39 -69.5 101l80 32q10 -46 47 -71.5t85 -25.5t79.5 23t31.5 58q0 31 -21 51.5t-65 31.5l-51 13q-61 16 -96.5 50t-35.5 86q0 43 25.5 78.5t71.5 55.5t103 20q68 0 119.5 -32t68.5 -84l-81 -31q-12 33 -41 52t-71 19q-48 0 -77.5 -20t-29.5 -52
q0 -22 19.5 -41t54.5 -28l66 -17q60 -15 94.5 -52t34.5 -90q0 -75 -55 -120.5t-153 -45.5q-81 0 -133.5 39zM138 -155q-18 4 -29 18.5t-11 33.5q0 21 16 38t40 17q25 0 40.5 -16.5t15.5 -40.5q0 -30 -18 -51l-71 -86l-34 29z" />
    <glyph glyph-name="uni021A" unicode="&#x21a;" horiz-adv-x="538" 
d="M273 635h-201l15 81h486l-15 -81h-200l-113 -635h-84zM167 -155q-18 4 -29 18.5t-11 33.5q0 21 16 38t40 17q25 0 40.5 -16.5t15.5 -40.5q0 -30 -18 -51l-71 -86l-34 29z" />
    <glyph glyph-name="uni021B" unicode="&#x21b;" horiz-adv-x="366" 
d="M107 22.5q-33 30.5 -33 80.5q0 23 5 49l50 281h-90l14 77h89l26 144h84l-25 -144h125l-14 -77h-125l-48 -271q-4 -23 -4 -39q0 -25 15.5 -38.5t41.5 -13.5q32 0 61 17l-14 -83q-32 -13 -72 -13q-53 0 -86 30.5zM137 -155q-18 4 -29 18.5t-11 33.5q0 21 16 38t40 17
q25 0 40.5 -16.5t15.5 -40.5q0 -30 -18 -51l-71 -86l-34 29z" />
    <glyph glyph-name="uni0237" unicode="&#x237;" horiz-adv-x="230" 
d="M-130 -218l14 79q7 -4 19 -7t22 -3q31 0 47.5 18.5t22.5 52.5l104 588h85l-104 -592q-14 -79 -55 -111.5t-106 -32.5q-25 0 -49 8z" />
    <glyph glyph-name="uni0259" unicode="&#x259;" horiz-adv-x="547" 
d="M112 13q-48 29 -73 78t-25 108q0 42 9 72h403q3 12 3 32q0 44 -20.5 77.5t-54 51t-71.5 17.5q-59 0 -100.5 -24.5t-68.5 -71.5l-66 37q37 67 98.5 101.5t141.5 34.5q69 0 120.5 -31.5t79 -85t27.5 -117.5q0 -80 -36.5 -151t-102.5 -114t-150 -43q-66 0 -114 29z
M347.5 101q47.5 40 65.5 100h-314v-14q0 -32 15.5 -61t46.5 -47t75 -18q64 0 111.5 40z" />
    <glyph glyph-name="circumflex" unicode="&#x2c6;" horiz-adv-x="395" 
d="M99 600l123 116h75l81 -116l-1 -5h-76l-44 63h-8l-63 -63h-88z" />
    <glyph glyph-name="caron" unicode="&#x2c7;" horiz-adv-x="395" 
d="M120 711l1 5h77l43 -63h8l63 63h88l-1 -5l-123 -116h-75z" />
    <glyph glyph-name="breve" unicode="&#x2d8;" horiz-adv-x="399" 
d="M165.5 617.5q-32.5 29.5 -32.5 73.5q0 7 2 21h69q-1 -5 -1 -12q0 -21 12.5 -34.5t36.5 -13.5q26 0 44.5 16t23.5 44h68q-9 -61 -47.5 -92.5t-96.5 -31.5q-46 0 -78.5 29.5z" />
    <glyph glyph-name="dotaccent" unicode="&#x2d9;" horiz-adv-x="227" 
d="M129 621.5q-16 16.5 -16 37.5q0 23 16 38.5t38 15.5q23 0 38 -15.5t15 -38.5q0 -22 -15 -38t-38 -16q-22 0 -38 16.5z" />
    <glyph glyph-name="ring" unicode="&#x2da;" horiz-adv-x="402" 
d="M178 599q-30 30 -30 73q0 44 30 73.5t73 29.5t73.5 -30t30.5 -73t-30.5 -73t-73.5 -30t-73 30zM284 638q14 14 14 34t-13.5 33.5t-33.5 13.5q-19 0 -33 -14t-14 -33t14 -33.5t33 -14.5t33 14z" />
    <glyph glyph-name="ogonek" unicode="&#x2db;" horiz-adv-x="401" 
d="M53 -197.5q-29 26.5 -29 65.5q0 78 85 132h85q-35 -20 -63 -51.5t-28 -62.5q0 -19 11 -29.5t29 -10.5q12 0 20.5 2t21.5 7l-12 -72q-11 -4 -20.5 -5.5t-26.5 -1.5q-44 0 -73 26.5z" />
    <glyph glyph-name="tilde" unicode="&#x2dc;" horiz-adv-x="398" 
d="M282 602q-15 6 -34 18q-18 11 -31.5 17t-29.5 6q-33 0 -42 -37h-70q8 56 38 85t74 29q17 0 32.5 -6t34.5 -18q18 -11 31.5 -17t28.5 -6q33 0 42 37h70q-7 -56 -37.5 -85t-74.5 -29q-17 0 -32 6z" />
    <glyph glyph-name="hungarumlaut" unicode="&#x2dd;" horiz-adv-x="389" 
d="M185 716h95l-93 -127h-77zM344 716h95l-93 -127h-77z" />
    <glyph glyph-name="gravecomb" unicode="&#x300;" horiz-adv-x="0" 
d="M-232 736h91l29 -127h-72z" />
    <glyph glyph-name="acutecomb" unicode="&#x301;" horiz-adv-x="0" 
d="M-128 736h95l-93 -127h-76z" />
    <glyph glyph-name="uni0302" unicode="&#x302;" horiz-adv-x="0" 
d="M-292 619l123 117h74l82 -117l-1 -5h-77l-43 64h-9l-62 -64h-88z" />
    <glyph glyph-name="tildecomb" unicode="&#x303;" horiz-adv-x="0" 
d="M-112 622q-15 6 -34 18q-18 11 -31.5 17t-29.5 6q-33 0 -42 -37h-70q7 56 37 84.5t74 28.5q17 0 31 -6t36 -18q18 -11 31.5 -17t29.5 -6q32 0 41 37h71q-8 -56 -38 -84.5t-74 -28.5q-17 0 -32 6z" />
    <glyph glyph-name="uni0304" unicode="&#x304;" horiz-adv-x="0" 
d="M-276 712h277l-12 -67h-277z" />
    <glyph glyph-name="uni0306" unicode="&#x306;" horiz-adv-x="0" 
d="M-229.5 636.5q-32.5 29.5 -32.5 74.5q0 7 2 21h69q-1 -5 -1 -12q0 -21 12.5 -35t36.5 -14q26 0 44.5 16.5t23.5 44.5h68q-10 -62 -48 -93.5t-96 -31.5q-46 0 -78.5 29.5z" />
    <glyph glyph-name="uni0307" unicode="&#x307;" horiz-adv-x="0" 
d="M-94 641q-16 16 -16 38q0 23 15.5 38t37.5 15q23 0 38.5 -15t15.5 -38q0 -22 -15.5 -38t-38.5 -16q-21 0 -37 16z" />
    <glyph glyph-name="uni0308" unicode="&#x308;" horiz-adv-x="0" 
d="M-261 641q-16 16 -16 38q0 23 15.5 38t37.5 15q24 0 39 -15t15 -38q0 -22 -15.5 -38t-38.5 -16q-21 0 -37 16zM-97 641q-16 16 -16 38q0 23 16 38t38 15q23 0 38 -15t15 -38q0 -22 -15 -38t-38 -16q-22 0 -38 16z" />
    <glyph glyph-name="uni030A" unicode="&#x30a;" horiz-adv-x="0" 
d="M-220.5 618.5q-30.5 30.5 -30.5 73.5t30.5 73t73.5 30t73 -30t30 -73t-30 -73.5t-73 -30.5t-73.5 30.5zM-114 658q14 14 14 34q0 19 -14 33t-33 14q-20 0 -33.5 -13.5t-13.5 -33.5t13.5 -34t33.5 -14q19 0 33 14z" />
    <glyph glyph-name="uni030B" unicode="&#x30b;" horiz-adv-x="0" 
d="M-201 736h95l-93 -127h-77zM-42 736h95l-93 -127h-77z" />
    <glyph glyph-name="uni030C" unicode="&#x30c;" horiz-adv-x="0" 
d="M-272 731l1 5h77l44 -64h8l62 64h89l-1 -5l-124 -117h-74z" />
    <glyph glyph-name="uni0312" unicode="&#x312;" horiz-adv-x="0" 
d="M-122 699q18 -4 29 -18.5t11 -33.5q0 -21 -16 -38t-40 -17q-25 0 -40.5 16.5t-15.5 40.5q0 30 18 51l71 86l34 -29z" />
    <glyph glyph-name="uni0326" unicode="&#x326;" horiz-adv-x="0" 
d="M-277 -155q-18 4 -29 18.5t-11 33.5q0 21 16 38t40 17q25 0 40.5 -16.5t15.5 -40.5q0 -30 -18 -51l-71 -86l-34 29z" />
    <glyph glyph-name="uni0327" unicode="&#x327;" horiz-adv-x="0" 
d="M-376.5 -217.5q-25.5 19.5 -31.5 47.5l53 22q2 -15 13.5 -25.5t27.5 -10.5q21 0 35.5 13.5t14.5 36.5q0 16 -11 27t-28 11q-19 0 -36 -17l-41 20l51 93h53l-29 -49q15 3 22 3q34 0 55 -24.5t21 -63.5q0 -45 -30.5 -74t-80.5 -29q-33 0 -58.5 19.5z" />
    <glyph glyph-name="uni0328" unicode="&#x328;" horiz-adv-x="0" 
d="M-348 -197.5q-29 26.5 -29 65.5q0 78 85 132h85q-35 -20 -63 -51.5t-28 -62.5q0 -19 11 -29.5t29 -10.5q12 0 20.5 2t21.5 7l-12 -72q-11 -4 -20.5 -5.5t-26.5 -1.5q-44 0 -73 26.5z" />
    <glyph glyph-name="uni0374" unicode="&#x374;" horiz-adv-x="270" 
d="M289 716l-151 -209h-75l117 209h109z" />
    <glyph glyph-name="uni0375" unicode="&#x375;" horiz-adv-x="270" 
d="M41 -87l114 209h74l-82 -209h-106z" />
    <glyph glyph-name="uni037E" unicode="&#x37e;" horiz-adv-x="228" 
d="M90.5 406.5q-18.5 18.5 -18.5 45.5t18.5 45.5t45.5 18.5q26 0 44.5 -18.5t18.5 -45.5t-18.5 -45.5t-44.5 -18.5q-27 0 -45.5 18.5zM-19 -64l66 80q-13 5 -25 20t-12 38q0 27 19 45.5t44 18.5q27 0 45.5 -18t18.5 -45q0 -15 -9.5 -30t-29.5 -39l-83 -99z" />
    <glyph glyph-name="tonos" unicode="&#x384;" horiz-adv-x="397" 
d="M248 736h95l-93 -127h-76z" />
    <glyph glyph-name="dieresistonos" unicode="&#x385;" horiz-adv-x="393" 
d="M230 732h60l-25 -144h-60zM99 625q-15 15 -15 34q0 21 14.5 35t34.5 14q21 0 35 -14t14 -35q0 -20 -14 -34.5t-35 -14.5q-19 0 -34 15zM327 625q-15 15 -15 34q0 21 15 35t35 14q21 0 35 -14t14 -35q0 -20 -14 -34.5t-35 -14.5q-20 0 -35 15z" />
    <glyph glyph-name="Alphatonos" unicode="&#x386;" horiz-adv-x="669" 
d="M347 716h96l145 -716h-90l-36 197h-309l-108 -197h-95zM446 277l-50 258l-14 77h-4l-183 -335h251zM161 716h95l-93 -127h-77z" />
    <glyph glyph-name="anoteleia" unicode="&#x387;" horiz-adv-x="166" 
d="M39.5 278.5q-18.5 18.5 -18.5 45.5t18.5 45.5t44.5 18.5q27 0 45.5 -18.5t18.5 -45.5t-18.5 -45.5t-45.5 -18.5q-26 0 -44.5 18.5z" />
    <glyph glyph-name="Epsilontonos" unicode="&#x388;" horiz-adv-x="585" 
d="M176 716h414l-14 -81h-330l-42 -237h298l-14 -80h-298l-42 -237h330l-15 -81h-414zM38 716h95l-93 -127h-77z" />
    <glyph glyph-name="Etatonos" unicode="&#x389;" horiz-adv-x="731" 
d="M174 716h84l-55 -310h369l56 310h84l-127 -716h-84l57 326h-369l-58 -326h-84zM30 716h95l-93 -127h-77z" />
    <glyph glyph-name="Iotatonos" unicode="&#x38a;" horiz-adv-x="277" 
d="M174 716h84l-127 -716h-84zM30 716h95l-93 -127h-77z" />
    <glyph glyph-name="Omicrontonos" unicode="&#x38c;" horiz-adv-x="825" 
d="M197.5 25.5q-74.5 41.5 -117.5 115.5t-43 168q0 110 54 207.5t150.5 156.5t218.5 59q90 0 164 -41.5t117 -115.5t43 -168q0 -110 -53.5 -207.5t-150 -156.5t-217.5 -59q-91 0 -165.5 41.5zM535 112.5q75 47.5 118.5 125t43.5 162.5q0 76 -32.5 133t-89 87.5t-125.5 30.5
q-89 0 -163.5 -47.5t-118 -125t-43.5 -162.5q0 -76 32.5 -133t88.5 -87.5t125 -30.5q89 0 164 47.5zM38 716h95l-93 -127h-77z" />
    <glyph glyph-name="Upsilontonos" unicode="&#x38e;" horiz-adv-x="658" 
d="M313 331l-174 385h97l130 -300h4l233 300h102l-307 -385l-59 -331h-84zM31 716h95l-93 -127h-77z" />
    <glyph glyph-name="Omegatonos" unicode="&#x38f;" horiz-adv-x="745" 
d="M31 716h95l-93 -127h-77zM-31 81h171l1 4q-60 41 -99.5 106.5t-39.5 151.5q0 104 52.5 193t145 142.5t206.5 53.5q94 0 163.5 -41.5t106 -111t36.5 -150.5q0 -111 -64 -199t-175 -145l-1 -4h166l-14 -81h-275l21 119q69 17 128 62.5t93.5 108.5t34.5 131t-29.5 120
t-82.5 81t-122 29q-83 0 -152.5 -40.5t-110 -109t-40.5 -149.5q0 -90 46 -149t117 -84l-21 -119h-275z" />
    <glyph glyph-name="iotadieresistonos" unicode="&#x390;" horiz-adv-x="227" 
d="M95 510h85l-90 -510h-84zM146 732h60l-25 -144h-60zM15 625q-15 15 -15 34q0 21 14.5 35t34.5 14q21 0 35 -14t14 -35q0 -20 -14 -34.5t-35 -14.5q-19 0 -34 15zM243 625q-15 15 -15 34q0 21 15 35t35 14q21 0 35 -14t14 -35q0 -20 -14 -34.5t-35 -14.5q-20 0 -35 15z
" />
    <glyph glyph-name="Alpha" unicode="&#x391;" horiz-adv-x="669" 
d="M347 716h96l145 -716h-90l-36 197h-309l-108 -197h-95zM446 277l-50 258l-14 77h-4l-183 -335h251z" />
    <glyph glyph-name="Beta" unicode="&#x392;" horiz-adv-x="605" 
d="M141 716h244q57 0 99.5 -23.5t65 -63t22.5 -86.5q0 -63 -37 -107.5t-91 -63.5l-1 -4q96 -49 96 -150q0 -60 -33.5 -110t-91.5 -79t-129 -29h-271zM343 406q61 0 102 33.5t41 90.5q0 45 -28.5 75t-79.5 30h-167l-41 -229h173zM303 81q37 0 71.5 16t56 46.5t21.5 72.5
q0 50 -32.5 80t-87.5 30h-176l-43 -245h190z" />
    <glyph glyph-name="Gamma" unicode="&#x393;" horiz-adv-x="504" 
d="M141 716h398l-14 -81h-314l-113 -635h-84z" />
    <glyph glyph-name="uni0394" unicode="&#x394;" horiz-adv-x="659" 
d="M342 716h96l140 -716h-628zM472 81l-95 531h-4l-284 -531h383z" />
    <glyph glyph-name="Epsilon" unicode="&#x395;" horiz-adv-x="550" 
d="M141 716h414l-14 -81h-330l-42 -237h298l-14 -80h-298l-42 -237h330l-15 -81h-414z" />
    <glyph glyph-name="Zeta" unicode="&#x396;" horiz-adv-x="571" 
d="M-11 89l479 546h-367l14 81h468l-16 -89l-480 -546h388l-15 -81h-487z" />
    <glyph glyph-name="Eta" unicode="&#x397;" horiz-adv-x="698" 
d="M141 716h84l-55 -310h369l56 310h84l-127 -716h-84l57 326h-369l-58 -326h-84z" />
    <glyph glyph-name="Theta" unicode="&#x398;" horiz-adv-x="838" 
d="M197.5 25.5q-74.5 41.5 -117.5 115.5t-43 168q0 110 54 207.5t150.5 156.5t218.5 59q90 0 164 -41.5t117 -115.5t43 -168q0 -110 -53.5 -207.5t-150 -156.5t-217.5 -59q-91 0 -165.5 41.5zM535 112.5q75 47.5 118.5 125t43.5 162.5q0 76 -32.5 133t-89 87.5t-125.5 30.5
q-89 0 -163.5 -47.5t-118 -125t-43.5 -162.5q0 -76 32.5 -133t88.5 -87.5t125 -30.5q89 0 164 47.5zM263 398h319l-14 -80h-319z" />
    <glyph glyph-name="Iota" unicode="&#x399;" horiz-adv-x="244" 
d="M141 716h84l-127 -716h-84z" />
    <glyph glyph-name="Kappa" unicode="&#x39a;" horiz-adv-x="615" 
d="M141 716h84l-63 -357h4l375 357h114l-1 -4l-390 -367l275 -341l-1 -4h-108l-267 337h-4l-61 -337h-84z" />
    <glyph glyph-name="Lambda" unicode="&#x39b;" 
d="M338 716h96l135 -716h-90l-94 543l-12 69h-4l-36 -69l-287 -543h-96z" />
    <glyph glyph-name="Mu" unicode="&#x39c;" horiz-adv-x="866" 
d="M141 716h119l126 -587h4l331 587h126l-127 -716h-84l80 455l29 136h-4l-335 -591h-71l-132 591h-4l-20 -136l-81 -455h-84z" />
    <glyph glyph-name="Nu" unicode="&#x39d;" horiz-adv-x="707" 
d="M141 716h97l265 -570h4l21 138l76 432h85l-127 -716h-81l-277 597h-4l-20 -138l-82 -459h-84z" />
    <glyph glyph-name="Xi" unicode="&#x39e;" horiz-adv-x="495" 
d="M94 716h430l-15 -81h-430zM69 398h366l-13 -80h-367zM-18 81h430l-15 -81h-429z" />
    <glyph glyph-name="Omicron" unicode="&#x39f;" horiz-adv-x="825" 
d="M197.5 25.5q-74.5 41.5 -117.5 115.5t-43 168q0 110 54 207.5t150.5 156.5t218.5 59q90 0 164 -41.5t117 -115.5t43 -168q0 -110 -53.5 -207.5t-150 -156.5t-217.5 -59q-91 0 -165.5 41.5zM535 112.5q75 47.5 118.5 125t43.5 162.5q0 76 -32.5 133t-89 87.5t-125.5 30.5
q-89 0 -163.5 -47.5t-118 -125t-43.5 -162.5q0 -76 32.5 -133t88.5 -87.5t125 -30.5q89 0 164 47.5z" />
    <glyph glyph-name="Pi" unicode="&#x3a0;" horiz-adv-x="674" 
d="M141 716h514l-127 -716h-84l112 635h-345l-113 -635h-84z" />
    <glyph glyph-name="Rho" unicode="&#x3a1;" horiz-adv-x="576" 
d="M141 716h235q56 0 100 -23.5t69 -65.5t25 -96q0 -73 -33.5 -127.5t-93.5 -83t-136 -28.5h-156l-53 -292h-84zM322 373q71 0 116 37.5t45 109.5q0 53 -32.5 84t-81.5 31h-158l-46 -262h157z" />
    <glyph glyph-name="Sigma" unicode="&#x3a3;" horiz-adv-x="512" 
d="M368 366l-269 -285h330l-14 -81h-430l15 88l265 283l-170 257l16 88h431l-15 -81h-338z" />
    <glyph glyph-name="Tau" unicode="&#x3a4;" horiz-adv-x="538" 
d="M273 635h-201l15 81h486l-15 -81h-200l-113 -635h-84z" />
    <glyph glyph-name="Upsilon" unicode="&#x3a5;" horiz-adv-x="595" 
d="M250 331l-174 385h97l130 -300h4l233 300h102l-307 -385l-59 -331h-84z" />
    <glyph glyph-name="Phi" unicode="&#x3a6;" horiz-adv-x="799" 
d="M302 58q-121 11 -192 83t-71 185q0 92 48 165t132 117t190 50l10 58h85l-11 -59q122 -13 193 -85.5t71 -186.5q0 -91 -47.5 -163t-131.5 -115t-191 -50l-10 -57h-85zM394 578q-73 -7 -134 -39t-97.5 -84.5t-36.5 -119.5q0 -86 49.5 -137t140.5 -61zM536.5 175
q61.5 31 97.5 84t36 120q0 86 -49.5 138t-141.5 61l-79 -441q75 7 136.5 38z" />
    <glyph glyph-name="Chi" unicode="&#x3a7;" horiz-adv-x="629" 
d="M267 375l-169 341h100l130 -277h4l228 277h104l-290 -348l183 -368h-100l-146 299h-4l-249 -299h-100z" />
    <glyph glyph-name="Psi" unicode="&#x3a8;" horiz-adv-x="748" 
d="M180.5 183q-49.5 27 -78 79.5t-28.5 124.5q0 27 7 71l45 258h85l-48 -270q-6 -31 -6 -60q0 -72 39.5 -110.5t111.5 -38.5l85 479h85l-85 -479q87 0 144.5 55.5t73.5 147.5l49 276h85l-52 -290q-15 -84 -59.5 -145t-110.5 -93t-145 -32l-27 -156h-85l27 156
q-63 0 -112.5 27z" />
    <glyph glyph-name="uni03A9" unicode="&#x3a9;" horiz-adv-x="803" 
d="M14 81h171l1 4q-60 41 -99.5 106.5t-39.5 151.5q0 104 52.5 193t145 142.5t206.5 53.5q94 0 163.5 -41.5t106 -111t36.5 -150.5q0 -111 -64 -199t-175 -145l-1 -4h166l-14 -81h-275l21 119q69 17 128 62.5t93.5 108.5t34.5 131t-29.5 120t-82.5 81t-122 29
q-83 0 -152.5 -40.5t-110 -109t-40.5 -149.5q0 -90 46 -149t117 -84l-21 -119h-275z" />
    <glyph glyph-name="Iotadieresis" unicode="&#x3aa;" horiz-adv-x="242" 
d="M91 820q-15 15 -15 34q0 21 14.5 35.5t34.5 14.5q21 0 35 -14t14 -36q0 -20 -14 -34.5t-35 -14.5q-19 0 -34 15zM238 820q-15 15 -15 34q0 21 15 35.5t35 14.5q21 0 35 -14t14 -36q0 -20 -14 -34.5t-35 -14.5q-20 0 -35 15zM139 716h84l-127 -716h-84z" />
    <glyph glyph-name="Upsilondieresis" unicode="&#x3ab;" horiz-adv-x="595" 
d="M250 331l-174 385h97l130 -300h4l233 300h102l-307 -385l-59 -331h-84zM248.5 805.5q-16.5 16.5 -16.5 37.5q0 23 16 38.5t38 15.5q23 0 38.5 -15.5t15.5 -38.5q0 -22 -15.5 -38t-38.5 -16q-21 0 -37.5 16.5zM413 805.5q-16 16.5 -16 37.5q0 23 16 38.5t37 15.5
q23 0 38.5 -15.5t15.5 -38.5q0 -22 -15.5 -38t-38.5 -16q-21 0 -37 16.5z" />
    <glyph glyph-name="alphatonos" unicode="&#x3ac;" horiz-adv-x="598" 
d="M112.5 12.5q-47.5 28.5 -74.5 81t-27 121.5q0 85 38 156t105.5 113t151.5 42q57 0 99.5 -27t61.5 -66h4l14 77h80l-90 -510h-80l13 75h-4q-29 -42 -75.5 -66.5t-109.5 -24.5q-59 0 -106.5 28.5zM344.5 92q46.5 31 73 83.5t26.5 115.5q0 72 -41 115t-103 43
q-58 0 -104 -29.5t-72.5 -81.5t-26.5 -115q0 -74 40.5 -118t104.5 -44q56 0 102.5 31zM358 736h95l-93 -127h-76z" />
    <glyph glyph-name="epsilontonos" unicode="&#x3ad;" horiz-adv-x="498" 
d="M97 3q-42 19 -64.5 51.5t-22.5 72.5q0 52 30 86t80 49v4q-23 16 -38 43t-15 62q0 45 27 80.5t74.5 55t107.5 19.5q108 0 173 -86l-65 -50q-43 59 -113 59q-48 0 -83 -21.5t-35 -61.5q0 -30 23 -51.5t61 -21.5h67l-12 -68h-85q-44 0 -76.5 -24t-32.5 -62q0 -33 28 -55.5
t76 -22.5q46 0 81 16t73 52l55 -54q-47 -47 -98.5 -69t-117.5 -22q-56 0 -98 19zM331 736h95l-93 -127h-76z" />
    <glyph glyph-name="etatonos" unicode="&#x3ae;" horiz-adv-x="562" 
d="M407 306q6 38 6 50q0 44 -29.5 68.5t-78.5 24.5q-62 0 -110 -46t-61 -116l-51 -287h-84l89 510h81l-13 -75h4q27 41 71.5 66t102.5 25q76 0 120 -41.5t44 -109.5q0 -35 -7 -71l-91 -520h-85zM371 736h95l-93 -127h-76z" />
    <glyph glyph-name="iotatonos" unicode="&#x3af;" horiz-adv-x="227" 
d="M95 510h85l-90 -510h-84zM190 736h95l-93 -127h-76z" />
    <glyph glyph-name="upsilondieresistonos" unicode="&#x3b0;" horiz-adv-x="562" 
d="M85.5 35q-51.5 51 -53.5 138q0 33 5 60l49 277h84l-50 -280q-4 -23 -4 -48q1 -58 33 -89.5t84 -31.5q63 0 106 31t64.5 82.5t21.5 114.5q0 107 -53 221h90q48 -106 48 -217q0 -93 -36 -163t-100.5 -108t-148.5 -38q-88 0 -139.5 51zM280 732h60l-25 -144h-60zM149 625
q-15 15 -15 34q0 21 14.5 35t34.5 14q21 0 35 -14t14 -35q0 -20 -14 -34.5t-35 -14.5q-19 0 -34 15zM377 625q-15 15 -15 34q0 21 15 35t35 14q21 0 35 -14t14 -35q0 -20 -14 -34.5t-35 -14.5q-20 0 -35 15z" />
    <glyph glyph-name="alpha" unicode="&#x3b1;" horiz-adv-x="598" 
d="M112.5 12.5q-47.5 28.5 -74.5 81t-27 121.5q0 85 38 156t105.5 113t151.5 42q57 0 99.5 -27t61.5 -66h4l14 77h80l-90 -510h-80l13 75h-4q-29 -42 -75.5 -66.5t-109.5 -24.5q-59 0 -106.5 28.5zM344.5 92q46.5 31 73 83.5t26.5 115.5q0 72 -41 115t-103 43
q-58 0 -104 -29.5t-72.5 -81.5t-26.5 -115q0 -74 40.5 -118t104.5 -44q56 0 102.5 31z" />
    <glyph glyph-name="beta" unicode="&#x3b2;" horiz-adv-x="571" 
d="M102 516q18 99 77 157.5t161 58.5q55 0 98.5 -22.5t67.5 -61.5t24 -86q0 -64 -33 -108.5t-86 -65.5v-4q42 -22 67.5 -62t25.5 -97q0 -69 -33.5 -124t-91.5 -86t-127 -31q-45 0 -85 20t-59 53h-4l-9 -71l-35 -202h-86zM334.5 84q36.5 19 59.5 54t23 80q0 57 -38 91.5
t-99 34.5h-33l13 78h31q39 0 74 15.5t56.5 44t21.5 64.5q0 48 -31.5 76.5t-81.5 28.5q-54 0 -92.5 -37t-49.5 -98l-52 -297q-3 -19 -3 -36q0 -55 34.5 -86.5t92.5 -31.5q38 0 74.5 19z" />
    <glyph glyph-name="gamma" unicode="&#x3b3;" horiz-adv-x="550" 
d="M176 7l-135 503h90l101 -413h2l248 413h93l-314 -501l-40 -225h-85z" />
    <glyph glyph-name="delta" unicode="&#x3b4;" horiz-adv-x="589" 
d="M124.5 15.5q-51.5 31.5 -82 86.5t-30.5 121q0 71 29.5 136.5t91 110t150.5 52.5q3 0 5 -1l-159 130l12 65h413l-13 -77h-285l170 -135q113 -86 113 -220q0 -82 -37 -150.5t-105.5 -109t-158.5 -40.5q-62 0 -113.5 31.5zM350 88.5q47 27.5 75.5 76.5t28.5 113
q0 47 -20 86.5t-56 62.5t-81 23q-55 0 -101 -29t-72.5 -80.5t-26.5 -114.5q0 -47 21 -85t55.5 -59t74.5 -21q55 0 102 27.5z" />
    <glyph glyph-name="epsilon" unicode="&#x3b5;" horiz-adv-x="498" 
d="M97 3q-42 19 -64.5 51.5t-22.5 72.5q0 52 30 86t80 49v4q-23 16 -38 43t-15 62q0 45 27 80.5t74.5 55t107.5 19.5q108 0 173 -86l-65 -50q-43 59 -113 59q-48 0 -83 -21.5t-35 -61.5q0 -30 23 -51.5t61 -21.5h67l-12 -68h-85q-44 0 -76.5 -24t-32.5 -62q0 -33 28 -55.5
t76 -22.5q46 0 81 16t73 52l55 -54q-47 -47 -98.5 -69t-117.5 -22q-56 0 -98 19z" />
    <glyph glyph-name="zeta" unicode="&#x3b6;" horiz-adv-x="494" 
d="M264 -91q28 0 46.5 13t18.5 36q0 42 -55 42h-127q-65 0 -101.5 34.5t-36.5 89.5q0 46 23.5 80.5t69.5 62.5q59 38 138 91t112 75h-272l14 77h395l-14 -75l-337 -229q-45 -29 -45 -70q0 -27 18.5 -43t50.5 -16h116q64 0 98 -29t34 -82q0 -61 -43 -97.5t-117 -36.5z" />
    <glyph glyph-name="eta" unicode="&#x3b7;" horiz-adv-x="562" 
d="M407 306q6 38 6 50q0 44 -29.5 68.5t-78.5 24.5q-62 0 -110 -46t-61 -116l-51 -287h-84l89 510h81l-13 -75h4q27 41 71.5 66t102.5 25q76 0 120 -41.5t44 -109.5q0 -35 -7 -71l-91 -520h-85z" />
    <glyph glyph-name="theta" unicode="&#x3b8;" horiz-adv-x="665" 
d="M147 19.5q-51 35.5 -78.5 101.5t-27.5 155q0 110 43.5 208t120.5 157t173 59q69 0 120 -35.5t78.5 -101.5t27.5 -155q0 -111 -43.5 -208.5t-120.5 -156.5t-173 -59q-69 0 -120 35.5zM517 393v6q-2 103 -41.5 161.5t-108.5 58.5q-50 0 -96 -29.5t-80.5 -81t-50.5 -115.5
h377zM382 100q49 35 83.5 94.5t46.5 132.5h-382q-1 -15 -1 -35q0 -106 39.5 -166.5t109.5 -60.5q55 0 104 35z" />
    <glyph glyph-name="iota" unicode="&#x3b9;" horiz-adv-x="227" 
d="M95 510h85l-90 -510h-84z" />
    <glyph glyph-name="kappa" unicode="&#x3ba;" horiz-adv-x="489" 
d="M88 510h85l-41 -231h4l252 231h111l-1 -4l-271 -241l194 -261l-1 -4h-102l-185 257h-4l-47 -257h-83z" />
    <glyph glyph-name="lambda" unicode="&#x3bb;" horiz-adv-x="500" 
d="M234 459l-68 247h89l180 -706h-88l-85 356h-2l-213 -356h-95z" />
    <glyph glyph-name="uni03BC" unicode="&#x3bc;" horiz-adv-x="561" 
d="M85 510h85l-56 -315q-4 -21 -4 -41q0 -45 29 -69t78 -24q62 0 110 45.5t61 115.5l51 288h85l-90 -510h-80l13 74h-4q-27 -41 -72.5 -65.5t-104.5 -24.5q-30 0 -58 12.5t-42 32.5h-4l-7 -60l-34 -185h-83z" />
    <glyph glyph-name="nu" unicode="&#x3bd;" horiz-adv-x="514" 
d="M32 510h90l85 -410h2l231 410h92l-298 -510h-87z" />
    <glyph glyph-name="xi" unicode="&#x3be;" horiz-adv-x="528" 
d="M284 -91q24 0 44 14t20 37q0 40 -49 40h-82q-64 0 -112 23.5t-74.5 64t-26.5 91.5q0 141 156 204l1 4q-75 51 -75 138q0 55 31 102.5t87.5 76t130.5 28.5q64 0 112.5 -27.5t78.5 -78.5l-73 -48q-22 38 -52.5 55.5t-75.5 17.5q-64 0 -108 -34.5t-44 -93.5
q0 -49 35.5 -78.5t90.5 -29.5h87l-13 -79h-109q-77 0 -124.5 -39.5t-47.5 -100.5q0 -55 38 -85t96 -30h68q67 0 101.5 -28.5t34.5 -80.5q0 -62 -45 -100t-115 -40z" />
    <glyph glyph-name="omicron" unicode="&#x3bf;" horiz-adv-x="585" 
d="M125.5 16q-53.5 32 -83 87.5t-29.5 123.5q0 82 37.5 150.5t105.5 108.5t156 40q68 0 121 -32t82.5 -87.5t29.5 -123.5q0 -83 -37.5 -151.5t-105.5 -108t-155 -39.5q-68 0 -121.5 32zM361 90.5q46 29.5 72 79t26 108.5q0 48 -20 87t-55.5 61.5t-81.5 22.5
q-58 0 -104.5 -29.5t-72.5 -79.5t-26 -108q0 -49 20 -88t55.5 -61t81.5 -22q59 0 105 29.5z" />
    <glyph glyph-name="pi" unicode="&#x3c0;" horiz-adv-x="705" 
d="M455 21q-34 29 -34 81q0 21 5 49l49 282h-234l-76 -433h-84l75 433h-120l14 77h644l-14 -77h-120l-48 -273q-3 -19 -3 -35q0 -24 12 -40t36 -16q17 0 29.5 3.5t28.5 10.5l-15 -83q-27 -8 -59 -8q-52 0 -86 29z" />
    <glyph glyph-name="rho" unicode="&#x3c1;" horiz-adv-x="601" 
d="M53 268q20 115 95.5 186.5t190.5 71.5q66 0 116 -28.5t77.5 -81t27.5 -122.5q0 -85 -38 -156t-105 -112.5t-151 -41.5q-57 0 -100.5 27t-61.5 65h-4l-9 -71l-39 -221h-84zM376 90.5q46 29.5 72 81.5t26 115q0 74 -40 117.5t-103 43.5q-57 0 -103 -30.5t-73 -83.5
t-27 -117q0 -72 41 -114t104 -42q57 0 103 29.5z" />
    <glyph glyph-name="sigma1" unicode="&#x3c2;" horiz-adv-x="535" 
d="M130.5 14.5q-56.5 30.5 -87 85.5t-30.5 125q0 82 37.5 151t104 109t150.5 40q83 0 136 -40t70 -101l-81 -31q-14 46 -47.5 70.5t-86.5 24.5q-55 0 -100 -29.5t-71 -79.5t-26 -108q0 -77 42 -123.5t123 -46.5h33q65 0 100.5 -28t35.5 -80q0 -62 -44 -99t-115 -38l14 77
q28 0 45.5 13.5t17.5 37.5q0 18 -13 29t-39 11h-39q-73 0 -129.5 30.5z" />
    <glyph glyph-name="sigma" unicode="&#x3c3;" horiz-adv-x="611" 
d="M121.5 14.5q-51.5 30.5 -80 84t-28.5 119.5q0 80 36 146.5t102.5 106t153.5 39.5h316l-13 -77h-61l-75 4v-4q27 -28 42 -69t15 -89q0 -81 -36.5 -147.5t-102.5 -105t-151 -38.5q-66 0 -117.5 30.5zM348.5 89q43.5 28 68.5 75.5t25 103.5q0 73 -40.5 119t-106.5 46
q-57 0 -101.5 -28t-69.5 -76.5t-25 -105.5q0 -72 41.5 -117t109.5 -45q55 0 98.5 28z" />
    <glyph glyph-name="tau" unicode="&#x3c4;" horiz-adv-x="473" 
d="M206 433h-167l14 77h417l-14 -77h-166l-77 -433h-84z" />
    <glyph glyph-name="upsilon" unicode="&#x3c5;" horiz-adv-x="562" 
d="M85.5 35q-51.5 51 -53.5 138q0 33 5 60l49 277h84l-50 -280q-4 -23 -4 -48q1 -58 33 -89.5t84 -31.5q63 0 106 31t64.5 82.5t21.5 114.5q0 107 -53 221h90q48 -106 48 -217q0 -93 -36 -163t-100.5 -108t-148.5 -38q-88 0 -139.5 51z" />
    <glyph glyph-name="phi" unicode="&#x3c6;" horiz-adv-x="738" 
d="M263 -13q-67 8 -119 39.5t-81.5 82t-29.5 114.5q0 103 61 179.5t169 123.5l22 -75q-77 -35 -121 -90t-44 -130q0 -69 44 -113t112 -54l56 314q12 71 58.5 109.5t111.5 38.5q52 0 92.5 -28t63 -78t22.5 -113q0 -88 -41.5 -158t-117 -112.5t-174.5 -50.5l-35 -202h-84z
M480.5 103.5q52.5 31.5 82.5 83t30 116.5q0 64 -26.5 103t-70.5 39q-32 0 -53 -18.5t-27 -51.5l-55 -311q67 8 119.5 39.5z" />
    <glyph glyph-name="chi" unicode="&#x3c7;" horiz-adv-x="486" 
d="M170 261l-129 249h95l95 -188l158 188h103l-222 -254l135 -256h-95l-99 196l-163 -196h-103z" />
    <glyph glyph-name="psi" unicode="&#x3c8;" horiz-adv-x="705" 
d="M245 -16h-2q-62 0 -111.5 24.5t-78 69.5t-28.5 103q0 22 5 52l49 277h84l-49 -278q-4 -22 -4 -41q0 -63 43 -96.5t104 -33.5h2l79 449h85l-80 -449h2q72 0 122 35t74.5 92t24.5 121q0 56 -9 103.5t-30 97.5h87q38 -93 38 -202q0 -94 -40.5 -168t-113.5 -115t-166 -41h-2
l-36 -200h-84z" />
    <glyph glyph-name="omega" unicode="&#x3c9;" horiz-adv-x="802" 
d="M117.5 8.5q-40.5 24.5 -64.5 71t-24 107.5q0 85 35.5 163.5t96.5 159.5h96q-67 -85 -105 -162t-38 -152q0 -63 28.5 -99t75.5 -36q48 0 86 44.5t53 125.5l28 154h81l-28 -154q-5 -31 -5 -62q0 -50 26 -79t69 -29q51 0 86.5 33.5t53.5 86t18 108.5q0 55 -11 105.5
t-37 115.5h92q21 -62 31 -112t10 -110q0 -72 -28.5 -142t-86 -116t-139.5 -46q-50 0 -88 25t-54 71q-62 -96 -170 -96q-47 0 -87.5 24.5z" />
    <glyph glyph-name="iotadieresis" unicode="&#x3ca;" horiz-adv-x="227" 
d="M56 641q-16 16 -16 38q0 23 16 38t38 15q23 0 38 -15t15 -38q0 -22 -15 -38t-38 -16q-22 0 -38 16zM189 641q-16 16 -16 38q0 23 15.5 38t37.5 15q23 0 38.5 -15t15.5 -38q0 -22 -15.5 -38t-38.5 -16q-21 0 -37 16zM95 510h85l-90 -510h-84z" />
    <glyph glyph-name="upsilondieresis" unicode="&#x3cb;" horiz-adv-x="562" 
d="M85.5 35q-51.5 51 -53.5 138q0 33 5 60l49 277h84l-50 -280q-4 -23 -4 -48q1 -58 33 -89.5t84 -31.5q63 0 106 31t64.5 82.5t21.5 114.5q0 107 -53 221h90q48 -106 48 -217q0 -93 -36 -163t-100.5 -108t-148.5 -38q-88 0 -139.5 51zM181 641q-16 16 -16 38q0 23 15.5 38
t37.5 15q24 0 39 -15t15 -38q0 -22 -15.5 -38t-38.5 -16q-21 0 -37 16zM345 641q-16 16 -16 38q0 23 16 38t38 15q23 0 38 -15t15 -38q0 -22 -15 -38t-38 -16q-22 0 -38 16z" />
    <glyph glyph-name="omicrontonos" unicode="&#x3cc;" horiz-adv-x="585" 
d="M125.5 16q-53.5 32 -83 87.5t-29.5 123.5q0 82 37.5 150.5t105.5 108.5t156 40q68 0 121 -32t82.5 -87.5t29.5 -123.5q0 -83 -37.5 -151.5t-105.5 -108t-155 -39.5q-68 0 -121.5 32zM361 90.5q46 29.5 72 79t26 108.5q0 48 -20 87t-55.5 61.5t-81.5 22.5
q-58 0 -104.5 -29.5t-72.5 -79.5t-26 -108q0 -49 20 -88t55.5 -61t81.5 -22q59 0 105 29.5zM365 736h95l-93 -127h-76z" />
    <glyph glyph-name="upsilontonos" unicode="&#x3cd;" horiz-adv-x="562" 
d="M85.5 35q-51.5 51 -53.5 138q0 33 5 60l49 277h84l-50 -280q-4 -23 -4 -48q1 -58 33 -89.5t84 -31.5q63 0 106 31t64.5 82.5t21.5 114.5q0 107 -53 221h90q48 -106 48 -217q0 -93 -36 -163t-100.5 -108t-148.5 -38q-88 0 -139.5 51zM324 736h95l-93 -127h-76z" />
    <glyph glyph-name="omegatonos" unicode="&#x3ce;" horiz-adv-x="802" 
d="M117.5 8.5q-40.5 24.5 -64.5 71t-24 107.5q0 85 35.5 163.5t96.5 159.5h96q-67 -85 -105 -162t-38 -152q0 -63 28.5 -99t75.5 -36q48 0 86 44.5t53 125.5l28 154h81l-28 -154q-5 -31 -5 -62q0 -50 26 -79t69 -29q51 0 86.5 33.5t53.5 86t18 108.5q0 55 -11 105.5
t-37 115.5h92q21 -62 31 -112t10 -110q0 -72 -28.5 -142t-86 -116t-139.5 -46q-50 0 -88 25t-54 71q-62 -96 -170 -96q-47 0 -87.5 24.5zM500 736h95l-93 -127h-76z" />
    <glyph glyph-name="theta1" unicode="&#x3d1;" horiz-adv-x="623" 
d="M76 34.5q-53 50.5 -53 136.5q0 26 5 56l50 283h85l-49 -276q-5 -30 -5 -51q0 -60 31.5 -91t84.5 -31q70 0 114 43t59 125l9 53q-52 11 -92.5 44t-64 83.5t-23.5 112.5q0 58 22.5 106t64.5 76t99 28q66 0 98.5 -36t32.5 -97q0 -25 -5 -51l-34 -190h91l-14 -77h-91l-11 -69
q-12 -66 -48.5 -118t-93 -81t-125.5 -29q-84 0 -137 50.5zM457 567q2 16 2 26q0 26 -15 43t-44 17q-41 0 -65.5 -37.5t-24.5 -87.5q0 -60 30 -106t81 -61z" />
    <glyph glyph-name="Upsilon1" unicode="&#x3d2;" horiz-adv-x="594" 
d="M244 315l-84 264q-11 35 -23 49t-31 14q-18 0 -32 -9l-25 74q14 6 35 11.5t41 5.5q77 0 105 -94l68 -230h4l144 225q37 59 67.5 79t71.5 20q36 0 67 -19l-38 -72q-15 9 -30 9q-20 0 -37.5 -14t-41.5 -49l-177 -264l-55 -315h-85z" />
    <glyph glyph-name="uni03D3" unicode="&#x3d3;" horiz-adv-x="670" 
d="M320 315l-84 264q-11 35 -23 49t-31 14q-18 0 -32 -9l-25 74q14 6 35 11.5t41 5.5q77 0 105 -94l68 -230h4l144 225q37 59 67.5 79t71.5 20q36 0 67 -19l-38 -72q-15 9 -30 9q-20 0 -37.5 -14t-41.5 -49l-177 -264l-55 -315h-85zM14 716h95l-93 -127h-77z" />
    <glyph glyph-name="uni03D4" unicode="&#x3d4;" horiz-adv-x="594" 
d="M244 315l-84 264q-11 35 -23 49t-31 14q-18 0 -32 -9l-25 74q14 6 35 11.5t41 5.5q77 0 105 -94l68 -230h4l144 225q37 59 67.5 79t71.5 20q36 0 67 -19l-38 -72q-15 9 -30 9q-20 0 -37.5 -14t-41.5 -49l-177 -264l-55 -315h-85zM240.5 805.5q-16.5 16.5 -16.5 37.5
q0 23 16 38.5t38 15.5q23 0 38.5 -15.5t15.5 -38.5q0 -22 -15.5 -38t-38.5 -16q-21 0 -37.5 16.5zM405 805.5q-16 16.5 -16 37.5q0 23 16 38.5t37 15.5q23 0 38.5 -15.5t15.5 -38.5q0 -22 -15.5 -38t-38.5 -16q-21 0 -37 16.5z" />
    <glyph glyph-name="omega1" unicode="&#x3d6;" horiz-adv-x="886" 
d="M137.5 7q-39.5 23 -63 67.5t-23.5 105.5q0 67 22.5 128t62.5 125h-84l14 77h804l-13 -77h-88q19 -76 19 -153q0 -76 -29.5 -144t-86 -110t-134.5 -42q-50 0 -87.5 25t-54.5 72q-29 -46 -74 -71.5t-97 -25.5q-48 0 -87.5 23zM323.5 105.5q40.5 44.5 54.5 124.5l18 99h81
l-18 -99q-5 -30 -5 -56q0 -54 25 -83.5t64 -29.5q53 0 89 31.5t53.5 81.5t17.5 107q0 70 -26 152h-446q-41 -60 -67.5 -124.5t-26.5 -124.5q0 -58 26 -90.5t71 -32.5q49 0 89.5 44.5z" />
    <glyph glyph-name="uni0400" unicode="&#x400;" horiz-adv-x="550" 
d="M141 716h414l-14 -81h-330l-42 -237h298l-14 -80h-298l-42 -237h330l-15 -81h-414zM275 900h91l29 -127h-72z" />
    <glyph glyph-name="uni0401" unicode="&#x401;" horiz-adv-x="550" 
d="M141 716h414l-14 -81h-330l-42 -237h298l-14 -80h-298l-42 -237h330l-15 -81h-414zM255.5 805.5q-16.5 16.5 -16.5 37.5q0 23 16 38.5t38 15.5q23 0 38.5 -15.5t15.5 -38.5q0 -22 -15.5 -38t-38.5 -16q-21 0 -37.5 16.5zM420 805.5q-16 16.5 -16 37.5q0 23 16 38.5
t37 15.5q23 0 38.5 -15.5t15.5 -38.5q0 -22 -15.5 -38t-38.5 -16q-21 0 -37 16.5z" />
    <glyph glyph-name="uni0402" unicode="&#x402;" horiz-adv-x="744" 
d="M261 635h-192l15 81h471l-15 -81h-195l-35 -200l-16 -70h4q35 34 82.5 53.5t105.5 19.5q56 0 102.5 -23.5t73.5 -68.5t27 -108t-31.5 -117.5t-88 -87.5t-127.5 -33h-31l15 81h21q67 0 110.5 43t43.5 110q0 56 -36 90t-99 34q-52 0 -100.5 -22t-83.5 -61l-49 -275h-85z
" />
    <glyph glyph-name="uni0403" unicode="&#x403;" horiz-adv-x="504" 
d="M141 716h398l-14 -81h-314l-113 -635h-84zM387 900h95l-93 -127h-77z" />
    <glyph glyph-name="uni0404" unicode="&#x404;" horiz-adv-x="720" 
d="M179.5 25.5q-70.5 41.5 -111.5 118.5t-41 178q0 107 55.5 201.5t154 151.5t221.5 57q81 0 140.5 -28t108.5 -89l-67 -59q-69 95 -196 95q-76 0 -144 -32t-116 -89.5t-66 -131.5h343l-14 -80h-337v-3q1 -75 32.5 -131.5t85.5 -87.5t122 -31q72 0 128 26t111 80l53 -59
q-66 -65 -138 -96.5t-167 -31.5q-87 0 -157.5 41.5z" />
    <glyph glyph-name="uni0405" unicode="&#x405;" horiz-adv-x="564" 
d="M79 35.5q-62 51.5 -76 142.5l81 33q8 -65 48 -105.5t107 -40.5q41 0 78.5 17.5t61 49.5t23.5 74q0 45 -30.5 74.5t-98.5 54.5l-43 16q-63 24 -103 67t-40 111q0 58 32.5 104t87 72.5t118.5 26.5q65 0 110 -23.5t68.5 -57.5t28.5 -67l-82 -30q-7 38 -38 67.5t-93 29.5
q-61 0 -102.5 -31.5t-41.5 -83.5q0 -41 28 -68t83 -48l43 -16q161 -60 161 -186q0 -70 -34 -123t-93.5 -82t-133.5 -29q-88 0 -150 51.5z" />
    <glyph glyph-name="uni0406" unicode="&#x406;" horiz-adv-x="244" 
d="M141 716h84l-127 -716h-84z" />
    <glyph glyph-name="uni0407" unicode="&#x407;" horiz-adv-x="234" 
d="M88 822q-15 15 -15 34q0 21 14.5 35t34.5 14q22 0 36 -14t14 -35q0 -20 -14.5 -34.5t-35.5 -14.5q-19 0 -34 15zM238 822q-15 15 -15 34q0 21 15 35t35 14q21 0 35 -14t14 -35q0 -20 -14 -34.5t-35 -14.5q-20 0 -35 15zM139 716h84l-127 -716h-84z" />
    <glyph glyph-name="uni0408" unicode="&#x408;" horiz-adv-x="531" 
d="M55 29q-53 45 -62 121l82 32q6 -61 39 -89t83 -28q60 0 103.5 42t54.5 107l88 502h84l-87 -496q-20 -117 -88 -176.5t-165 -59.5q-79 0 -132 45z" />
    <glyph glyph-name="uni0409" unicode="&#x409;" horiz-adv-x="1059" 
d="M-42 -5l15 83q11 -5 31 -5q39 0 69 25q24 20 39.5 64.5t28.5 124.5l75 429h475l-54 -306h174q86 0 138.5 -48.5t52.5 -135.5q0 -67 -32.5 -118t-91 -79.5t-132.5 -28.5h-266l112 635h-305l-64 -362q-17 -97 -42.5 -153.5t-62.5 -87.5q-27 -22 -56.5 -31t-70.5 -9
q-18 0 -33 3zM765 81q65 0 107.5 39t42.5 99q0 51 -31.5 81t-84.5 30h-177l-44 -249h187z" />
    <glyph glyph-name="uni040A" unicode="&#x40a;" horiz-adv-x="998" 
d="M131 716h85l-55 -306h329l55 306h84l-54 -306h175q85 0 138 -48.5t53 -135.5q0 -67 -32.5 -118t-91 -79.5t-132.5 -28.5h-267l59 330h-330l-58 -330h-85zM703 81q66 0 108.5 39t42.5 99q0 51 -31.5 81t-84.5 30h-177l-44 -249h186z" />
    <glyph glyph-name="uni040B" unicode="&#x40b;" horiz-adv-x="738" 
d="M261 635h-192l15 81h471l-15 -81h-195l-35 -200l-16 -70h4q78 73 185 73q82 0 132 -47.5t50 -127.5q0 -20 -5 -50l-38 -213h-86l37 210q3 21 3 38q0 49 -31.5 79.5t-90.5 30.5q-49 0 -93 -22t-79 -61l-49 -275h-85z" />
    <glyph glyph-name="uni040C" unicode="&#x40c;" horiz-adv-x="615" 
d="M141 716h84l-63 -357h4l375 357h114l-1 -4l-390 -367l275 -341l-1 -4h-108l-267 337h-4l-61 -337h-84zM423 900h95l-93 -127h-77z" />
    <glyph glyph-name="uni040D" unicode="&#x40d;" horiz-adv-x="680" 
d="M131 716h85l-77 -432l-28 -138h4l449 570h107l-127 -716h-84l81 459l28 138h-4l-470 -597h-91zM315 900h91l29 -127h-72z" />
    <glyph glyph-name="uni040E" unicode="&#x40e;" horiz-adv-x="595" 
d="M14 0l35 78q19 -13 48 -13t47 13t39 45l38 60l-147 533h93l111 -435h4l262 435h102l-396 -629q-64 -103 -157 -103q-45 0 -79 16zM281.5 801.5q-32.5 29.5 -32.5 73.5q0 7 2 21h69q-1 -5 -1 -12q0 -21 12.5 -34.5t36.5 -13.5q26 0 44.5 16t23.5 44h68q-9 -61 -47.5 -92.5
t-96.5 -31.5q-46 0 -78.5 29.5z" />
    <glyph glyph-name="uni040F" unicode="&#x40f;" horiz-adv-x="655" 
d="M234 0h-215l126 716h84l-112 -635h345l113 635h84l-126 -716h-217l-26 -152h-82z" />
    <glyph glyph-name="uni0410" unicode="&#x410;" horiz-adv-x="669" 
d="M347 716h96l145 -716h-90l-36 197h-309l-108 -197h-95zM446 277l-50 258l-14 77h-4l-183 -335h251z" />
    <glyph glyph-name="uni0411" unicode="&#x411;" horiz-adv-x="597" 
d="M137 716h412l-14 -81h-329l-39 -224h179q85 0 137.5 -49.5t52.5 -135.5q0 -66 -33 -117.5t-91 -80t-131 -28.5h-271zM300 81q64 0 106 39.5t42 99.5q0 50 -31 80t-83 30h-181l-44 -249h191z" />
    <glyph glyph-name="uni0412" unicode="&#x412;" horiz-adv-x="605" 
d="M141 716h244q57 0 99.5 -23.5t65 -63t22.5 -86.5q0 -63 -37 -107.5t-91 -63.5l-1 -4q96 -49 96 -150q0 -60 -33.5 -110t-91.5 -79t-129 -29h-271zM343 406q61 0 102 33.5t41 90.5q0 45 -28.5 75t-79.5 30h-167l-41 -229h173zM303 81q37 0 71.5 16t56 46.5t21.5 72.5
q0 50 -32.5 80t-87.5 30h-176l-43 -245h190z" />
    <glyph glyph-name="uni0413" unicode="&#x413;" horiz-adv-x="504" 
d="M141 716h398l-14 -81h-314l-113 -635h-84z" />
    <glyph glyph-name="uni0414" unicode="&#x414;" horiz-adv-x="766" 
d="M2 81h63q58 48 101.5 157.5t67.5 240.5l41 237h451l-113 -635h76l-41 -233h-80l26 152h-526l-26 -152h-80zM529 81l98 554h-283l-35 -194q-21 -122 -56 -210.5t-87 -149.5h363z" />
    <glyph glyph-name="uni0415" unicode="&#x415;" horiz-adv-x="550" 
d="M141 716h414l-14 -81h-330l-42 -237h298l-14 -80h-298l-42 -237h330l-15 -81h-414z" />
    <glyph glyph-name="uni0416" unicode="&#x416;" horiz-adv-x="889" 
d="M-59 4l362 355l-225 353l1 4h98l219 -350h4l63 350h84l-62 -350h4l339 350h108l-1 -4l-359 -366l239 -342l-1 -4h-104l-227 330h-4l-59 -330h-84l58 330h-4l-337 -330h-113z" />
    <glyph glyph-name="uni0417" unicode="&#x417;" horiz-adv-x="543" 
d="M122 4q-47 20 -81.5 60.5t-42.5 99.5l84 32q7 -60 44 -95.5t97 -35.5q44 0 81.5 19.5t60 54t22.5 78.5q0 50 -37.5 84t-93.5 34h-61l13 80h55q40 0 76.5 16.5t59.5 47.5t23 72q0 43 -33.5 71.5t-82.5 28.5q-55 0 -92.5 -29.5t-52.5 -71.5l-73 33q25 61 84 105t143 44
q56 0 100.5 -22.5t69.5 -61t25 -85.5q0 -62 -34 -108t-94 -75l-1 -4q39 -20 66 -60.5t27 -94.5q0 -68 -34.5 -122t-93.5 -84.5t-131 -30.5q-46 0 -93 20z" />
    <glyph glyph-name="uni0418" unicode="&#x418;" horiz-adv-x="680" 
d="M131 716h85l-77 -432l-28 -138h4l449 570h107l-127 -716h-84l81 459l28 138h-4l-470 -597h-91z" />
    <glyph glyph-name="uni0419" unicode="&#x419;" horiz-adv-x="680" 
d="M131 716h85l-77 -432l-28 -138h4l449 570h107l-127 -716h-84l81 459l28 138h-4l-470 -597h-91zM327.5 801.5q-32.5 29.5 -32.5 73.5q0 7 2 21h69q-1 -5 -1 -12q0 -21 12.5 -34.5t36.5 -13.5q26 0 44.5 16t23.5 44h68q-9 -61 -47.5 -92.5t-96.5 -31.5q-46 0 -78.5 29.5z
" />
    <glyph glyph-name="uni041A" unicode="&#x41a;" horiz-adv-x="615" 
d="M141 716h84l-63 -357h4l375 357h114l-1 -4l-390 -367l275 -341l-1 -4h-108l-267 337h-4l-61 -337h-84z" />
    <glyph glyph-name="uni041B" unicode="&#x41b;" horiz-adv-x="700" 
d="M-42 -5l15 83q11 -5 31 -5q39 0 69 25q24 20 39.5 64.5t28.5 124.5l75 429h475l-126 -716h-85l112 635h-305l-64 -362q-18 -98 -43 -154t-62 -87q-27 -22 -56.5 -31t-70.5 -9q-18 0 -33 3z" />
    <glyph glyph-name="uni041C" unicode="&#x41c;" horiz-adv-x="866" 
d="M141 716h119l126 -587h4l331 587h126l-127 -716h-84l80 455l29 136h-4l-335 -591h-71l-132 591h-4l-20 -136l-81 -455h-84z" />
    <glyph glyph-name="uni041D" unicode="&#x41d;" horiz-adv-x="698" 
d="M141 716h84l-55 -310h369l56 310h84l-127 -716h-84l57 326h-369l-58 -326h-84z" />
    <glyph glyph-name="uni041E" unicode="&#x41e;" horiz-adv-x="825" 
d="M197.5 25.5q-74.5 41.5 -117.5 115.5t-43 168q0 110 54 207.5t150.5 156.5t218.5 59q90 0 164 -41.5t117 -115.5t43 -168q0 -110 -53.5 -207.5t-150 -156.5t-217.5 -59q-91 0 -165.5 41.5zM535 112.5q75 47.5 118.5 125t43.5 162.5q0 76 -32.5 133t-89 87.5t-125.5 30.5
q-89 0 -163.5 -47.5t-118 -125t-43.5 -162.5q0 -76 32.5 -133t88.5 -87.5t125 -30.5q89 0 164 47.5z" />
    <glyph glyph-name="uni041F" unicode="&#x41f;" horiz-adv-x="674" 
d="M141 716h514l-127 -716h-84l112 635h-345l-113 -635h-84z" />
    <glyph glyph-name="uni0420" unicode="&#x420;" horiz-adv-x="576" 
d="M141 716h235q56 0 100 -23.5t69 -65.5t25 -96q0 -73 -33.5 -127.5t-93.5 -83t-136 -28.5h-156l-53 -292h-84zM322 373q71 0 116 37.5t45 109.5q0 53 -32.5 84t-81.5 31h-158l-46 -262h157z" />
    <glyph glyph-name="uni0421" unicode="&#x421;" horiz-adv-x="740" 
d="M188.5 24q-71.5 40 -111.5 113t-40 169q0 110 56.5 208.5t155.5 158t220 59.5q81 0 146 -33.5t99 -86.5l-68 -56q-33 49 -78 72t-108 23q-92 0 -169.5 -48t-122.5 -126.5t-45 -166.5q0 -73 31 -128.5t85.5 -86t121.5 -30.5q73 0 129 27t111 81l54 -61q-67 -66 -138.5 -97
t-165.5 -31q-91 0 -162.5 40z" />
    <glyph glyph-name="uni0422" unicode="&#x422;" horiz-adv-x="538" 
d="M273 635h-201l15 81h486l-15 -81h-200l-113 -635h-84z" />
    <glyph glyph-name="uni0423" unicode="&#x423;" horiz-adv-x="595" 
d="M14 0l35 78q19 -13 48 -13t47 13t39 45l38 60l-147 533h93l111 -435h4l262 435h102l-396 -629q-64 -103 -157 -103q-45 0 -79 16z" />
    <glyph glyph-name="uni0424" unicode="&#x424;" horiz-adv-x="796" 
d="M301 58q-82 8 -143 44t-94.5 94.5t-33.5 133.5q0 97 51 169.5t137 113t189 45.5l19 106h84l-19 -107q84 -8 145 -43.5t94 -94t33 -133.5q0 -98 -51 -170t-137 -112.5t-190 -46.5l-18 -105h-84zM393 579q-75 -6 -137.5 -36.5t-100.5 -83.5t-38 -123q0 -85 52 -137t146 -62
zM538 174q63 30 100.5 82t37.5 121q0 86 -52 138t-147 63l-77 -441q75 7 138 37z" />
    <glyph glyph-name="uni0425" unicode="&#x425;" horiz-adv-x="629" 
d="M267 375l-169 341h100l130 -277h4l228 277h104l-290 -348l183 -368h-100l-146 299h-4l-249 -299h-100z" />
    <glyph glyph-name="uni0426" unicode="&#x426;" horiz-adv-x="679" 
d="M505 0h-485l126 716h84l-111 -635h321l111 635h85l-112 -635h80l-44 -249h-84z" />
    <glyph glyph-name="uni0427" unicode="&#x427;" horiz-adv-x="580" 
d="M438 328q-39 -33 -83 -50.5t-107 -17.5q-53 0 -97 20.5t-69.5 61.5t-25.5 98q0 18 6 54l39 222h86l-40 -227q-3 -21 -3 -35q0 -55 34.5 -84.5t98.5 -29.5q52 0 97.5 22.5t79.5 61.5l52 292h85l-127 -716h-85z" />
    <glyph glyph-name="uni0428" unicode="&#x428;" horiz-adv-x="892" 
d="M135 716h85l-112 -635h246l113 635h85l-112 -635h247l112 635h85l-127 -716h-749z" />
    <glyph glyph-name="uni0429" unicode="&#x429;" horiz-adv-x="941" 
d="M752 0h-744l127 716h85l-112 -635h246l113 635h85l-112 -635h247l112 635h85l-113 -635h80l-44 -249h-84z" />
    <glyph glyph-name="uni042A" unicode="&#x42a;" horiz-adv-x="736" 
d="M257 635h-188l15 81h273l-48 -265h156q99 0 158 -54.5t59 -147.5q0 -71 -35 -128t-98.5 -89t-146.5 -32h-257zM418 81q50 0 90 20t63 56.5t23 82.5q0 58 -36 94t-96 36h-167l-52 -289h175z" />
    <glyph glyph-name="uni042B" unicode="&#x42b;" horiz-adv-x="794" 
d="M131 716h85l-48 -265h156q99 0 158 -54.5t59 -147.5q0 -71 -35 -128t-98.5 -89t-146.5 -32h-257zM701 716h85l-127 -716h-85zM277 81q50 0 90 20t63 56.5t23 82.5q0 58 -36 94t-96 36h-167l-52 -289h175z" />
    <glyph glyph-name="uni042C" unicode="&#x42c;" horiz-adv-x="599" 
d="M135 716h85l-48 -265h156q99 0 158.5 -54.5t59.5 -147.5q0 -71 -35 -128t-99 -89t-147 -32h-257zM281 81q50 0 90 20t63 56.5t23 82.5q0 58 -36 94t-96 36h-166l-52 -289h174z" />
    <glyph glyph-name="uni042D" unicode="&#x42d;" horiz-adv-x="723" 
d="M108.5 23q-68.5 39 -112.5 98l67 56q83 -112 215 -112q78 0 145 34.5t112 92t62 126.5h-341l14 80h337v1q-1 80 -32 136.5t-84.5 86t-121.5 29.5q-62 0 -117.5 -25t-97.5 -71l-59 60q59 58 128 87.5t155 29.5q93 0 164 -40.5t110 -116t39 -176.5q0 -109 -53.5 -204.5
t-150 -153t-218.5 -57.5q-92 0 -160.5 39z" />
    <glyph glyph-name="uni042E" unicode="&#x42e;" horiz-adv-x="1065" 
d="M447.5 25.5q-74.5 41.5 -117 115.5t-42.5 168v17h-142l-57 -326h-85l127 716h85l-56 -310h139q20 90 77.5 164.5t144.5 118t190 43.5q90 0 164 -41.5t117 -115.5t43 -168q0 -110 -53.5 -207.5t-150 -156.5t-217.5 -59q-92 0 -166.5 41.5zM785.5 112.5q74.5 47.5 118 125
t43.5 162.5q0 76 -32.5 133t-88.5 87.5t-125 30.5q-89 0 -164 -47.5t-118.5 -125t-43.5 -162.5q0 -76 32.5 -133t89 -87.5t125.5 -30.5q89 0 163.5 47.5z" />
    <glyph glyph-name="uni042F" unicode="&#x42f;" horiz-adv-x="594" 
d="M-32 4l253 293l-2 3q-57 17 -98 66t-41 121q0 61 34.5 114t94.5 84t133 31h243l-127 -716h-84l52 292h-107l-248 -292h-104zM440 371l46 264h-156q-47 0 -84 -20t-58 -52.5t-21 -69.5q0 -57 35.5 -89.5t91.5 -32.5h146z" />
    <glyph glyph-name="uni0430" unicode="&#x430;" horiz-adv-x="528" 
d="M107.5 4.5q-38.5 20.5 -61 56t-22.5 79.5q0 85 62.5 135.5t171.5 50.5q40 0 78.5 -9.5t68.5 -25.5l6 30q3 17 3 29q0 45 -35.5 72.5t-89.5 27.5q-83 0 -137 -68l-66 47q36 46 91 71.5t121 25.5q92 0 144.5 -44.5t52.5 -119.5q0 -21 -5 -51l-56 -311h-81l13 72h-4
q-27 -40 -71 -64t-100 -24q-45 0 -83.5 20.5zM330 104.5q51 45.5 63 116.5q-31 18 -62 27t-78 9q-63 0 -102.5 -29.5t-39.5 -81.5q0 -40 28.5 -63.5t70.5 -23.5q69 0 120 45.5z" />
    <glyph glyph-name="uni0431" unicode="&#x431;" horiz-adv-x="610" 
d="M150 16.5q-51 32.5 -81 94t-30 144.5q0 112 37.5 206.5t114.5 158.5q44 36 101.5 57t121.5 21q38 0 58 3.5t29.5 10.5t17.5 21h84q-22 -65 -66.5 -88.5t-129.5 -23.5q-59 0 -96 -14t-66 -39q-33 -28 -57.5 -62t-36.5 -81h4q29 45 79 73t118 28q63 0 111.5 -31t75 -85
t26.5 -119q0 -83 -37.5 -153.5t-106 -112t-156.5 -41.5q-64 0 -115 32.5zM382.5 93q46.5 32 72 83.5t25.5 108.5q0 75 -41.5 119.5t-105.5 44.5q-62 0 -109.5 -30.5t-73.5 -81.5t-26 -109q0 -51 21 -89t56 -58t76 -20q59 0 105.5 32z" />
    <glyph glyph-name="uni0432" unicode="&#x432;" horiz-adv-x="495" 
d="M82 510h226q66 0 106.5 -35.5t40.5 -88.5q0 -45 -24.5 -77t-59.5 -46l-1 -4q29 -13 47 -38t18 -61q0 -44 -25 -80.5t-66.5 -58t-89.5 -21.5h-262zM288 295q34 0 57 21.5t23 52.5q0 29 -18 46.5t-50 17.5h-147l-24 -138h159zM257 77q38 0 64.5 24t26.5 62q0 27 -18.5 45
t-49.5 18h-163l-27 -149h167z" />
    <glyph glyph-name="uni0433" unicode="&#x433;" horiz-adv-x="421" 
d="M82 510h340l-14 -77h-255l-77 -433h-84z" />
    <glyph glyph-name="uni0434" unicode="&#x434;" horiz-adv-x="643" 
d="M-1 77h55q27 23 55 90.5t42 145.5l34 197h403l-76 -433h76l-41 -229h-81l27 152h-426l-27 -152h-80zM428 77l62 356h-236l-23 -136q-13 -72 -33 -124.5t-49 -95.5h279z" />
    <glyph glyph-name="uni0435" unicode="&#x435;" horiz-adv-x="564" 
d="M120 15.5q-52 31.5 -79.5 85t-27.5 117.5q0 80 36 151t102 114t151 43q66 0 114 -29t73 -78t25 -108q0 -43 -9 -72h-404q-2 -20 -2 -32q0 -44 20.5 -77.5t54.5 -51t72 -17.5q59 0 100 24.5t69 70.5l65 -37q-38 -66 -99 -100.5t-140 -34.5q-69 0 -121 31.5zM429 309v14
q0 33 -16 62t-47 46.5t-74 17.5q-64 0 -111.5 -40t-65.5 -100h314z" />
    <glyph glyph-name="uni0436" unicode="&#x436;" horiz-adv-x="723" 
d="M-67 4l277 270l-172 232l1 4h99l162 -226h4l40 226h85l-41 -226h4l240 226h109l-1 -4l-261 -242l178 -260l-1 -4h-101l-168 252h-5l-44 -252h-84l45 252h-4l-256 -252h-107z" />
    <glyph glyph-name="uni0437" unicode="&#x437;" horiz-adv-x="477" 
d="M69 8.5q-49 24.5 -82 67.5l70 52q21 -30 56 -48.5t78 -18.5q56 0 94 22t38 66q0 34 -26.5 55t-76.5 21h-66l12 68h63q54 0 85 22t31 56q0 33 -26.5 55.5t-70.5 22.5q-37 0 -67 -13t-58 -43l-59 51q43 42 89 62t103 20q50 0 90 -20t63 -53.5t23 -74.5q0 -43 -27 -74
t-65 -42v-4q69 -31 69 -113q0 -75 -63.5 -118t-162.5 -43q-65 0 -114 24.5z" />
    <glyph glyph-name="uni0438" unicode="&#x438;" horiz-adv-x="557" 
d="M83 510h85l-51 -287l-21 -96h4l339 383h88l-90 -510h-85l51 287l21 96h-4l-339 -383h-88z" />
    <glyph glyph-name="uni0439" unicode="&#x439;" horiz-adv-x="557" 
d="M83 510h85l-51 -287l-21 -96h4l339 383h88l-90 -510h-85l51 287l21 96h-4l-339 -383h-88zM237.5 636.5q-32.5 29.5 -32.5 74.5q0 7 2 21h69q-1 -5 -1 -12q0 -21 12.5 -35t36.5 -14q26 0 44.5 16.5t23.5 44.5h68q-10 -62 -48 -93.5t-96 -31.5q-46 0 -78.5 29.5z" />
    <glyph glyph-name="uni043A" unicode="&#x43a;" horiz-adv-x="489" 
d="M88 510h85l-41 -231h4l252 231h111l-1 -4l-271 -241l194 -261l-1 -4h-102l-185 257h-4l-47 -257h-83z" />
    <glyph glyph-name="uni043B" unicode="&#x43b;" horiz-adv-x="613" 
d="M-22 0l16 76q15 -5 32 -5q23 0 37.5 15t25 48.5t21.5 94.5l49 281h421l-89 -510h-85l77 433h-254l-40 -226q-21 -118 -63 -166.5t-99 -48.5q-30 0 -49 8z" />
    <glyph glyph-name="uni043C" unicode="&#x43c;" horiz-adv-x="671" 
d="M79 510h99l120 -343h3l240 343h104l-90 -510h-85l50 281l21 96h-4l-222 -313h-62l-113 313h-4l-13 -96l-50 -281h-84z" />
    <glyph glyph-name="uni043D" unicode="&#x43d;" horiz-adv-x="561" 
d="M82 510h85l-38 -214h278l38 214h84l-90 -510h-85l38 217h-278l-38 -217h-84z" />
    <glyph glyph-name="uni043E" unicode="&#x43e;" horiz-adv-x="585" 
d="M125.5 16q-53.5 32 -83 87.5t-29.5 123.5q0 82 37.5 150.5t105.5 108.5t156 40q68 0 121 -32t82.5 -87.5t29.5 -123.5q0 -83 -37.5 -151.5t-105.5 -108t-155 -39.5q-68 0 -121.5 32zM361 90.5q46 29.5 72 79t26 108.5q0 48 -20 87t-55.5 61.5t-81.5 22.5
q-58 0 -104.5 -29.5t-72.5 -79.5t-26 -108q0 -49 20 -88t55.5 -61t81.5 -22q59 0 105 29.5z" />
    <glyph glyph-name="uni043F" unicode="&#x43f;" horiz-adv-x="544" 
d="M82 510h430l-91 -510h-84l77 433h-261l-77 -433h-84z" />
    <glyph glyph-name="uni0440" unicode="&#x440;" horiz-adv-x="597" 
d="M93 510h81l-13 -75h4q29 42 75.5 66.5t109.5 24.5q59 0 106.5 -28.5t74.5 -81t27 -122.5q0 -84 -38 -155.5t-105.5 -113t-151.5 -41.5q-56 0 -99.5 26.5t-62.5 65.5h-4l-8 -71l-40 -221h-84zM373 90.5q46 29.5 72 81.5t26 115q0 75 -40 118.5t-104 43.5q-56 0 -102.5 -31
t-73 -84t-26.5 -117q0 -71 41.5 -113.5t102.5 -42.5q58 0 104 29.5z" />
    <glyph glyph-name="uni0441" unicode="&#x441;" horiz-adv-x="544" 
d="M119 16q-51 32 -78.5 86t-27.5 117q0 85 38 155t105.5 111t153.5 41q82 0 134 -41t69 -100l-79 -31q-14 45 -48.5 70t-85.5 25q-55 0 -101 -29t-73 -80t-27 -115q0 -70 40.5 -117t106.5 -47q52 0 93.5 25.5t65.5 71.5l68 -33q-40 -72 -97.5 -106.5t-140.5 -34.5
q-65 0 -116 32z" />
    <glyph glyph-name="uni0442" unicode="&#x442;" horiz-adv-x="473" 
d="M206 433h-167l14 77h417l-14 -77h-166l-77 -433h-84z" />
    <glyph glyph-name="uni0443" unicode="&#x443;" horiz-adv-x="516" 
d="M174 33l-127 477h90l94 -379h2l222 379h95l-445 -726h-89z" />
    <glyph glyph-name="uni0444" unicode="&#x444;" horiz-adv-x="756" 
d="M288 -13q-77 6 -134.5 39t-89 85.5t-31.5 115.5q0 90 46.5 156t126 102t177.5 40l34 191h85l-35 -192q75 -7 132.5 -40t89 -87t31.5 -122q0 -87 -47.5 -152t-127 -100t-173.5 -38l-35 -201h-85zM514 92q57 24 90.5 68.5t33.5 106.5q0 75 -49.5 123t-134.5 56l-67 -381
q70 3 127 27zM369 445q-70 -4 -128 -30t-92 -72.5t-34 -108.5q0 -71 52 -116.5t135 -52.5z" />
    <glyph glyph-name="uni0445" unicode="&#x445;" horiz-adv-x="486" 
d="M170 261l-129 249h95l95 -188l158 188h103l-222 -254l135 -256h-95l-99 196l-163 -196h-103z" />
    <glyph glyph-name="uni0446" unicode="&#x446;" horiz-adv-x="592" 
d="M417 0h-424l89 510h85l-76 -433h260l76 433h85l-76 -433h76l-41 -229h-81z" />
    <glyph glyph-name="uni0447" unicode="&#x447;" horiz-adv-x="506" 
d="M350 195q-56 -37 -143 -37q-74 0 -119 43.5t-45 113.5q0 23 6 55l25 140h86l-27 -155q-4 -21 -4 -34q0 -41 27.5 -63.5t73.5 -22.5q89 0 136 46l40 229h85l-91 -510h-84z" />
    <glyph glyph-name="uni0448" unicode="&#x448;" horiz-adv-x="776" 
d="M82 510h85l-77 -433h195l76 433h85l-77 -433h195l76 433h85l-91 -510h-642z" />
    <glyph glyph-name="uni0449" unicode="&#x449;" horiz-adv-x="824" 
d="M630 0h-637l89 510h85l-76 -433h194l76 433h85l-76 -433h194l76 433h85l-76 -433h76l-41 -229h-81z" />
    <glyph glyph-name="uni044A" unicode="&#x44a;" horiz-adv-x="585" 
d="M162 433h-119l13 77h204l-32 -179h139q75 0 121.5 -40.5t46.5 -110.5q0 -52 -24.5 -93t-71.5 -64t-111 -23h-243zM340 77q48 0 77.5 26t29.5 72q0 35 -24.5 57t-62.5 22h-145l-32 -177h157z" />
    <glyph glyph-name="uni044B" unicode="&#x44b;" horiz-adv-x="693" 
d="M82 510h85l-32 -179h139q75 0 121 -40.5t46 -110.5q0 -80 -54.5 -130t-151.5 -50h-243zM577 510h85l-91 -510h-84zM247 77q47 0 76.5 26t29.5 72q0 35 -24.5 57t-62.5 22h-145l-31 -177h157z" />
    <glyph glyph-name="uni044C" unicode="&#x44c;" horiz-adv-x="498" 
d="M82 510h85l-32 -179h139q75 0 121 -40.5t46 -110.5q0 -80 -54.5 -130t-151.5 -50h-243zM247 77q47 0 76.5 26t29.5 72q0 35 -24.5 57t-62.5 22h-145l-31 -177h157z" />
    <glyph glyph-name="uni044D" unicode="&#x44d;" horiz-adv-x="529" 
d="M56.5 25q-54.5 41 -71.5 100l76 30q18 -46 51.5 -70t89.5 -24q47 0 87.5 22t68 58t38.5 79h-222l12 69h218v2q-3 76 -45 117t-100 41q-54 0 -94 -26t-65 -70l-71 35q33 63 93 100.5t141 37.5q64 0 114.5 -29t79.5 -83.5t29 -127.5q0 -81 -38 -150.5t-105 -110.5t-149 -41
q-83 0 -137.5 41z" />
    <glyph glyph-name="uni044E" unicode="&#x44e;" horiz-adv-x="779" 
d="M328 14q-52 30 -82.5 82t-33.5 117v2h-91l-37 -215h-85l90 510h85l-39 -216h83q14 66 54 119t101.5 83t136.5 30q68 0 121.5 -32t83 -87.5t29.5 -123.5q0 -83 -37.5 -151t-106 -108t-155.5 -40q-65 0 -117 30zM560 90.5q46 29.5 72 79t26 108.5q0 48 -20 87t-56 61.5
t-82 22.5q-58 0 -104 -29.5t-72 -79.5t-26 -108q0 -74 43.5 -122.5t113.5 -48.5q59 0 105 29.5z" />
    <glyph glyph-name="uni044F" unicode="&#x44f;" horiz-adv-x="484" 
d="M-61 5l173 183l-2 3q-41 13 -69 49.5t-28 90.5q0 46 24.5 87t69.5 66.5t104 25.5h243l-90 -510h-85l33 184h-105l-167 -184h-102zM325 257l31 176h-148q-48 0 -78 -29.5t-30 -68.5q0 -37 24 -57.5t62 -20.5h139z" />
    <glyph glyph-name="uni0450" unicode="&#x450;" horiz-adv-x="564" 
d="M120 15.5q-52 31.5 -79.5 85t-27.5 117.5q0 80 36 151t102 114t151 43q66 0 114 -29t73 -78t25 -108q0 -43 -9 -72h-404q-2 -20 -2 -32q0 -44 20.5 -77.5t54.5 -51t72 -17.5q59 0 100 24.5t69 70.5l65 -37q-38 -66 -99 -100.5t-140 -34.5q-69 0 -121 31.5zM429 309v14
q0 33 -16 62t-47 46.5t-74 17.5q-64 0 -111.5 -40t-65.5 -100h314zM235 736h91l29 -127h-72z" />
    <glyph glyph-name="uni0451" unicode="&#x451;" horiz-adv-x="564" 
d="M120 15.5q-52 31.5 -79.5 85t-27.5 117.5q0 80 36 151t102 114t151 43q66 0 114 -29t73 -78t25 -108q0 -43 -9 -72h-404q-2 -20 -2 -32q0 -44 20.5 -77.5t54.5 -51t72 -17.5q59 0 100 24.5t69 70.5l65 -37q-38 -66 -99 -100.5t-140 -34.5q-69 0 -121 31.5zM429 309v14
q0 33 -16 62t-47 46.5t-74 17.5q-64 0 -111.5 -40t-65.5 -100h314zM209 641q-16 16 -16 38q0 23 15.5 38t37.5 15q24 0 39 -15t15 -38q0 -22 -15.5 -38t-38.5 -16q-21 0 -37 16zM373 641q-16 16 -16 38q0 23 16 38t38 15q23 0 38 -15t15 -38q0 -22 -15 -38t-38 -16
q-22 0 -38 16z" />
    <glyph glyph-name="uni0452" unicode="&#x452;" horiz-adv-x="548" 
d="M197 -216l32 74q11 -7 31 -7q58 0 70 68l69 388q6 27 6 49q0 42 -29.5 67.5t-77.5 25.5q-63 0 -111 -48t-62 -124l-49 -277h-85l103 583h-64l12 67h63l12 66h85l-12 -66h148l-12 -67h-148l-14 -78l-16 -70h4q28 41 73 66t102 25q78 0 121 -41.5t43 -109.5q0 -32 -7 -68
l-69 -390q-25 -143 -163 -143q-33 0 -55 10z" />
    <glyph glyph-name="uni0453" unicode="&#x453;" horiz-adv-x="421" 
d="M82 510h340l-14 -77h-255l-77 -433h-84zM305 736h95l-93 -127h-76z" />
    <glyph glyph-name="uni0454" unicode="&#x454;" horiz-adv-x="528" 
d="M113.5 16q-50.5 32 -78.5 86t-28 119q0 83 37 152.5t104.5 111t153.5 41.5q82 0 133 -41t65 -100l-78 -30q-13 45 -45.5 69.5t-83.5 24.5q-69 0 -122.5 -44t-71.5 -116h230l-12 -69h-225v-3q3 -68 43.5 -112t103.5 -44q105 0 153 97l68 -33q-38 -72 -94 -106.5
t-137 -34.5q-65 0 -115.5 32z" />
    <glyph glyph-name="uni0455" unicode="&#x455;" horiz-adv-x="468" 
d="M58.5 23q-52.5 39 -69.5 101l80 32q10 -46 47 -71.5t85 -25.5t79.5 23t31.5 58q0 31 -21 51.5t-65 31.5l-51 13q-61 16 -96.5 50t-35.5 86q0 43 25.5 78.5t71.5 55.5t103 20q68 0 119.5 -32t68.5 -84l-81 -31q-12 33 -41 52t-71 19q-48 0 -77.5 -20t-29.5 -52
q0 -22 19.5 -41t54.5 -28l66 -17q60 -15 94.5 -52t34.5 -90q0 -75 -55 -120.5t-153 -45.5q-81 0 -133.5 39z" />
    <glyph glyph-name="uni0456" unicode="&#x456;" horiz-adv-x="226" 
d="M122 621q-18 18 -18 43q0 26 18 43.5t43 17.5t43 -18t18 -43t-18 -43t-43 -18t-43 18zM94 510h85l-90 -510h-84z" />
    <glyph glyph-name="uni0457" unicode="&#x457;" horiz-adv-x="213" 
d="M54 641q-16 16 -16 38q0 23 16 38t38 15q23 0 38 -15t15 -38q0 -22 -15 -38t-38 -16q-22 0 -38 16zM187 641q-16 16 -16 38q0 23 15.5 38t37.5 15q23 0 38.5 -15t15.5 -38q0 -22 -15.5 -38t-38.5 -16q-21 0 -37 16zM94 510h85l-90 -510h-84z" />
    <glyph glyph-name="uni0458" unicode="&#x458;" horiz-adv-x="230" 
d="M125 616q-18 18 -18 43q0 26 18 43.5t43 17.5q26 0 43.5 -17.5t17.5 -43.5q0 -25 -17.5 -43t-43.5 -18q-25 0 -43 18zM-130 -218l14 79q7 -4 19 -7t22 -3q31 0 47.5 18.5t22.5 52.5l104 588h85l-104 -592q-14 -79 -55 -111.5t-106 -32.5q-25 0 -49 8z" />
    <glyph glyph-name="uni0459" unicode="&#x459;" horiz-adv-x="908" 
d="M-23 0l15 76q15 -5 31 -5q33 0 51 31t30 102l53 306h421l-33 -189h143q73 0 117.5 -40.5t44.5 -105.5q0 -81 -55 -128t-144 -47h-247l77 433h-254l-41 -231q-37 -210 -160 -210q-30 0 -49 8zM663 77q44 0 71.5 24.5t27.5 65.5q0 35 -22.5 56t-59.5 21h-149l-29 -167h161z
" />
    <glyph glyph-name="uni045A" unicode="&#x45a;" horiz-adv-x="821" 
d="M82 510h85l-34 -189h241l34 189h84l-33 -189h140q74 0 118.5 -41t44.5 -110q0 -50 -25.5 -88.5t-70.5 -60t-102 -21.5h-246l43 244h-242l-43 -244h-84zM576 77q44 0 71 24.5t27 66.5q0 33 -23 54.5t-59 21.5h-147l-29 -167h160z" />
    <glyph glyph-name="uni045B" unicode="&#x45b;" horiz-adv-x="548" 
d="M94 583h-64l12 67h63l12 66h85l-12 -66h148l-12 -67h-148l-14 -78l-16 -70h4q28 41 73 66t102 25q78 0 121 -41.5t43 -109.5q0 -32 -7 -68l-54 -307h-85l54 307q6 27 6 49q0 42 -29.5 67.5t-77.5 25.5q-63 0 -111 -48t-62 -124l-49 -277h-85z" />
    <glyph glyph-name="uni045C" unicode="&#x45c;" horiz-adv-x="489" 
d="M88 510h85l-41 -231h4l252 231h111l-1 -4l-271 -241l194 -261l-1 -4h-102l-185 257h-4l-47 -257h-83zM331 736h95l-93 -127h-76z" />
    <glyph glyph-name="uni045D" unicode="&#x45d;" horiz-adv-x="557" 
d="M83 510h85l-51 -287l-21 -96h4l339 383h88l-90 -510h-85l51 287l21 96h-4l-339 -383h-88zM233 736h91l29 -127h-72z" />
    <glyph glyph-name="uni045E" unicode="&#x45e;" horiz-adv-x="516" 
d="M174 33l-127 477h90l94 -379h2l222 379h95l-445 -726h-89zM229.5 636.5q-32.5 29.5 -32.5 74.5q0 7 2 21h69q-1 -5 -1 -12q0 -21 12.5 -35t36.5 -14q26 0 44.5 16.5t23.5 44.5h68q-10 -62 -48 -93.5t-96 -31.5q-46 0 -78.5 29.5z" />
    <glyph glyph-name="uni045F" unicode="&#x45f;" horiz-adv-x="564" 
d="M179 0h-185l90 510h84l-76 -433h281l76 433h85l-90 -510h-184l-27 -152h-81z" />
    <glyph glyph-name="uni0490" unicode="&#x490;" horiz-adv-x="506" 
d="M120 716h330l19 110h81l-34 -191h-326l-111 -635h-84z" />
    <glyph glyph-name="uni0491" unicode="&#x491;" horiz-adv-x="417" 
d="M82 510h255l17 96h81l-31 -173h-251l-76 -433h-84z" />
    <glyph glyph-name="uni04AE" unicode="&#x4ae;" horiz-adv-x="595" 
d="M250 331l-174 385h97l130 -300h4l233 300h102l-307 -385l-59 -331h-84z" />
    <glyph glyph-name="uni04AF" unicode="&#x4af;" horiz-adv-x="509" 
d="M146 0l-117 512h88l87 -419l235 417h91l-299 -510l-38 -216h-85z" />
    <glyph glyph-name="uni04B0" unicode="&#x4b0;" horiz-adv-x="589" 
d="M238 279h-177l12 66h167l-167 371h97l130 -300h4l233 300h102l-295 -371h168l-12 -66h-177l-50 -279h-84z" />
    <glyph glyph-name="uni04B1" unicode="&#x4b1;" horiz-adv-x="508" 
d="M162 0h-147l12 65h122l-9 33l-94 412h87l87 -417l234 417h91l-241 -412l-20 -33h121l-12 -65h-146l-38 -216h-85z" />
    <glyph glyph-name="uni0E3F" unicode="&#xe3f;" horiz-adv-x="575" 
d="M186 0h-180l121 684h179l18 100h71l-18 -100h2q74 -1 122.5 -46t48.5 -117q0 -59 -34 -103.5t-89 -62.5l-1 -3q40 -18 65.5 -54t25.5 -85q0 -59 -31.5 -108t-87.5 -77t-127 -28h-14l-17 -100h-71zM255 389l38 214h-96l-38 -214h96zM328 389q58 0 97 32t39 84
q0 45 -25 71.5t-73 26.5h-3l-38 -214h3zM201 81l40 229h-96l-40 -229h96zM291 81q60 0 99.5 35.5t39.5 92.5q0 43 -27.5 72t-75.5 29h-16l-40 -229h20z" />
    <glyph glyph-name="Wgrave" unicode="&#x1e80;" horiz-adv-x="944" 
d="M79 716h91l38 -526l4 -49h4l23 49l252 526h88l61 -526l6 -49h4l20 49l223 526h95l-316 -716h-88l-65 518l-7 56h-4l-26 -56l-248 -518h-89zM454 900h91l29 -127h-72z" />
    <glyph glyph-name="wgrave" unicode="&#x1e81;" horiz-adv-x="778" 
d="M32 510h86l48 -403h1l200 403h90l59 -402h1l190 402h89l-254 -510h-89l-58 407l-203 -407h-86zM343 736h91l29 -127h-72z" />
    <glyph glyph-name="Wacute" unicode="&#x1e82;" horiz-adv-x="944" 
d="M79 716h91l38 -526l4 -49h4l23 49l252 526h88l61 -526l6 -49h4l20 49l223 526h95l-316 -716h-88l-65 518l-7 56h-4l-26 -56l-248 -518h-89zM579 900h95l-93 -127h-77z" />
    <glyph glyph-name="wacute" unicode="&#x1e83;" horiz-adv-x="778" 
d="M32 510h86l48 -403h1l200 403h90l59 -402h1l190 402h89l-254 -510h-89l-58 407l-203 -407h-86zM460 736h95l-93 -127h-76z" />
    <glyph glyph-name="Wdieresis" unicode="&#x1e84;" horiz-adv-x="944" 
d="M79 716h91l38 -526l4 -49h4l23 49l252 526h88l61 -526l6 -49h4l20 49l223 526h95l-316 -716h-88l-65 518l-7 56h-4l-26 -56l-248 -518h-89zM434.5 805.5q-16.5 16.5 -16.5 37.5q0 23 16 38.5t38 15.5q23 0 38.5 -15.5t15.5 -38.5q0 -22 -15.5 -38t-38.5 -16
q-21 0 -37.5 16.5zM599 805.5q-16 16.5 -16 37.5q0 23 16 38.5t37 15.5q23 0 38.5 -15.5t15.5 -38.5q0 -22 -15.5 -38t-38.5 -16q-21 0 -37 16.5z" />
    <glyph glyph-name="wdieresis" unicode="&#x1e85;" horiz-adv-x="778" 
d="M32 510h86l48 -403h1l200 403h90l59 -402h1l190 402h89l-254 -510h-89l-58 407l-203 -407h-86zM317 641q-16 16 -16 38q0 23 15.5 38t37.5 15q24 0 39 -15t15 -38q0 -22 -15.5 -38t-38.5 -16q-21 0 -37 16zM481 641q-16 16 -16 38q0 23 16 38t38 15q23 0 38 -15t15 -38
q0 -22 -15 -38t-38 -16q-22 0 -38 16z" />
    <glyph glyph-name="Ygrave" unicode="&#x1ef2;" horiz-adv-x="595" 
d="M250 331l-174 385h97l130 -300h4l233 300h102l-307 -385l-59 -331h-84zM268 900h91l29 -127h-72z" />
    <glyph glyph-name="ygrave" unicode="&#x1ef3;" horiz-adv-x="516" 
d="M174 33l-127 477h90l94 -379h2l222 379h95l-445 -726h-89zM225 736h91l29 -127h-72z" />
    <glyph glyph-name="uni2000" unicode="&#x2000;" horiz-adv-x="415" 
 />
    <glyph glyph-name="uni2001" unicode="&#x2001;" horiz-adv-x="830" 
 />
    <glyph glyph-name="uni2002" unicode="&#x2002;" horiz-adv-x="415" 
 />
    <glyph glyph-name="uni2003" unicode="&#x2003;" horiz-adv-x="830" 
 />
    <glyph glyph-name="uni2004" unicode="&#x2004;" horiz-adv-x="275" 
 />
    <glyph glyph-name="uni2005" unicode="&#x2005;" horiz-adv-x="207" 
 />
    <glyph glyph-name="uni2006" unicode="&#x2006;" horiz-adv-x="138" 
 />
    <glyph glyph-name="uni2007" unicode="&#x2007;" 
 />
    <glyph glyph-name="uni2008" unicode="&#x2008;" horiz-adv-x="232" 
 />
    <glyph glyph-name="uni2009" unicode="&#x2009;" horiz-adv-x="138" 
 />
    <glyph glyph-name="uni200A" unicode="&#x200a;" horiz-adv-x="70" 
 />
    <glyph glyph-name="endash" unicode="&#x2013;" horiz-adv-x="586" 
d="M530 345l-12 -70h-476l12 70h476z" />
    <glyph glyph-name="emdash" unicode="&#x2014;" horiz-adv-x="886" 
d="M830 345l-12 -70h-776l12 70h776z" />
    <glyph glyph-name="uni2015" unicode="&#x2015;" horiz-adv-x="1018" 
d="M970 345l-12 -70h-908l12 70h908z" />
    <glyph glyph-name="quoteleft" unicode="&#x2018;" horiz-adv-x="224" 
d="M164 631q13 -5 25 -20t12 -37q0 -27 -19 -45.5t-44 -18.5q-27 0 -45.5 18.5t-18.5 45.5q0 14 9 28.5t29 39.5l77 90l34 -29z" />
    <glyph glyph-name="quoteright" unicode="&#x2019;" horiz-adv-x="228" 
d="M136 611q-35 19 -35 57q0 27 19 45.5t44 18.5q27 0 45.5 -18.5t18.5 -45.5q0 -14 -9 -28.5t-29 -39.5l-77 -90l-34 29z" />
    <glyph glyph-name="quotesinglbase" unicode="&#x201a;" horiz-adv-x="224" 
d="M35 0q-13 5 -25 20t-12 37q0 27 19 45.5t44 18.5q27 0 45.5 -18.5t18.5 -45.5q0 -14 -9 -28.5t-29 -39.5l-77 -90l-34 29z" />
    <glyph glyph-name="quotedblleft" unicode="&#x201c;" horiz-adv-x="392" 
d="M160 631q13 -5 25 -20t12 -37q0 -27 -19 -45.5t-44 -18.5q-27 0 -45.5 18.5t-18.5 45.5q0 14 9 28.5t29 39.5l77 90l34 -29zM328 631q13 -5 25 -20t12 -37q0 -27 -19 -45.5t-44 -18.5q-27 0 -45.5 18.5t-18.5 45.5q0 14 9 28.5t29 39.5l77 90l34 -29z" />
    <glyph glyph-name="quotedblright" unicode="&#x201d;" horiz-adv-x="392" 
d="M150 611q-13 5 -25 20t-12 37q0 27 19 45.5t44 18.5q27 0 45.5 -18.5t18.5 -45.5q0 -14 -9 -28.5t-29 -39.5l-77 -90l-34 29zM318 611q-13 5 -25 20t-12 37q0 27 19 45.5t44 18.5q27 0 45.5 -18.5t18.5 -45.5q0 -14 -9 -28.5t-29 -39.5l-77 -90l-34 29z" />
    <glyph glyph-name="quotedblbase" unicode="&#x201e;" horiz-adv-x="392" 
d="M36 0q-13 5 -25 20t-12 37q0 27 19 45.5t44 18.5q27 0 45.5 -18.5t18.5 -45.5q0 -14 -9 -28.5t-29 -39.5l-77 -90l-34 29zM204 0q-13 5 -25 20t-12 37q0 27 19 45.5t44 18.5q27 0 45.5 -18.5t18.5 -45.5q0 -14 -9 -28.5t-29 -39.5l-77 -90l-34 29z" />
    <glyph glyph-name="dagger" unicode="&#x2020;" horiz-adv-x="435" 
d="M213 571l25 145h85l-26 -145h144l-14 -78h-144l-59 -335h-85l60 335h-144l14 78h144z" />
    <glyph glyph-name="daggerdbl" unicode="&#x2021;" horiz-adv-x="435" 
d="M213 571l25 145h85l-26 -145h144l-14 -78h-144l-45 -254h144l-14 -78h-143l-29 -161h-85l29 161h-143l13 78h144l45 254h-144l14 78h144z" />
    <glyph glyph-name="bullet" unicode="&#x2022;" horiz-adv-x="381" 
d="M105 244q-33 33 -33 80t33 80t79 33q47 0 80 -33t33 -80q0 -46 -33 -79.5t-80 -33.5q-46 0 -79 33z" />
    <glyph glyph-name="ellipsis" unicode="&#x2026;" horiz-adv-x="681" 
d="M10.5 12.5q-18.5 18.5 -18.5 45.5q0 26 18.5 44.5t45.5 18.5q26 0 44.5 -18.5t18.5 -44.5q0 -27 -18.5 -45.5t-44.5 -18.5q-27 0 -45.5 18.5zM240.5 12.5q-18.5 18.5 -18.5 45.5q0 26 18.5 44.5t45.5 18.5q26 0 44.5 -18.5t18.5 -44.5q0 -27 -18.5 -45.5t-44.5 -18.5
q-27 0 -45.5 18.5zM470.5 12.5q-18.5 18.5 -18.5 45.5q0 26 18.5 44.5t45.5 18.5q26 0 44.5 -18.5t18.5 -44.5q0 -27 -18.5 -45.5t-44.5 -18.5q-27 0 -45.5 18.5z" />
    <glyph glyph-name="perthousand" unicode="&#x2030;" horiz-adv-x="1092" 
d="M101 400q-42 42 -42 107q0 53 26 97.5t71 70t101 25.5q64 0 105.5 -42t41.5 -107q0 -53 -26 -97.5t-71 -70t-100 -25.5q-64 0 -106 42zM98 32l562 659l47 -40l-562 -658zM301 456q34 36 34 89q0 41 -24.5 67t-61.5 26q-52 0 -86.5 -36t-34.5 -89q0 -41 25 -67t62 -26
q52 0 86 36zM443 26q-42 42 -42 107q0 53 26 97.5t71 70t101 25.5q43 0 74.5 -21t49.5 -59q24 36 66.5 58t90.5 22q64 0 105.5 -42t41.5 -107q0 -53 -26 -97.5t-71 -70t-101 -25.5q-41 0 -74.5 22.5t-50.5 57.5q-27 -37 -66.5 -58.5t-88.5 -21.5q-64 0 -106 42zM643 82
q34 36 34 89q0 41 -24.5 67t-61.5 26q-52 0 -86 -35.5t-34 -89.5q0 -41 24.5 -67t61.5 -26q52 0 86 36zM924 82q34 36 34 89q0 41 -25 67t-62 26q-52 0 -86 -36t-34 -89q0 -41 25 -67t62 -26q52 0 86 36z" />
    <glyph glyph-name="uni2031" unicode="&#x2031;" horiz-adv-x="1372" 
d="M101 400q-42 42 -42 107q0 53 26 97.5t71 70t101 25.5q64 0 105.5 -42t41.5 -107q0 -53 -26 -97.5t-71 -70t-100 -25.5q-64 0 -106 42zM98 32l562 659l47 -40l-562 -658zM301 456q34 36 34 89q0 41 -24.5 67t-61.5 26q-52 0 -86.5 -36t-34.5 -89q0 -41 25 -67t62 -26
q52 0 86 36zM443 26q-42 42 -42 107q0 53 26 97.5t71 70t101 25.5q43 0 74.5 -21t49.5 -59q24 36 66.5 58t90.5 22q43 0 74.5 -21t49.5 -59q24 36 66.5 58t89.5 22q65 0 106.5 -42t41.5 -107q0 -53 -26 -97.5t-71 -70t-101 -25.5q-41 0 -75 22.5t-50 57.5q-27 -37 -67 -58.5
t-89 -21.5q-41 0 -74.5 22.5t-50.5 57.5q-27 -37 -66.5 -58.5t-88.5 -21.5q-64 0 -106 42zM643 82q34 36 34 89q0 41 -24.5 67t-61.5 26q-52 0 -86 -35.5t-34 -89.5q0 -41 24.5 -67t61.5 -26q52 0 86 36zM924 82q34 36 34 89q0 41 -25 67t-62 26q-52 0 -86 -36t-34 -89
q0 -41 25 -67t62 -26q52 0 86 36zM1204 81.5q34 35.5 34 89.5q0 41 -24.5 67t-61.5 26q-52 0 -86 -35.5t-34 -89.5q0 -41 24.5 -67t61.5 -26q52 0 86 35.5z" />
    <glyph glyph-name="guilsinglleft" unicode="&#x2039;" horiz-adv-x="348" 
d="M180 54l-162 217l238 217l44 -49l-189 -173l124 -167z" />
    <glyph glyph-name="guilsinglright" unicode="&#x203a;" horiz-adv-x="348" 
d="M133 488l161 -217l-238 -217l-43 49l188 173l-124 167z" />
    <glyph glyph-name="exclamdbl" unicode="&#x203c;" horiz-adv-x="432" 
d="M88 473l43 243h85l-43 -243l-56 -262h-65zM13.5 12.5q-18.5 18.5 -18.5 45.5q0 26 18.5 44.5t45.5 18.5q26 0 44.5 -18.5t18.5 -44.5q0 -27 -18.5 -45.5t-44.5 -18.5q-27 0 -45.5 18.5zM299 473l43 243h85l-43 -243l-56 -262h-65zM224.5 12.5q-18.5 18.5 -18.5 45.5
q0 26 18.5 44.5t45.5 18.5q26 0 44.5 -18.5t18.5 -44.5q0 -27 -18.5 -45.5t-44.5 -18.5q-27 0 -45.5 18.5z" />
    <glyph glyph-name="uni2042" unicode="&#x2042;" horiz-adv-x="866" 
d="M321 437l90 97l-1 7l-98 36l27 62l101 -38l4 2l19 111h67l-19 -111l4 -2l104 36l22 -62l-116 -41l-3 -8l53 -91l-60 -38l-53 94h-7l-85 -95zM17 35l90 97l-1 7l-98 36l27 62l101 -38l4 2l19 111h67l-19 -111l4 -2l104 36l22 -62l-116 -41l-3 -8l53 -91l-60 -38l-53 94h-7
l-85 -95zM483 35l90 97l-1 7l-98 36l27 62l101 -38l4 2l19 111h67l-19 -111l4 -2l104 36l22 -62l-116 -41l-3 -8l53 -91l-60 -38l-53 94h-7l-85 -95z" />
    <glyph glyph-name="uni2043" unicode="&#x2043;" horiz-adv-x="392" 
d="M320 349l-13 -78h-253l13 78h253z" />
    <glyph glyph-name="fraction" unicode="&#x2044;" horiz-adv-x="173" 
d="M357 723l49 -40l-588 -691l-52 41z" />
    <glyph glyph-name="uni2047" unicode="&#x2047;" horiz-adv-x="944" 
d="M174 259q9 52 32 84.5t83 77.5q45 33 71.5 65t26.5 71q0 42 -29.5 68t-77.5 26q-50 0 -84.5 -28t-48.5 -71l-74 33q23 65 78.5 106t140.5 41q52 0 94 -22t65.5 -59t23.5 -82q0 -59 -33.5 -103t-97.5 -93q-39 -30 -58.5 -57t-26.5 -63l-7 -42h-86zM136.5 12.5
q-18.5 18.5 -18.5 45.5q0 26 18.5 44.5t44.5 18.5q27 0 45.5 -18.5t18.5 -44.5q0 -27 -18.5 -45.5t-45.5 -18.5q-26 0 -44.5 18.5zM631 259q9 52 32 84.5t83 77.5q45 33 71.5 65t26.5 71q0 42 -29.5 68t-77.5 26q-50 0 -84.5 -28t-48.5 -71l-74 33q23 65 78.5 106t140.5 41
q52 0 94 -22t65.5 -59t23.5 -82q0 -59 -33.5 -103t-97.5 -93q-39 -30 -58.5 -57t-26.5 -63l-7 -42h-86zM593.5 12.5q-18.5 18.5 -18.5 45.5q0 26 18.5 44.5t44.5 18.5q27 0 45.5 -18.5t18.5 -44.5q0 -27 -18.5 -45.5t-45.5 -18.5q-26 0 -44.5 18.5z" />
    <glyph glyph-name="uni2048" unicode="&#x2048;" horiz-adv-x="676" 
d="M174 259q9 52 32 84.5t83 77.5q45 33 71.5 65t26.5 71q0 42 -29.5 68t-77.5 26q-50 0 -84.5 -28t-48.5 -71l-74 33q23 65 78.5 106t140.5 41q52 0 94 -22t65.5 -59t23.5 -82q0 -59 -33.5 -103t-97.5 -93q-39 -30 -58.5 -57t-26.5 -63l-7 -42h-86zM136.5 12.5
q-18.5 18.5 -18.5 45.5q0 26 18.5 44.5t44.5 18.5q27 0 45.5 -18.5t18.5 -44.5q0 -27 -18.5 -45.5t-45.5 -18.5q-26 0 -44.5 18.5zM543 473l43 243h85l-43 -243l-56 -262h-65zM468.5 12.5q-18.5 18.5 -18.5 45.5q0 26 18.5 44.5t45.5 18.5q26 0 44.5 -18.5t18.5 -44.5
q0 -27 -18.5 -45.5t-44.5 -18.5q-27 0 -45.5 18.5z" />
    <glyph glyph-name="uni2049" unicode="&#x2049;" horiz-adv-x="687" 
d="M372 259q9 52 32 84.5t83 77.5q45 33 71.5 65t26.5 71q0 42 -29.5 68t-77.5 26q-50 0 -84.5 -28t-48.5 -71l-74 33q23 65 78.5 106t140.5 41q52 0 94 -22t65.5 -59t23.5 -82q0 -59 -33.5 -103t-97.5 -93q-39 -30 -58.5 -57t-26.5 -63l-7 -42h-86zM334.5 12.5
q-18.5 18.5 -18.5 45.5q0 26 18.5 44.5t44.5 18.5q27 0 45.5 -18.5t18.5 -44.5q0 -27 -18.5 -45.5t-45.5 -18.5q-26 0 -44.5 18.5zM88 473l43 243h85l-43 -243l-56 -262h-65zM13.5 12.5q-18.5 18.5 -18.5 45.5q0 26 18.5 44.5t45.5 18.5q26 0 44.5 -18.5t18.5 -44.5
q0 -27 -18.5 -45.5t-44.5 -18.5q-27 0 -45.5 18.5z" />
    <glyph glyph-name="uni204E" unicode="&#x204e;" horiz-adv-x="394" 
d="M19 41l97 104l-1 8l-101 38l27 64l104 -40l6 2l21 119h71l-21 -119l5 -2l106 37l22 -65l-117 -43l-3 -7l56 -99l-65 -42l-56 101h-7l-91 -101z" />
    <glyph glyph-name="uni2051" unicode="&#x2051;" horiz-adv-x="400" 
d="M88 437l90 97l-1 7l-98 36l27 62l101 -38l4 2l19 111h67l-19 -111l4 -2l104 36l22 -62l-116 -41l-3 -8l53 -91l-60 -38l-53 94h-7l-85 -95zM17 35l90 97l-1 7l-98 36l27 62l101 -38l4 2l19 111h67l-19 -111l4 -2l104 36l22 -62l-116 -41l-3 -8l53 -91l-60 -38l-53 94h-7
l-85 -95z" />
    <glyph glyph-name="uni2055" unicode="&#x2055;" horiz-adv-x="649" 
d="M289 242l-131 -132l-49 49l133 131h-188v70h188l-133 131l49 49l131 -132v188h71v-188l131 132l49 -49l-133 -131h189v-70h-189l133 -131l-49 -49l-131 132v-188h-71v188z" />
    <glyph glyph-name="uni2074" unicode="&#x2074;" horiz-adv-x="342" 
d="M209 424h-171l7 44l220 248h61l-42 -236h49l-10 -56h-49l-13 -74h-65zM219 480l23 132h-4l-117 -132h98z" />
    <glyph glyph-name="franc" unicode="&#x20a3;" horiz-adv-x="544" 
d="M56 117h-75l13 70h74l89 497h409l-15 -81h-325l-40 -229h293l-14 -80h-292l-19 -107h136l-13 -70h-136l-21 -117h-84z" />
    <glyph glyph-name="lira" unicode="&#x20a4;" horiz-adv-x="514" 
d="M-19 73q78 37 113 96h-95l11 70h109v10q0 34 -10 80h-83l12 70h49q-14 44 -14 89q0 56 28.5 104.5t80 78t118.5 29.5q79 0 124 -40.5t61 -100.5l-83 -32q-10 42 -37 67t-74 25q-59 0 -95.5 -38t-36.5 -93q0 -35 13 -89h165l-12 -70h-136q8 -46 8 -73q0 -1 -2 -17h114
l-12 -70h-122q-21 -47 -71 -85l2 -3h185q37 0 59.5 14.5t38.5 44.5l65 -29q-29 -56 -71 -83.5t-107 -27.5h-308z" />
    <glyph glyph-name="uni20A9" unicode="&#x20a9;" horiz-adv-x="968" 
d="M140 329h-114l12 70h95l-25 285h90l19 -285h146l137 285h88l31 -285h144l121 285h91l-126 -285h94l-12 -70h-114l-145 -329h-84l-38 329h-137l-158 -329h-85zM541 399l-18 150h-4l-72 -150h94zM239 136l91 193h-108l13 -193h4zM653 136l80 193h-105l22 -193h3z" />
    <glyph glyph-name="dong" unicode="&#x20ab;" horiz-adv-x="564" 
d="M101 10.5q-45 26.5 -71.5 76t-26.5 116.5q0 74 35 140t97 106.5t140 40.5q59 0 99.5 -25.5t58.5 -62.5h4l8 68l12 73h-143l11 66h144l13 75h85l-14 -75h65l-11 -66h-66l-95 -543h-81l13 72h-4q-26 -39 -70.5 -63.5t-102.5 -24.5q-55 0 -100 26.5zM322 91.5q43 30.5 66 79
t23 101.5q0 69 -36.5 105t-94.5 36q-54 0 -97.5 -28.5t-68.5 -76.5t-25 -104q0 -68 37.5 -105.5t95.5 -37.5q57 0 100 30.5zM-6 -84h438l-13 -70h-437z" />
    <glyph glyph-name="Euro" unicode="&#x20ac;" horiz-adv-x="624" 
d="M192.5 48q-76.5 64 -94.5 179h-97l12 70h81v1q0 42 11 89h-76l12 70h86q46 107 142.5 175t221.5 68q87 0 147 -44l-46 -70q-43 32 -114 32q-86 0 -154 -44t-105 -117h234l-12 -70h-249q-11 -38 -11 -89v-1h244l-12 -70h-224q18 -79 72.5 -120t125.5 -41q68 0 130 32
l33 -70q-41 -23 -82.5 -33.5t-90.5 -10.5q-108 0 -184.5 64z" />
    <glyph glyph-name="uni20AE" unicode="&#x20ae;" horiz-adv-x="521" 
d="M178 136l-144 -81l15 86l144 81l18 103l-143 -81l14 87l145 81l33 191h-195l15 81h474l-15 -81h-194l-26 -142l145 81l-15 -86l-144 -82l-19 -104l145 83l-16 -87l-144 -82l-33 -184h-84z" />
    <glyph glyph-name="uni20B1" unicode="&#x20b1;" horiz-adv-x="626" 
d="M114 444h-76l13 70h75l31 170h220q80 0 135.5 -46.5t61.5 -121.5v-2h64l-13 -70h-56q-20 -79 -89.5 -123.5t-164.5 -44.5h-145l-50 -276h-84zM485 514v1q-6 40 -35.5 64t-76.5 24h-146l-16 -89h274zM330 357q51 0 91 23.5t57 63.5h-279l-16 -87h147z" />
    <glyph glyph-name="uni20B8" unicode="&#x20b8;" horiz-adv-x="521" 
d="M80 684h474l-12 -70h-474zM233 451h-194l13 70h474l-13 -70h-195l-80 -451h-84z" />
    <glyph glyph-name="uni20B9" unicode="&#x20b9;" horiz-adv-x="551" 
d="M93 273l15 85h141q60 0 99 24t53 68h-362l13 71h355v1q-6 40 -34 66t-73 26h-232l12 70h505l-12 -70h-120q37 -40 41 -91v-2h62l-13 -71h-53q-19 -79 -88 -124.5t-160 -45.5h-35l-3 -3l222 -273l-1 -4h-109z" />
    <glyph glyph-name="uni20BA" unicode="&#x20ba;" horiz-adv-x="531" 
d="M123 191l-143 -81l15 86l143 81l18 104l-144 -81l16 86l144 82l38 216h84l-30 -168l146 82l-16 -87l-144 -81l-19 -104l145 83l-15 -87l-145 -82l-28 -159q84 1 144.5 51.5t74.5 128.5h82q-15 -79 -59 -138t-111.5 -91t-151.5 -32h-78z" />
    <glyph glyph-name="uni20BD" unicode="&#x20bd;" horiz-adv-x="574" 
d="M56 117h-75l13 70h74l16 89h-75l12 71h76l60 337h222q56 0 100.5 -23t70 -65.5t25.5 -98.5q0 -65 -33 -115t-92 -78t-135 -28h-146l-15 -89h137l-13 -70h-137l-21 -117h-84zM330 357q69 0 113.5 37t44.5 98q0 49 -32 80t-87 31h-143l-43 -246h147z" />
    <glyph glyph-name="uni2103" unicode="&#x2103;" horiz-adv-x="971" 
d="M101 474.5q-35 32.5 -35 81.5q0 63 41.5 103.5t104.5 40.5q49 0 83.5 -32.5t34.5 -81.5q0 -63 -41 -103.5t-105 -40.5q-48 0 -83 32.5zM444 25q-68 41 -104.5 111.5t-36.5 156.5q0 107 51.5 200.5t145 150t211.5 56.5q73 0 132.5 -30t101.5 -84l-68 -57
q-32 44 -73.5 66.5t-105.5 22.5q-86 0 -156.5 -42t-110.5 -116t-40 -165q0 -70 29 -122t80 -79.5t116 -27.5q69 0 118.5 23t99.5 73l49 -58q-60 -63 -125.5 -91.5t-156.5 -28.5q-89 0 -157 41zM243.5 523.5q22.5 22.5 22.5 55.5q0 27 -16.5 44.5t-42.5 17.5q-31 0 -54 -22.5
t-23 -55.5q0 -27 17 -44.5t43 -17.5q31 0 53.5 22.5z" />
    <glyph glyph-name="uni2109" unicode="&#x2109;" horiz-adv-x="811" 
d="M101 474.5q-35 32.5 -35 81.5q0 63 41.5 103.5t104.5 40.5q49 0 83.5 -32.5t34.5 -81.5q0 -63 -41 -103.5t-105 -40.5q-48 0 -83 32.5zM436 684h401l-15 -81h-316l-40 -229h285l-14 -80h-285l-52 -294h-85zM243.5 523.5q22.5 22.5 22.5 55.5q0 27 -16.5 44.5t-42.5 17.5
q-31 0 -54 -22.5t-23 -55.5q0 -27 17 -44.5t43 -17.5q31 0 53.5 22.5z" />
    <glyph glyph-name="uni2113" unicode="&#x2113;" horiz-adv-x="423" 
d="M103.5 26.5q-38.5 34.5 -38.5 92.5q0 11 5 41l21 122h-90l14 77h90l38 210q12 72 53.5 117.5t108.5 45.5q57 0 90.5 -39t33.5 -111q0 -74 -32.5 -138t-90 -106.5t-129.5 -52.5l-23 -126q-2 -16 -2 -23q0 -33 17.5 -50t46.5 -17q27 0 55 12l17 -74q-40 -15 -89 -15
q-57 0 -95.5 34.5zM304 438.5q42 58.5 42 141.5q0 35 -13.5 54t-34.5 19q-28 0 -46 -23t-26 -65l-36 -201q72 16 114 74.5z" />
    <glyph glyph-name="uni2114" unicode="&#x2114;" horiz-adv-x="799" 
d="M382 9q-42 25 -64 64h-4l-13 -73h-79l100 575h-111l-101 -575h-84l100 575h-65l12 66h65l14 75h84l-13 -75h110l14 75h84l-13 -75h147l-12 -66h-147l-15 -90l-16 -68h4q27 40 71.5 64.5t104.5 24.5q58 0 104 -28t72.5 -79.5t26.5 -120.5q0 -75 -37 -143t-102 -109.5
t-145 -41.5q-50 0 -92 25zM577 89.5q44 28.5 69 77t25 105.5q0 74 -36.5 115.5t-102.5 41.5q-53 0 -97 -31t-69 -80.5t-25 -104.5q0 -72 39 -112t100 -40q53 0 97 28.5z" />
    <glyph glyph-name="uni2116" unicode="&#x2116;" horiz-adv-x="1073" 
d="M804.5 410q-34.5 20 -54 55t-19.5 79q0 55 25.5 97.5t70 66.5t100.5 24q64 0 106.5 -42.5t42.5 -107.5q0 -59 -26 -102.5t-70.5 -66.5t-98.5 -23q-42 0 -76.5 20zM133 716h98l264 -570h4l21 138l76 432h85l-127 -716h-81l-277 597h-4l-20 -138l-81 -459h-85zM974.5 487.5
q32.5 35.5 32.5 87.5q0 42 -24 68.5t-65 26.5q-34 0 -61 -17.5t-42 -46t-15 -59.5q0 -43 25.5 -69t63.5 -26q53 0 85.5 35.5zM720 305h280l-12 -67h-280z" />
    <glyph glyph-name="uni2117" unicode="&#x2117;" horiz-adv-x="530" 
d="M150 303q-53 31 -84 84t-31 115t31 115t84 84t115 31t115 -31t84 -84t31 -115t-31 -115t-84 -84t-115 -31t-115 31zM357.5 343q42.5 25 67.5 67.5t25 91.5q0 50 -25 92.5t-67.5 67t-92.5 24.5q-49 0 -91.5 -24.5t-67.5 -67t-25 -92.5q0 -49 25 -91.5t67.5 -67.5t91.5 -25
q50 0 92.5 25zM197 615h94q29 0 51 -21t22 -51t-22 -50.5t-51 -20.5h-50v-83h-44v226zM287 514q13 0 23 8t10 21q0 12 -9 21t-23 9h-47v-59h46z" />
    <glyph glyph-name="prescription" unicode="&#x211e;" horiz-adv-x="685" 
d="M165 -156l201 230l-108 218h-115l-52 -292h-85l127 716h235q56 0 100.5 -24t69.5 -67t25 -99q0 -88 -57.5 -149t-151.5 -79l-3 -3l77 -151l128 146h96l-1 -4l-186 -215l117 -227l-1 -4h-96l-81 161l-140 -161h-100zM309 371q71 0 119 41t48 112q0 48 -32.5 79.5
t-88.5 31.5h-152l-46 -264h152z" />
    <glyph glyph-name="uni2120" unicode="&#x2120;" horiz-adv-x="496" 
d="M164 599.5q21 -15.5 21 -46.5q0 -32 -25.5 -49.5t-55.5 -17.5q-29 0 -53.5 16t-33.5 44l38 17q6 -16 19.5 -26.5t29.5 -10.5q15 0 26 7.5t11 19.5q0 13 -12 21t-41 16q-28 7 -46 23.5t-18 41.5q0 29 23.5 47t55.5 18q25 0 47.5 -14.5t30.5 -37.5l-39 -15q-2 8 -13 17.5
t-26 9.5t-25 -7t-10 -17q0 -18 40 -30q35 -11 56 -26.5zM431 612l2 44h-2l-68 -166h-31l-68 166h-2l2 -44v-122h-42v226h61l64 -164h2l63 164h61v-226h-42v122z" />
    <glyph glyph-name="trademark" unicode="&#x2122;" horiz-adv-x="499" 
d="M77 676h-69v40h179v-40h-66v-186h-44v186zM433 612l2 44h-2l-68 -166h-30l-68 166h-2l2 -44v-122h-42v226h60l64 -164h2l64 164h60v-226h-42v122z" />
    <glyph glyph-name="Omega" unicode="&#x2126;" horiz-adv-x="803" 
d="M14 81h171l1 4q-60 41 -99.5 106.5t-39.5 151.5q0 104 52.5 193t145 142.5t206.5 53.5q94 0 163.5 -41.5t106 -111t36.5 -150.5q0 -111 -64 -199t-175 -145l-1 -4h166l-14 -81h-275l21 119q69 17 128 62.5t93.5 108.5t34.5 131t-29.5 120t-82.5 81t-122 29
q-83 0 -152.5 -40.5t-110 -109t-40.5 -149.5q0 -90 46 -149t117 -84l-21 -119h-275z" />
    <glyph glyph-name="estimated" unicode="&#x212e;" horiz-adv-x="782" 
d="M217.5 33q-82.5 49 -128.5 134.5t-46 190.5q0 100 44.5 185.5t124 137t179.5 51.5q104 0 182.5 -46.5t122 -131t43.5 -196.5l-1 -23h-556v-185q38 -52 97.5 -79t126.5 -27q82 0 147 38t100 120l63 -26q-34 -82 -115.5 -137t-195.5 -55q-105 0 -187.5 49zM511 650.5
q-55 21.5 -120 21.5q-62 0 -116.5 -24t-92.5 -70v-185h418v196q-34 40 -89 61.5z" />
    <glyph glyph-name="onethird" unicode="&#x2153;" horiz-adv-x="805" 
d="M182 629l-55 -41l-31 49l111 79h56l-65 -366h-65zM658 723l49 -40l-588 -691l-52 41zM498.5 17.5q-34.5 25.5 -43.5 73.5l60 22q17 -62 70 -62q29 0 50 17.5t21 43.5q0 24 -16.5 37t-46.5 13h-33l11 56h35q28 0 47 15.5t19 39.5q0 20 -14 31t-34 11q-25 0 -40.5 -12.5
t-27.5 -32.5l-53 23q14 37 48.5 59t80.5 22q47 0 77.5 -26t30.5 -65q0 -29 -20 -55t-47 -36q23 -11 36.5 -31t13.5 -47q0 -52 -41.5 -87t-103.5 -35q-45 0 -79.5 25.5z" />
    <glyph glyph-name="twothirds" unicode="&#x2154;" horiz-adv-x="878" 
d="M76 406l158 136q55 43 55 78q0 21 -14 33t-36 12q-49 0 -71 -61l-56 25q13 45 49.5 70t83.5 25q49 0 80.5 -27.5t31.5 -69.5q0 -37 -18.5 -63t-57.5 -59l-114 -96h156l-12 -59h-246zM728 723l49 -40l-588 -691l-52 41zM556.5 17.5q-34.5 25.5 -43.5 73.5l60 22
q17 -62 70 -62q29 0 50 17.5t21 43.5q0 24 -16.5 37t-46.5 13h-33l11 56h35q28 0 47 15.5t19 39.5q0 20 -14 31t-34 11q-25 0 -40.5 -12.5t-27.5 -32.5l-53 23q14 37 48.5 59t80.5 22q47 0 77.5 -26t30.5 -65q0 -29 -20 -55t-47 -36q23 -11 36.5 -31t13.5 -47
q0 -52 -41.5 -87t-103.5 -35q-45 0 -79.5 25.5z" />
    <glyph glyph-name="oneeighth" unicode="&#x215b;" horiz-adv-x="796" 
d="M183 629l-55 -41l-31 49l111 79h56l-65 -366h-65zM656 723l49 -40l-588 -691l-52 41zM474.5 22q-33.5 30 -33.5 75q0 32 21 58.5t53 39.5q-13 9 -23 26t-10 37q0 31 17.5 58t49 42.5t70.5 15.5q44 0 75.5 -25t31.5 -66q0 -28 -15.5 -52t-39.5 -38q18 -13 28 -32.5
t10 -43.5q0 -56 -43 -90.5t-106 -34.5q-52 0 -85.5 30zM641 232.5q19 14.5 19 40.5q0 18 -14.5 30t-36.5 12q-25 0 -42.5 -15.5t-17.5 -39.5q0 -19 13.5 -30.5t33.5 -11.5q26 0 45 14.5zM622.5 67q20.5 16 20.5 45q0 23 -17 37.5t-46 14.5t-50 -17.5t-21 -45.5
q0 -23 17.5 -36.5t44.5 -13.5q31 0 51.5 16z" />
    <glyph glyph-name="threeeighths" unicode="&#x215c;" horiz-adv-x="843" 
d="M116.5 367.5q-34.5 25.5 -43.5 73.5l60 22q16 -62 69 -62q30 0 50.5 17.5t20.5 43.5q0 25 -16.5 37.5t-46.5 12.5h-32l10 56h36q27 0 46.5 15.5t19.5 39.5q0 20 -14 31t-34 11q-43 0 -68 -45l-54 23q14 37 49 59t81 22q47 0 77 -26t30 -65q0 -29 -20 -55t-47 -36
q23 -11 36.5 -31t13.5 -47q0 -52 -41 -87t-103 -35q-45 0 -79.5 25.5zM701 723l49 -40l-588 -691l-52 41zM518.5 22q-33.5 30 -33.5 75q0 32 21 58.5t53 39.5q-13 9 -23 26t-10 37q0 31 17.5 58t49 42.5t70.5 15.5q44 0 75.5 -25t31.5 -66q0 -28 -15.5 -52t-39.5 -38
q18 -13 28 -32.5t10 -43.5q0 -56 -43 -90.5t-106 -34.5q-52 0 -85.5 30zM685 232.5q19 14.5 19 40.5q0 18 -14.5 30t-36.5 12q-25 0 -42.5 -15.5t-17.5 -39.5q0 -19 13.5 -30.5t33.5 -11.5q26 0 45 14.5zM666.5 67q20.5 16 20.5 45q0 23 -17 37.5t-46 14.5t-50 -17.5
t-21 -45.5q0 -23 17.5 -36.5t44.5 -13.5q31 0 51.5 16z" />
    <glyph glyph-name="fiveeighths" unicode="&#x215d;" horiz-adv-x="844" 
d="M114 366q-35 23 -42 68l62 22q5 -25 22 -39.5t43 -14.5q31 0 54.5 23t23.5 55q0 27 -16.5 43t-41.5 16q-41 0 -67 -35l-53 23l58 189h207l-9 -56h-152l-28 -86q12 10 29.5 15.5t35.5 5.5q47 0 76 -29.5t29 -80.5q0 -63 -44 -102.5t-108 -39.5q-44 0 -79 23zM700 723
l49 -40l-588 -691l-52 41zM519.5 22q-33.5 30 -33.5 75q0 32 21 58.5t53 39.5q-13 9 -23 26t-10 37q0 31 17.5 58t49 42.5t70.5 15.5q44 0 75.5 -25t31.5 -66q0 -28 -15.5 -52t-39.5 -38q18 -13 28 -32.5t10 -43.5q0 -56 -43 -90.5t-106 -34.5q-52 0 -85.5 30zM686 232.5
q19 14.5 19 40.5q0 18 -14.5 30t-36.5 12q-25 0 -42.5 -15.5t-17.5 -39.5q0 -19 13.5 -30.5t33.5 -11.5q26 0 45 14.5zM667.5 67q20.5 16 20.5 45q0 23 -17 37.5t-46 14.5t-50 -17.5t-21 -45.5q0 -23 17.5 -36.5t44.5 -13.5q31 0 51.5 16z" />
    <glyph glyph-name="seveneighths" unicode="&#x215e;" horiz-adv-x="768" 
d="M287 657h-175l10 59h248l-10 -55l-233 -326l-48 34zM610 723l49 -40l-588 -691l-52 41zM444.5 22q-33.5 30 -33.5 75q0 32 21 58.5t53 39.5q-13 9 -23 26t-10 37q0 31 17.5 58t49 42.5t70.5 15.5q44 0 75.5 -25t31.5 -66q0 -28 -15.5 -52t-39.5 -38q18 -13 28 -32.5
t10 -43.5q0 -56 -43 -90.5t-106 -34.5q-52 0 -85.5 30zM611 232.5q19 14.5 19 40.5q0 18 -14.5 30t-36.5 12q-25 0 -42.5 -15.5t-17.5 -39.5q0 -19 13.5 -30.5t33.5 -11.5q26 0 45 14.5zM592.5 67q20.5 16 20.5 45q0 23 -17 37.5t-46 14.5t-50 -17.5t-21 -45.5
q0 -23 17.5 -36.5t44.5 -13.5q31 0 51.5 16z" />
    <glyph glyph-name="uni2160" unicode="&#x2160;" horiz-adv-x="438" 
d="M-22 81h153l92 522h-154l15 81h391l-14 -81h-154l-92 -522h154l-15 -81h-390z" />
    <glyph glyph-name="uni2161" unicode="&#x2161;" horiz-adv-x="698" 
d="M-22 81h153l92 522h-154l15 81h651l-14 -81h-154l-92 -522h154l-15 -81h-650zM391 81l92 522h-176l-92 -522h176z" />
    <glyph glyph-name="uni2162" unicode="&#x2162;" horiz-adv-x="958" 
d="M-22 81h153l92 522h-154l15 81h911l-14 -81h-154l-92 -522h154l-15 -81h-910zM391 81l92 522h-176l-92 -522h176zM651 81l92 522h-176l-92 -522h176z" />
    <glyph glyph-name="uni2163" unicode="&#x2163;" horiz-adv-x="980" 
d="M-22 81h153l92 522h-154l15 81h933l-14 -81h-119l-256 -522h283l-15 -81h-932zM504 81l-73 522h-124l-92 -522h289zM578 143l25 52l192 408h-278l51 -408l6 -52h4z" />
    <glyph glyph-name="uni2164" unicode="&#x2164;" horiz-adv-x="736" 
d="M-22 81h282l-73 522h-118l15 81h689l-14 -81h-119l-256 -522h283l-15 -81h-688zM334 143l25 52l192 408h-278l51 -408l6 -52h4z" />
    <glyph glyph-name="uni2165" unicode="&#x2165;" horiz-adv-x="1008" 
d="M-22 81h282l-73 522h-118l15 81h933l-14 -81h-154l-92 -522h154l-15 -81h-932zM334 143l25 52l192 408h-278l51 -408l6 -52h4zM673 81l92 522h-125l-256 -522h289z" />
    <glyph glyph-name="uni2166" unicode="&#x2166;" horiz-adv-x="1248" 
d="M-22 81h282l-73 522h-118l15 81h1193l-14 -81h-154l-92 -522h154l-15 -81h-1192zM334 143l25 52l192 408h-278l51 -408l6 -52h4zM673 81l92 522h-125l-256 -522h289zM933 81l92 522h-176l-92 -522h176z" />
    <glyph glyph-name="uni2167" unicode="&#x2167;" horiz-adv-x="1500" 
d="M-22 81h282l-73 522h-118l15 81h1453l-14 -81h-154l-92 -522h154l-15 -81h-1452zM334 143l25 52l192 408h-278l51 -408l6 -52h4zM673 81l92 522h-125l-256 -522h289zM933 81l92 522h-176l-92 -522h176zM1193 81l92 522h-176l-92 -522h176z" />
    <glyph glyph-name="uni2168" unicode="&#x2168;" horiz-adv-x="928" 
d="M-22 81h153l92 522h-154l15 81h882l-15 -81h-101l-217 -260l127 -262h99l-14 -81h-881zM313 81l222 266l-123 256h-105l-92 -522h98zM619 447l131 156h-242l75 -156l13 -28zM664 81l-82 169l-10 20l-17 -20l-141 -169h250z" />
    <glyph glyph-name="uni2169" unicode="&#x2169;" horiz-adv-x="685" 
d="M-22 81h92l222 266l-123 256h-100l15 81h639l-15 -81h-101l-217 -260l127 -262h99l-14 -81h-638zM376 447l131 156h-242l75 -156l13 -28zM421 81l-82 169l-10 20l-17 -20l-141 -169h250z" />
    <glyph glyph-name="uni216A" unicode="&#x216a;" horiz-adv-x="928" 
d="M-22 81h92l222 266l-123 256h-100l15 81h882l-15 -81h-154l-91 -522h153l-14 -81h-881zM376 447l131 156h-242l75 -156l13 -28zM621 81l92 522h-106l-217 -260l127 -262h104zM421 81l-82 169l-10 20l-17 -20l-141 -169h250z" />
    <glyph glyph-name="uni216B" unicode="&#x216b;" horiz-adv-x="1188" 
d="M-22 81h92l222 266l-123 256h-100l15 81h1142l-15 -81h-154l-91 -522h153l-14 -81h-1141zM376 447l131 156h-242l75 -156l13 -28zM621 81l92 522h-106l-217 -260l127 -262h104zM881 81l92 522h-176l-91 -522h175zM421 81l-82 169l-10 20l-17 -20l-141 -169h250z" />
    <glyph glyph-name="uni216C" unicode="&#x216c;" horiz-adv-x="615" 
d="M-22 81h128l93 522h-130l15 81h344l-15 -81h-130l-91 -522h265l26 147h85l-41 -228h-563z" />
    <glyph glyph-name="uni216D" unicode="&#x216d;" horiz-adv-x="727" 
d="M185.5 23.5q-70.5 39.5 -110 109.5t-39.5 160q0 107 54 201t145.5 150t200.5 56q73 0 128 -26t82 -64h4l13 74h81l-36 -201h-81q-18 64 -68.5 100t-126.5 36q-81 0 -152 -43t-113.5 -116.5t-42.5 -159.5q0 -73 30 -126t81.5 -81t115.5 -28q75 0 136.5 32t116.5 100
l62 -45q-66 -85 -144.5 -126.5t-176.5 -41.5q-89 0 -159.5 39.5z" />
    <glyph glyph-name="uni216E" unicode="&#x216e;" horiz-adv-x="727" 
d="M105 81l92 522h-128l15 81h307q87 0 155 -39t106.5 -107.5t38.5 -153.5q0 -112 -53.5 -199.5t-146.5 -136t-207 -48.5h-320l14 81h127zM449 118.5q72 37.5 113.5 104.5t41.5 153q0 107 -61 167t-166 60h-95l-92 -522h99q88 0 160 37.5z" />
    <glyph glyph-name="uni216F" unicode="&#x216f;" horiz-adv-x="977" 
d="M-22 81h126l93 522h-128l15 81h248l115 -554h4l309 554h254l-15 -81h-128l-92 -522h129l-15 -81h-311l15 81h97l62 346l27 128h-4l-315 -555h-73l-118 555h-4l-19 -128l-61 -346h99l-15 -81h-309z" />
    <glyph glyph-name="uni2180" unicode="&#x2180;" horiz-adv-x="1060" 
d="M181 39q-68 39 -106.5 107.5t-38.5 153.5q0 112 53.5 199.5t146.5 136t207 48.5h288q87 0 155 -39t106.5 -107.5t38.5 -153.5q0 -112 -53.5 -199.5t-146.5 -136t-207 -48.5h-289q-86 0 -154 39zM444 81l93 522h-100q-88 0 -159.5 -37.5t-113 -104.5t-41.5 -153
q0 -107 60.5 -167t166.5 -60h94zM629 81q88 0 160 37.5t113 104.5t41 153q0 107 -60.5 167t-165.5 60h-96l-91 -522h99z" />
    <glyph glyph-name="uni2181" unicode="&#x2181;" horiz-adv-x="723" 
d="M102 81l91 522h-128l15 81h308q86 0 154 -39t106.5 -107.5t38.5 -153.5q0 -112 -53.5 -199.5t-146.5 -136t-207 -48.5h-320l15 81h127zM446 118.5q72 37.5 113 104.5t41 153q0 107 -60.5 167t-166.5 60h-95l-17 -95h40q69 0 108.5 -40t39.5 -109q0 -52 -26 -93.5
t-71.5 -65.5t-102.5 -24h-46l-17 -95h100q88 0 160 37.5zM214 243h47q53 0 85 30.5t32 81.5q0 39 -24 62.5t-65 23.5h-40z" />
    <glyph glyph-name="uni2182" unicode="&#x2182;" horiz-adv-x="1067" 
d="M181 39q-68 39 -106.5 107.5t-38.5 153.5q0 112 53.5 199.5t146.5 136t207 48.5h288q87 0 155 -39t106.5 -107.5t38.5 -153.5q0 -112 -53.5 -199.5t-146.5 -136t-207 -48.5h-289q-86 0 -154 39zM444 81l17 95h-38q-69 0 -109 40t-40 109q0 52 26 93.5t71.5 65.5t102.5 24
h46l17 95h-100q-88 0 -159.5 -37.5t-113 -104.5t-41.5 -153q0 -107 60.5 -167t166.5 -60h94zM629 81q88 0 160 37.5t113 104.5t41 153q0 107 -60.5 167t-165.5 60h-96l-16 -95h39q69 0 109 -40t40 -109q0 -52 -26 -93.5t-71.5 -65.5t-102.5 -24h-47l-16 -95h99zM473 243
l35 198h-46q-53 0 -84.5 -30.5t-31.5 -81.5q0 -39 23.5 -62.5t64.5 -23.5h39zM605 243q52 0 84 30.5t32 81.5q0 39 -23.5 62.5t-64.5 23.5h-40l-35 -198h47z" />
    <glyph glyph-name="arrowleft" unicode="&#x2190;" horiz-adv-x="1078" 
d="M49 310l186 186v-151h786v-70h-786v-151z" />
    <glyph glyph-name="arrowup" unicode="&#x2191;" horiz-adv-x="454" 
d="M192 631h-151l186 186l186 -186h-151v-748h-70v748z" />
    <glyph glyph-name="arrowright" unicode="&#x2192;" horiz-adv-x="1078" 
d="M843 275h-786v70h786v151l186 -186l-186 -186v151z" />
    <glyph glyph-name="arrowdown" unicode="&#x2193;" horiz-adv-x="454" 
d="M41 41h151v748h70v-748h151l-186 -186z" />
    <glyph glyph-name="uni2196" unicode="&#x2196;" horiz-adv-x="765" 
d="M147 556l-106 -106v263h263l-107 -107l568 -567l-50 -50z" />
    <glyph glyph-name="uni2197" unicode="&#x2197;" horiz-adv-x="765" 
d="M1 39l567 567l-107 107h264v-263l-107 106l-568 -567z" />
    </font>
</defs>
</svg>
