<?xml version="1.0" standalone="no"?>
<!DOCTYPE svg PUBLIC "-//W3C//DTD SVG 1.1//EN" "http://www.w3.org/Graphics/SVG/1.1/DTD/svg11.dtd" >
<svg xmlns="http://www.w3.org/2000/svg" xmlns:xlink="http://www.w3.org/1999/xlink" version="1.1">
<metadata>
Created by FontForge 20170731 at Thu Jul 27 02:25:34 2017
 By Aleksey,,,
Copyright 2017 Google Inc. All Rights Reserved.
</metadata>
<defs>
<font id="GoogleSans-BoldItalic" horiz-adv-x="650" >
  <font-face 
    font-family="Google Sans"
    font-weight="700"
    font-style="italic"
    font-stretch="normal"
    units-per-em="1000"
    panose-1="2 11 8 3 3 5 2 11 2 4"
    ascent="800"
    descent="-200"
    x-height="510"
    cap-height="716"
    bbox="-414 -286 1583 964"
    underline-thickness="84"
    underline-position="-244"
    slope="-10"
    unicode-range="U+0002-2792"
  />
<missing-glyph horiz-adv-x="570" 
d="M498 716v-716h-426v716h426zM434 60v596h-298v-596h298z" />
    <glyph glyph-name="f_b.liga" unicode="fb" horiz-adv-x="1004" 
d="M580 6q-42 22 -64 55h-8l-11 -61h-122l106 600h-122q-33 0 -54.5 -19t-28.5 -56l-3 -15h121l-19 -112h-121l-70 -398h-131l70 398h-91l20 112h91l2 16q18 98 74.5 146t160.5 48h253l-37 -200l-20 -72h8q20 32 60.5 55t94.5 23q59 0 108 -30t77 -84.5t28 -123.5
q0 -87 -36.5 -156.5t-99 -108.5t-138.5 -39q-56 0 -98 22zM740 126.5q37 21.5 58.5 59.5t21.5 87q0 55 -36.5 93t-89.5 38q-46 0 -81.5 -23.5t-55 -63t-19.5 -86.5q0 -36 16.5 -65t44 -45t59.5 -16q45 0 82 21.5z" />
    <glyph glyph-name="f_f.liga" unicode="ff" horiz-adv-x="736" 
d="M123 398h-91l20 112h91l4 28q14 90 71.5 138t147.5 48q31 0 57 -6l-22 -126q-24 9 -44 9q-31 0 -52.5 -19t-27.5 -52l-4 -20h192l4 28q14 91 72 138.5t151 47.5q24 0 46 -4t33 -10l-23 -125q-30 16 -63 16t-56.5 -19t-29.5 -52l-4 -20h125l-20 -112h-125l-70 -398h-131
l70 398h-190l-70 -398h-131z" />
    <glyph glyph-name="f_f_b.liga" unicode="ffb" horiz-adv-x="1325" 
d="M900 6q-42 22 -63 55h-8l-11 -61h-123l106 600h-121q-33 0 -54.5 -19t-28.5 -56l-3 -15h121l-20 -112h-121l-69 -398h-131l70 398h-190l-70 -398h-131l70 398h-91l20 112h91l4 28q14 90 71.5 138t147.5 48q31 0 57 -6l-22 -126q-24 9 -44 9q-31 0 -52.5 -19t-27.5 -52
l-4 -20h190l3 16q16 98 72.5 146t161.5 48h253l-36 -200l-21 -72h8q20 31 61 54.5t95 23.5q59 0 108 -30t77 -84.5t28 -123.5q0 -87 -36.5 -156.5t-99.5 -108.5t-139 -39q-56 0 -98 22zM1061 126.5q37 21.5 58.5 59.5t21.5 87q0 36 -17 66t-46 47.5t-63 17.5
q-47 0 -82.5 -23.5t-54.5 -63t-19 -86.5q0 -36 16.5 -65t44 -45t59.5 -16q45 0 82 21.5z" />
    <glyph glyph-name="f_f_h.liga" unicode="ffh" horiz-adv-x="1296" 
d="M123 398h-91l20 112h91l4 28q14 90 71.5 138t147.5 48q31 0 57 -6l-22 -126q-24 9 -44 9q-31 0 -52.5 -19t-27.5 -52l-4 -20h190l3 16q16 98 72.5 146t161.5 48h253l-33 -185l-23 -89h8q25 38 66 59t95 21q76 0 120 -44.5t44 -113.5q0 -33 -6 -65l-54 -303h-130l52 293
q4 24 4 39q0 30 -22.5 51t-59.5 21q-113 0 -141 -150l-46 -254h-131l105 600h-121q-33 0 -54.5 -19t-28.5 -56l-3 -15h121l-20 -112h-121l-69 -398h-131l70 398h-190l-70 -398h-131z" />
    <glyph glyph-name="f_f_i.liga" unicode="ffi" horiz-adv-x="961" 
d="M811.5 590.5q-24.5 24.5 -24.5 59.5t24.5 59.5t59.5 24.5t60 -24.5t25 -59.5t-25 -59.5t-60 -24.5t-59.5 24.5zM123 398h-91l20 112h91l4 28q14 90 71.5 138t147.5 48q31 0 57 -6l-22 -126q-24 9 -44 9q-31 0 -52.5 -19t-27.5 -52l-4 -20h190l5 28q14 90 71.5 138
t147.5 48q31 0 57 -6l-23 -126q-1 0 -12 4.5t-31 4.5q-31 0 -52.5 -19t-27.5 -52l-4 -20h320l-88 -510h-131l69 398h-190l-70 -398h-130l70 398h-190l-70 -398h-131z" />
    <glyph glyph-name="f_f_j.liga" unicode="ffj" horiz-adv-x="961" 
d="M811.5 590.5q-24.5 24.5 -24.5 59.5t24.5 59.5t59.5 24.5t60 -24.5t25 -59.5t-25 -59.5t-60 -24.5t-59.5 24.5zM557 -217l22 122q20 -11 51 -11q25 0 38 14t18 42l78 448h-190l-70 -398h-130l70 398h-190l-70 -398h-131l70 398h-91l20 112h91l4 28q14 90 71.5 138
t147.5 48q31 0 57 -6l-22 -126q-24 9 -44 9q-31 0 -52.5 -19t-27.5 -52l-4 -20h190l5 28q14 90 71.5 138t147.5 48q31 0 57 -6l-23 -126q-1 0 -12 4.5t-31 4.5q-31 0 -52.5 -19t-27.5 -52l-4 -20h320l-98 -564q-17 -99 -63 -135.5t-124 -36.5q-41 0 -72 9z" />
    <glyph glyph-name="f_f_k.liga" unicode="ffk" horiz-adv-x="1255" 
d="M123 398h-91l20 112h91l4 28q14 90 71.5 138t147.5 48q31 0 57 -6l-22 -126q-24 9 -44 9q-31 0 -52.5 -19t-27.5 -52l-4 -20h190l3 16q16 98 72.5 146t161.5 48h253l-68 -387h7l205 177h170l-2 -8l-231 -194l150 -300l-1 -8h-149l-105 222l-75 -63l-28 -159h-131l106 600
h-121q-33 0 -54.5 -19t-28.5 -56l-3 -15h121l-20 -112h-121l-69 -398h-131l70 398h-190l-70 -398h-131z" />
    <glyph glyph-name="f_f_l.liga" unicode="ffl" horiz-adv-x="956" 
d="M123 398h-91l20 112h91l4 28q14 90 71.5 138t147.5 48q31 0 57 -6l-22 -126q-24 9 -44 9q-31 0 -52.5 -19t-27.5 -52l-4 -20h190l3 16q16 98 72.5 146t161.5 48h253l-127 -720h-131l106 600h-121q-33 0 -54.5 -19t-28.5 -56l-3 -15h121l-20 -112h-121l-69 -398h-131
l70 398h-190l-70 -398h-131z" />
    <glyph glyph-name="f_f_t.liga" unicode="fft" horiz-adv-x="1076" 
d="M761.5 27.5q-39.5 35.5 -39.5 103.5q0 19 5 52l38 215h-191l-70 -398h-130l70 398h-190l-70 -398h-131l70 398h-91l20 112h91l4 28q14 90 71.5 138t147.5 48q31 0 57 -6l-22 -126q-24 9 -44 9q-31 0 -52.5 -19t-27.5 -52l-4 -20h190l5 28q14 90 71.5 138t147.5 48
q31 0 57 -6l-23 -126q-1 0 -12 4.5t-31 4.5q-31 0 -52.5 -19t-27.5 -52l-4 -20h190l26 144h131l-26 -144h125l-20 -112h-125l-36 -209q-3 -16 -3 -24q0 -23 13.5 -36.5t37.5 -13.5q30 0 56 18l9 -122q-36 -19 -102 -19q-69 0 -108.5 35.5z" />
    <glyph glyph-name="f_h.liga" unicode="fh" horiz-adv-x="975" 
d="M123 398h-91l20 112h91l2 16q16 98 73 146t162 48h253l-33 -185l-24 -89h8q54 80 162 80q75 0 119 -44.5t44 -113.5q0 -40 -6 -65l-53 -303h-131l52 293q4 16 4 39q0 30 -22.5 51t-59.5 21q-57 0 -92 -38.5t-49 -111.5l-46 -254h-130l105 600h-122q-33 0 -54.5 -19
t-28.5 -56l-3 -15h121l-19 -112h-121l-70 -398h-131z" />
    <glyph glyph-name="f_i.liga" unicode="fi" horiz-adv-x="641" 
d="M491.5 590.5q-24.5 24.5 -24.5 59.5t24.5 59.5t59.5 24.5t60 -24.5t25 -59.5t-25 -59.5t-60 -24.5t-59.5 24.5zM123 398h-91l20 112h91l4 28q14 90 71.5 138t147.5 48q31 0 57 -6l-22 -126q-24 9 -44 9q-31 0 -52.5 -19t-27.5 -52l-4 -20h321l-89 -510h-130l69 398h-190
l-70 -398h-131z" />
    <glyph glyph-name="f_j.liga" unicode="fj" horiz-adv-x="642" 
d="M493 585.5q-25 24.5 -25 59.5t25 59.5t60 24.5t59.5 -24.5t24.5 -59.5t-24.5 -59.5t-59.5 -24.5t-60 24.5zM269.5 -223.5q-20.5 2.5 -32.5 6.5l22 122q20 -11 51 -11q25 0 38 14t18 42l78 448h-190l-70 -398h-131l70 398h-91l20 112h91l4 28q14 90 71.5 138t147.5 48
q31 0 57 -6l-22 -126q-24 9 -44 9q-31 0 -52.5 -19t-27.5 -52l-4 -20h321l-98 -564q-17 -99 -63 -135.5t-125 -36.5q-18 0 -38.5 2.5z" />
    <glyph glyph-name="f_k.liga" unicode="fk" horiz-adv-x="935" 
d="M123 398h-91l20 112h91l2 16q16 98 73 146t162 48h253l-69 -391h6l211 181h165l-2 -8l-231 -194l151 -300l-2 -8h-149l-104 222l-75 -63l-28 -159h-131l106 600h-122q-33 0 -54.5 -19t-28.5 -56l-3 -15h121l-19 -112h-121l-70 -398h-131z" />
    <glyph glyph-name="f_l.liga" unicode="fl" horiz-adv-x="635" 
d="M481 600h-122q-33 0 -54.5 -19t-28.5 -56l-3 -15h121l-19 -112h-121l-70 -398h-131l70 398h-91l20 112h91l2 16q16 98 73 146t162 48h253l-127 -720h-131z" />
    <glyph glyph-name="f_t.liga" unicode="ft" horiz-adv-x="739" 
d="M440.5 27.5q-38.5 35.5 -38.5 103.5q0 19 5 52l37 215h-190l-70 -398h-131l70 398h-91l20 112h91l4 28q14 90 71.5 138t147.5 48q31 0 57 -6l-22 -126q-24 9 -44 9q-31 0 -52.5 -19t-27.5 -52l-4 -20h191l26 144h131l-26 -144h125l-20 -112h-125l-37 -209q-2 -22 -2 -24
q0 -23 14 -36.5t37 -13.5q20 0 35.5 5.5t35.5 16.5l-22 -128q-42 -17 -91 -17q-66 0 -104.5 35.5z" />
    <glyph glyph-name="r_f.liga" unicode="rf" horiz-adv-x="829" 
d="M90 510h122l-12 -68h8q28 39 69 60.5t95 21.5q25 0 47 -6l-23 -128q-20 10 -57 10q-63 0 -107.5 -39.5t-55.5 -104.5l-46 -256h-130zM550 398h-91l20 112h91l5 28q14 91 72 138.5t151 47.5q23 0 45.5 -4t33.5 -10l-23 -125q-30 16 -63 16q-34 0 -57.5 -19t-28.5 -52
l-4 -20h124l-19 -112h-125l-70 -398h-131z" />
    <glyph glyph-name="r_f_f.liga" unicode="rff" horiz-adv-x="1146" 
d="M90 510h122l-12 -68h8q28 39 69 60.5t95 21.5q25 0 47 -6l-23 -128q-20 10 -57 10q-63 0 -107.5 -39.5t-55.5 -104.5l-46 -256h-130zM534 398h-91l20 112h91l4 28q14 90 71.5 138t147.5 48q31 0 57 -6l-22 -126q-24 9 -44 9q-31 0 -52.5 -19t-27.5 -52l-4 -20h192l4 28
q14 91 72 138.5t151 47.5q24 0 46 -4t33 -10l-23 -125q-30 16 -63 16t-56.5 -19t-29.5 -52l-4 -20h125l-20 -112h-125l-70 -398h-131l70 398h-190l-70 -398h-131z" />
    <glyph glyph-name="r_t.liga" unicode="rt" horiz-adv-x="850" 
d="M90 510h122l-12 -68h8q28 39 69 60.5t95 21.5q25 0 47 -6l-23 -128q-20 10 -57 10q-63 0 -107.5 -39.5t-55.5 -104.5l-46 -256h-130zM550.5 27.5q-38.5 35.5 -38.5 103.5q0 19 5 52l37 215h-88l20 112h89l25 144h131l-25 -144h124l-20 -112h-125l-37 -209q-2 -22 -2 -24
q0 -23 14 -36.5t37 -13.5q20 0 35.5 5.5t35.5 16.5l-22 -128q-42 -17 -91 -17q-66 0 -104.5 35.5z" />
    <glyph glyph-name="t_f.liga" unicode="tf" horiz-adv-x="737" 
d="M119 27.5q-39 35.5 -39 103.5q0 19 5 52l37 215h-88l19 112h89l26 144h131l-26 -144h193l5 28q14 91 72 138.5t151 47.5q23 0 45.5 -4t33.5 -10l-23 -125q-30 16 -63 16t-56.5 -19t-29.5 -52l-4 -20h124l-19 -112h-125l-70 -398h-131l70 398h-193l-37 -209q-2 -22 -2 -24
q0 -23 13.5 -36.5t37.5 -13.5q26 0 56 16l-23 -126q-32 -13 -71 -13q-69 0 -108 35.5z" />
    <glyph glyph-name="t_t.liga" unicode="tt" horiz-adv-x="752" 
d="M119 27.5q-39 35.5 -39 103.5q0 19 5 52l37 215h-88l19 112h89l26 144h131l-26 -144h188l26 144h130l-25 -144h124l-19 -112h-125l-37 -209q-2 -11 -2 -24q0 -23 13.5 -36.5t36.5 -13.5q30 0 56 18l9 -122q-36 -19 -102 -19q-69 0 -108 35.5t-39 103.5q0 27 5 52l37 215
h-188l-37 -209q-2 -22 -2 -24q0 -23 13.5 -36.5t37.5 -13.5q26 0 56 16l-23 -126q-32 -13 -71 -13q-69 0 -108 35.5z" />
    <glyph glyph-name=".notdef" horiz-adv-x="570" 
d="M498 716v-716h-426v716h426zM434 60v596h-298v-596h298z" />
    <glyph glyph-name=".null" horiz-adv-x="0" 
 />
    <glyph glyph-name="uni000D" unicode="&#xd;" horiz-adv-x="0" 
 />
    <glyph glyph-name="uni0002" horiz-adv-x="0" 
 />
    <glyph glyph-name="uni0009" unicode="&#x9;" horiz-adv-x="0" 
 />
    <glyph glyph-name="uni000A" unicode="&#xa;" horiz-adv-x="0" 
 />
    <glyph glyph-name="space" unicode=" " horiz-adv-x="220" 
 />
    <glyph glyph-name="exclam" unicode="!" horiz-adv-x="269" 
d="M94 510l36 206h135l-36 -206l-60 -264h-109zM25 19.5q-25 25.5 -25 61.5t25 61t61 25t61.5 -25t25.5 -61t-25.5 -61.5t-61.5 -25.5t-61 25.5z" />
    <glyph glyph-name="quotedbl" unicode="&#x22;" horiz-adv-x="379" 
d="M107 716h119l-40 -226h-119zM279 716h119l-40 -226h-119z" />
    <glyph glyph-name="numbersign" unicode="#" horiz-adv-x="657" 
d="M134 192h-116l20 102h114l18 105h-117l19 102h115l33 183h111l-33 -183h112l33 183h110l-32 -183h115l-18 -102h-115l-18 -105h117l-18 -102h-117l-33 -192h-111l34 192h-112l-34 -192h-111zM376 292l19 109h-116l-19 -109h116z" />
    <glyph glyph-name="dollar" unicode="$" horiz-adv-x="559" 
d="M178 -11q-69 14 -119.5 64.5t-62.5 126.5l117 47q7 -40 29.5 -70.5t57.5 -42.5l33 190q-154 67 -154 195q0 54 28 97t78.5 70t117.5 32l15 86h89l-16 -90q62 -14 99.5 -53t52.5 -88l-118 -45q-9 24 -22 40t-33 24l-32 -180q80 -36 119 -80.5t39 -109.5q0 -93 -63 -149.5
t-166 -65.5l-15 -87h-89zM282 579q-36 -6 -57.5 -24.5t-21.5 -50.5q0 -22 12.5 -39.5t40.5 -33.5zM343.5 138q20.5 21 20.5 55q0 25 -11.5 41.5t-36.5 31.5l-27 -157q34 8 54.5 29z" />
    <glyph glyph-name="percent" unicode="%" horiz-adv-x="841" 
d="M105 39l561 662l67 -58l-561 -662zM105 400.5q-45 42.5 -45 107.5q0 51 25.5 95t71.5 70.5t105 26.5q68 0 112 -42.5t44 -108.5q0 -53 -26 -96.5t-71.5 -69t-99.5 -25.5q-71 0 -116 42.5zM286.5 480.5q22.5 24.5 22.5 59.5q0 27 -16.5 44.5t-41.5 17.5q-36 0 -59 -23.5
t-23 -59.5q0 -28 17.5 -45.5t43.5 -17.5q34 0 56.5 24.5zM465 26.5q-45 42.5 -45 107.5q0 51 26 95t72 70.5t105 26.5q68 0 112 -42.5t44 -108.5q0 -53 -26.5 -96.5t-71.5 -69t-99 -25.5q-72 0 -117 42.5zM647 106.5q23 24.5 23 59.5q0 27 -17 44.5t-42 17.5
q-36 0 -59 -23.5t-23 -59.5q0 -28 17.5 -45.5t43.5 -17.5q34 0 57 24.5z" />
    <glyph glyph-name="ampersand" unicode="&#x26;" horiz-adv-x="647" 
d="M120.5 11.5q-51.5 27.5 -82 77.5t-30.5 115q0 78 39 139t114 102q-25 52 -25 94q0 52 25 96.5t72 70.5t109 26q69 0 111 -33.5t61 -89.5l-117 -51q-6 25 -24.5 42t-46.5 17t-47.5 -18.5t-19.5 -45.5q0 -16 5.5 -30t16.5 -32l162 -262l79 106l82 -62l-104 -135l55 -89
l-107 -65l-36 57q-37 -30 -80 -43.5t-98 -13.5q-62 0 -113.5 27.5zM354 133l-137 219q-81 -49 -81 -129q0 -54 36 -87.5t87 -33.5q53 0 95 31z" />
    <glyph glyph-name="quotesingle" unicode="'" horiz-adv-x="207" 
d="M107 716h119l-40 -226h-119z" />
    <glyph glyph-name="parenleft" unicode="(" horiz-adv-x="359" 
d="M86.5 35.5q-32.5 97.5 -32.5 209.5q0 152 69.5 289.5t196.5 245.5l84 -74q-109 -108 -164 -218t-55 -240q0 -95 21 -170t61 -145l-98 -69q-50 74 -82.5 171.5z" />
    <glyph glyph-name="parenright" unicode=")" horiz-adv-x="359" 
d="M-45 -62q108 108 163 218t55 240q0 95 -20.5 169.5t-60.5 145.5l97 69q50 -74 82.5 -171t32.5 -210q0 -153 -69 -290t-197 -245z" />
    <glyph glyph-name="asterisk" unicode="*" horiz-adv-x="464" 
d="M87 406l90 99l-2 9l-94 36l35 88l102 -39l9 3l20 114h95l-21 -114l8 -3l104 35l26 -86l-116 -43l-5 -9l56 -97l-85 -52l-56 100h-8l-88 -100z" />
    <glyph glyph-name="plus" unicode="+" horiz-adv-x="569" 
d="M200 213h-170l20 116h171l30 170h116l-30 -170h170l-20 -116h-171l-30 -170h-116z" />
    <glyph glyph-name="comma" unicode="," horiz-adv-x="271" 
d="M44 4q-42 28 -42 77q0 36 25.5 61t61.5 25t61.5 -25t25.5 -61q0 -34 -34 -72l-118 -142l-55 45z" />
    <glyph glyph-name="hyphen" unicode="-" horiz-adv-x="451" 
d="M396 368l-21 -116h-338l20 116h339z" />
    <glyph glyph-name="period" unicode="." horiz-adv-x="269" 
d="M24.5 19.5q-25.5 25.5 -25.5 61.5t25.5 61t61.5 25t61.5 -25t25.5 -61t-25.5 -61.5t-61.5 -25.5t-61.5 25.5z" />
    <glyph glyph-name="slash" unicode="/" horiz-adv-x="480" 
d="M385 716h132l-424 -716h-131z" />
    <glyph glyph-name="zero" unicode="0" horiz-adv-x="675" 
d="M156.5 19q-55.5 35 -86.5 103t-31 163q0 110 44 205t123 152.5t178 57.5q73 0 128 -35t86 -102.5t31 -163.5q0 -115 -45 -210t-123.5 -150t-176.5 -55q-72 0 -127.5 35zM397.5 144.5q45.5 37.5 72 102.5t26.5 143q0 89 -33 138t-92 49q-56 0 -101.5 -40.5t-71.5 -106
t-26 -136.5q0 -88 34 -137.5t90 -49.5t101.5 37.5z" />
    <glyph glyph-name="one" unicode="1" horiz-adv-x="434" 
d="M238 504l-105 -66l-57 101l223 145h102l-120 -684h-131z" />
    <glyph glyph-name="two" unicode="2" horiz-adv-x="556" 
d="M9 119q39 33 132.5 112.5t161.5 138.5q47 41 65.5 66t18.5 61q0 35 -25 57.5t-64 22.5q-41 0 -69 -24.5t-41 -61.5l-117 51q28 69 87.5 113.5t154.5 44.5q61 0 108.5 -23t74.5 -64.5t27 -94.5q0 -67 -35.5 -119.5t-109.5 -115.5l-190 -162l2 -6h272l-19 -115h-454z" />
    <glyph glyph-name="three" unicode="3" horiz-adv-x="571" 
d="M81.5 31.5q-62.5 47.5 -76.5 132.5l129 48q5 -48 35 -74.5t76 -26.5q51 0 85 28t34 74q0 41 -28 62.5t-80 21.5h-59l21 119h54q53 0 87 24t34 69q0 31 -23.5 51t-59.5 20q-40 0 -65.5 -22.5t-39.5 -57.5l-115 52q26 65 85 106.5t153 41.5q57 0 103 -22.5t72 -61t26 -85.5
q0 -60 -32 -102t-83 -63l-1 -8q37 -20 61 -56t24 -84q0 -70 -34.5 -123t-95.5 -82t-137 -29q-87 0 -149.5 47.5z" />
    <glyph glyph-name="four" unicode="4" horiz-adv-x="625" 
d="M318 126h-315l19 109l378 449h147l-77 -436h86l-22 -122h-85l-23 -126h-131zM339 248l42 241h-8l-200 -241h166z" />
    <glyph glyph-name="five" unicode="5" horiz-adv-x="586" 
d="M134.5 5q-48.5 21 -81.5 63t-41 101l124 46q6 -50 35 -80t75 -30q55 0 93.5 34.5t38.5 91.5q0 43 -26.5 71.5t-70.5 28.5q-30 0 -56.5 -12.5t-46.5 -33.5l-119 51l101 348h386l-20 -115h-277l-54 -160l7 -3q51 42 115 42q54 0 98 -24.5t69 -70.5t25 -108
q0 -72 -33.5 -131.5t-95.5 -94.5t-143 -35q-54 0 -102.5 21z" />
    <glyph glyph-name="six" unicode="6" horiz-adv-x="580" 
d="M124.5 13q-50.5 29 -78.5 78t-28 107q0 50 16 92t43 78.5t74 89.5l218 246l89 -70l-172 -197l5 -5q24 8 47 8q45 0 85.5 -25.5t65 -71.5t24.5 -104q0 -72 -34 -130t-96 -91.5t-144 -33.5q-64 0 -114.5 29zM345 139.5q37 35.5 37 90.5q0 44 -29.5 72.5t-76.5 28.5
q-55 0 -91.5 -37t-36.5 -92q0 -43 30.5 -70.5t74.5 -27.5q55 0 92 35.5z" />
    <glyph glyph-name="seven" unicode="7" horiz-adv-x="557" 
d="M25 54l368 501l-2 6h-311l23 123h464l-22 -129l-423 -571z" />
    <glyph glyph-name="eight" unicode="8" horiz-adv-x="588" 
d="M118 9.5q-51 25.5 -78.5 69t-27.5 94.5q0 62 37 111.5t101 74.5l1 8q-26 20 -43 50.5t-17 68.5q0 61 34.5 109.5t93 76.5t127.5 28q58 0 103.5 -22t71 -61t25.5 -87q0 -57 -30 -99.5t-80 -67.5l-1 -8q35 -21 57 -57t22 -85q0 -68 -36.5 -120t-99.5 -80.5t-141 -28.5
q-68 0 -119 25.5zM389 440q31 26 31 66q0 34 -25 55.5t-65 21.5q-48 0 -80 -25t-32 -69q0 -34 25.5 -54.5t65.5 -20.5q49 0 80 26zM343 135q39 30 39 82q0 36 -28.5 59t-73.5 23q-53 0 -93 -30.5t-40 -79.5q0 -39 27.5 -61.5t73.5 -22.5q56 0 95 30z" />
    <glyph glyph-name="nine" unicode="9" horiz-adv-x="579" 
d="M116 50l172 197l-5 5q-26 -8 -43 -8q-43 0 -84.5 25.5t-68 71.5t-26.5 104q0 72 34 130t96 91.5t144 33.5q64 0 114.5 -28.5t78.5 -78t28 -111.5q0 -49 -16 -90t-43 -77t-74 -89l-218 -246zM389.5 389.5q36.5 36.5 36.5 89.5q0 44 -30.5 72.5t-74.5 28.5
q-55 0 -92.5 -35.5t-37.5 -90.5q0 -44 30 -72.5t77 -28.5q55 0 91.5 36.5z" />
    <glyph glyph-name="colon" unicode=":" horiz-adv-x="269" 
d="M87.5 374.5q-25.5 25.5 -25.5 61.5t25.5 61t61.5 25t61 -25t25 -61t-25 -61.5t-61 -25.5t-61.5 25.5zM24.5 19.5q-25.5 25.5 -25.5 61.5t25.5 61t61.5 25t61.5 -25t25.5 -61t-25.5 -61.5t-61.5 -25.5t-61.5 25.5z" />
    <glyph glyph-name="semicolon" unicode=";" horiz-adv-x="271" 
d="M83.5 374.5q-25.5 25.5 -25.5 61.5t25.5 61t61.5 25t61 -25t25 -61t-25 -61.5t-61 -25.5t-61.5 25.5zM-31 -82l75 92q-19 14 -30.5 31.5t-11.5 45.5q0 36 26 61.5t61 25.5q36 0 61.5 -25.5t25.5 -61.5q0 -18 -8 -34.5t-26 -37.5l-118 -141z" />
    <glyph glyph-name="less" unicode="&#x3c;" horiz-adv-x="531" 
d="M31 222l18 104l449 188l-23 -133l-277 -109l-2 -8l239 -110l-22 -126z" />
    <glyph glyph-name="equal" unicode="=" horiz-adv-x="581" 
d="M77 477h468l-20 -116h-469zM41 277h469l-21 -116h-469z" />
    <glyph glyph-name="greater" unicode="&#x3e;" horiz-adv-x="531" 
d="M25 161l277 109l1 8l-238 110l22 126l382 -194l-19 -104l-449 -188z" />
    <glyph glyph-name="question" unicode="?" horiz-adv-x="514" 
d="M173 279q10 52 33.5 86t86.5 77q35 24 55 47t20 51q0 31 -22 50t-59 19q-40 0 -67.5 -23t-40.5 -59l-106 48q22 66 83 111.5t147 45.5q57 0 102 -22t70 -61t25 -88q0 -55 -30.5 -97t-89.5 -89q-40 -33 -56 -54.5t-23 -57.5l-3 -17h-131zM140.5 19.5
q-25.5 25.5 -25.5 61.5t25.5 61t61.5 25t61 -25t25 -61t-25 -61.5t-61 -25.5t-61.5 25.5z" />
    <glyph glyph-name="at" unicode="@" horiz-adv-x="877" 
d="M200.5 -35q-79.5 47 -122.5 125.5t-43 171.5q0 126 59 223t162 151t232 54q94 0 173.5 -40t127.5 -114t48 -172q0 -72 -24 -133.5t-68 -98t-103 -36.5q-42 0 -70.5 19t-38.5 53q-24 -35 -61.5 -53.5t-80.5 -18.5q-47 0 -87 23t-64 64t-24 92q0 57 25.5 109.5t75.5 86
t119 33.5q38 0 65.5 -14t42.5 -38h8l7 38h98l-44 -246q-2 -12 -2 -18q0 -20 11 -31.5t30 -11.5q40 0 65 51.5t25 119.5q0 70 -32 125.5t-93.5 87.5t-144.5 32q-96 0 -172.5 -43t-120 -118.5t-43.5 -170.5q0 -73 34.5 -132t92.5 -92.5t125 -33.5q77 0 140 33l31 -87
q-78 -37 -176 -37q-103 0 -182.5 47zM491.5 227.5q32.5 34.5 32.5 88.5q0 41 -25 66t-64 25q-52 0 -84.5 -36.5t-32.5 -87.5q0 -42 27 -66t65 -24q49 0 81.5 34.5z" />
    <glyph glyph-name="A" unicode="A" horiz-adv-x="722" 
d="M340 716h158l143 -716h-144l-31 171h-273l-90 -171h-153zM443 295l-33 180l-11 86h-8l-40 -86l-94 -180h186z" />
    <glyph glyph-name="B" unicode="B" horiz-adv-x="646" 
d="M143 716h254q67 0 115.5 -24t73.5 -64t25 -88q0 -66 -36 -107t-90 -58l-1 -8q42 -19 68.5 -56t26.5 -89q0 -66 -36 -116.5t-98 -78t-139 -27.5h-290zM361 424q52 0 83.5 24t31.5 68q0 35 -23 57t-61 22h-137l-29 -171h135zM323 123q51 0 85.5 26.5t34.5 72.5
q0 39 -25 62.5t-71 23.5h-142l-33 -185h151z" />
    <glyph glyph-name="C" unicode="C" horiz-adv-x="750" 
d="M196 24.5q-74 40.5 -116.5 115.5t-42.5 176q0 112 55 207.5t153.5 152t221.5 56.5q88 0 154 -32.5t106 -90.5l-107 -88q-31 41 -71.5 62t-99.5 21q-75 0 -138.5 -37.5t-101 -102t-37.5 -141.5q0 -63 26 -111t72.5 -74t105.5 -26q61 0 110.5 25t98.5 74l86 -97
q-68 -69 -139.5 -99.5t-168.5 -30.5q-93 0 -167 40.5z" />
    <glyph glyph-name="D" unicode="D" horiz-adv-x="738" 
d="M143 716h227q104 0 177.5 -40t111 -110.5t37.5 -163.5q0 -109 -52 -201t-149.5 -146.5t-225.5 -54.5h-253zM275 128q84 0 149 33.5t100.5 92.5t35.5 133q0 98 -51 149.5t-153 51.5h-101l-82 -460h102z" />
    <glyph glyph-name="E" unicode="E" horiz-adv-x="593" 
d="M143 716h454l-23 -128h-319l-30 -166h288l-23 -128h-288l-29 -166h319l-22 -128h-454z" />
    <glyph glyph-name="F" unicode="F" horiz-adv-x="573" 
d="M143 716h454l-23 -128h-319l-31 -174h287l-22 -128h-288l-51 -286h-134z" />
    <glyph glyph-name="G" unicode="G" horiz-adv-x="826" 
d="M204.5 27q-78.5 43 -122 120.5t-43.5 176.5q0 108 54.5 202t153 150t224.5 56q88 0 157 -31t111 -86l-107 -91q-26 36 -71.5 58t-103.5 22q-78 0 -142.5 -34.5t-102.5 -97t-38 -142.5q0 -66 28.5 -115.5t78 -76t111.5 -26.5q100 0 166 57q46 40 69 109h-221l20 115h350
q1 -7 1 -18q0 -90 -32 -164.5t-90 -126.5q-53 -48 -122 -74t-149 -26q-101 0 -179.5 43z" />
    <glyph glyph-name="H" unicode="H" horiz-adv-x="734" 
d="M143 716h134l-51 -286h302l51 286h135l-127 -716h-135l54 302h-302l-54 -302h-134z" />
    <glyph glyph-name="I" unicode="I" horiz-adv-x="298" 
d="M143 716h134l-127 -716h-134z" />
    <glyph glyph-name="J" unicode="J" horiz-adv-x="569" 
d="M110 6q-47 22 -78 61.5t-37 89.5l129 50q5 -46 33 -70.5t70 -24.5q45 0 75.5 30t40.5 84l86 490h135l-87 -489q-22 -124 -92 -183.5t-173 -59.5q-55 0 -102 22z" />
    <glyph glyph-name="K" unicode="K" horiz-adv-x="683" 
d="M143 716h134l-53 -303h8l311 303h168l-2 -8l-312 -298l212 -402l-1 -8h-158l-161 307l-101 -97l-38 -210h-134z" />
    <glyph glyph-name="L" unicode="L" horiz-adv-x="550" 
d="M143 716h134l-104 -588h303l-22 -128h-438z" />
    <glyph glyph-name="M" unicode="M" horiz-adv-x="900" 
d="M143 716h170l102 -503h8l278 503h178l-127 -716h-133l63 353l29 119h-8l-263 -472h-107l-100 472h-8l-13 -119l-63 -353h-133z" />
    <glyph glyph-name="N" unicode="N" horiz-adv-x="742" 
d="M143 716h149l211 -480h8l16 138l61 342h133l-127 -716h-133l-222 507h-8l-16 -138l-66 -369h-133z" />
    <glyph glyph-name="O" unicode="O" horiz-adv-x="840" 
d="M202.5 25.5q-77.5 41.5 -121.5 117.5t-44 174q0 112 53.5 207t150.5 151.5t220 56.5q98 0 175 -43t120 -119t43 -171q0 -112 -53.5 -207t-150 -151.5t-219.5 -56.5q-96 0 -173.5 41.5zM527 150q63 38 99.5 103.5t36.5 143.5q0 60 -28 107t-77 73.5t-109 26.5
q-77 0 -140 -38t-99.5 -102.5t-36.5 -141.5q0 -61 28 -109t77 -74.5t109 -26.5q77 0 140 38z" />
    <glyph glyph-name="P" unicode="P" horiz-adv-x="610" 
d="M143 716h240q63 0 113 -26t78 -72.5t28 -107.5q0 -77 -35.5 -133t-98.5 -85t-144 -29h-127l-47 -263h-134zM341 391q57 0 91.5 28t34.5 81q0 40 -24 64t-67 24h-121l-35 -197h121z" />
    <glyph glyph-name="Q" unicode="Q" horiz-adv-x="840" 
d="M518 7q-71 -23 -142 -23q-96 0 -173.5 41.5t-121.5 117.5t-44 174q0 112 53.5 207t150.5 151.5t220 56.5q98 0 175 -43t120 -119t43 -171q0 -99 -42.5 -185.5t-119.5 -144.5l38 -76l-119 -61zM461 124l-58 119l119 62l56 -114q40 39 62.5 92.5t22.5 113.5t-28 107
t-77 73.5t-109 26.5q-77 0 -140 -38t-99.5 -102.5t-36.5 -141.5q0 -61 28 -109t77 -74.5t109 -26.5q38 0 74 12z" />
    <glyph glyph-name="R" unicode="R" horiz-adv-x="634" 
d="M143 716h235q67 0 119 -26.5t80.5 -72t28.5 -100.5q0 -59 -25 -107.5t-68 -80.5t-95 -44l-3 -7l140 -270l-1 -8h-147l-138 269h-71l-48 -269h-134zM345 393q56 0 90.5 28.5t34.5 82.5q0 39 -26.5 63t-70.5 24h-118l-35 -198h125z" />
    <glyph glyph-name="S" unicode="S" horiz-adv-x="590" 
d="M84 36.5q-66 52.5 -83 150.5l129 52q5 -56 38 -91.5t89 -35.5q52 0 87.5 26t35.5 69q0 37 -26 62t-89 50l-35 14q-65 25 -106 71.5t-41 118.5q0 59 33.5 107t91.5 75t129 27q68 0 115 -23.5t71.5 -58.5t31.5 -71l-124 -47q-8 35 -34.5 55.5t-72.5 20.5q-44 0 -75 -21.5
t-31 -58.5q0 -32 23.5 -54t76.5 -41l41 -15q76 -29 116.5 -76t40.5 -120q0 -69 -34.5 -123t-96.5 -84.5t-143 -30.5q-92 0 -158 52.5z" />
    <glyph glyph-name="T" unicode="T" horiz-adv-x="588" 
d="M265 588h-200l23 128h534l-22 -128h-200l-105 -588h-134z" />
    <glyph glyph-name="U" unicode="U" horiz-adv-x="694" 
d="M164.5 13.5q-54.5 29.5 -84.5 83t-30 123.5q0 36 9 84l72 412h135l-77 -435q-4 -25 -4 -47q0 -57 30.5 -89.5t91.5 -32.5q67 0 111.5 44.5t57.5 120.5l77 439h135l-79 -447q-25 -142 -107.5 -213.5t-212.5 -71.5q-70 0 -124.5 29.5z" />
    <glyph glyph-name="V" unicode="V" horiz-adv-x="684" 
d="M76 716h144l71 -432l10 -91h8l44 91l229 432h150l-387 -716h-142z" />
    <glyph glyph-name="W" unicode="W" horiz-adv-x="984" 
d="M79 716h150l26 -402l-1 -75h8l29 75l195 402h135l51 -402l3 -73h8l26 73l168 402h151l-308 -716h-146l-49 432l-2 77h-8l-30 -77l-201 -432h-139z" />
    <glyph glyph-name="X" unicode="X" horiz-adv-x="694" 
d="M261 377l-171 339h169l104 -231h8l182 231h174l-291 -351l183 -365h-165l-121 251h-8l-202 -251h-174z" />
    <glyph glyph-name="Y" unicode="Y" horiz-adv-x="642" 
d="M249 333l-173 383h156l102 -237h8l180 237h167l-305 -383l-59 -333h-135z" />
    <glyph glyph-name="Z" unicode="Z" horiz-adv-x="609" 
d="M-2 136l436 452h-341l23 128h504l-24 -136l-433 -452h357l-23 -128h-523z" />
    <glyph glyph-name="bracketleft" unicode="[" horiz-adv-x="352" 
d="M152 792h248l-19 -108h-120l-123 -700h120l-19 -108h-247z" />
    <glyph glyph-name="backslash" unicode="\" horiz-adv-x="480" 
d="M92 716h124l170 -716h-124z" />
    <glyph glyph-name="bracketright" unicode="]" horiz-adv-x="352" 
d="M-30 -16h120l123 700h-120l19 108h247l-160 -916h-248z" />
    <glyph glyph-name="asciicircum" unicode="^" horiz-adv-x="515" 
d="M306 592h-8l-135 -182h-142l245 306h109l137 -306h-132z" />
    <glyph glyph-name="underscore" unicode="_" horiz-adv-x="499" 
d="M436 -100l-20 -116h-498l21 116h497z" />
    <glyph glyph-name="grave" unicode="`" horiz-adv-x="443" 
d="M161 724h148l19 -136h-102z" />
    <glyph glyph-name="a" unicode="a" horiz-adv-x="557" 
d="M96.5 5.5q-37.5 21.5 -59.5 58t-22 79.5q0 86 58.5 135t168.5 49q73 0 135 -25l5 22l2 22q0 32 -29.5 53t-72.5 21q-38 0 -69.5 -14.5t-53.5 -41.5l-87 64q39 48 97.5 73t127.5 25q100 0 157.5 -48t57.5 -126q0 -20 -5 -52l-54 -300h-129l9 52h-8q-25 -33 -60 -50.5
t-85 -17.5q-46 0 -83.5 21.5zM316 120.5q37 34.5 45 87.5q-28 12 -53 18t-60 6q-49 0 -75 -20.5t-26 -58.5q0 -31 22 -49t56 -18q54 0 91 34.5z" />
    <glyph glyph-name="b" unicode="b" horiz-adv-x="630" 
d="M205.5 6q-42.5 22 -63.5 55h-8l-11 -61h-122l126 716h130l-35 -196l-20 -72h8q19 31 60 54.5t95 23.5q59 0 108 -30t77 -84.5t28 -123.5q0 -87 -36.5 -156.5t-99 -108.5t-138.5 -39q-56 0 -98.5 22zM366 126.5q37 21.5 58.5 59.5t21.5 87q0 36 -17 66t-46 47.5t-63 17.5
q-46 0 -81.5 -23.5t-55 -63t-19.5 -86.5q0 -36 16.5 -65t44 -45t59.5 -16q45 0 82 21.5z" />
    <glyph glyph-name="c" unicode="c" horiz-adv-x="571" 
d="M130.5 15.5q-55.5 31.5 -86.5 86.5t-31 122q0 79 37.5 148.5t107.5 111.5t163 42q82 0 139.5 -39.5t78.5 -104.5l-122 -48q-13 33 -43.5 51.5t-70.5 18.5q-44 0 -80.5 -21.5t-57 -59.5t-20.5 -85q0 -59 35 -96t87 -37q46 0 79 19.5t51 54.5l111 -54q-38 -69 -104 -105
t-148 -36q-70 0 -125.5 31.5z" />
    <glyph glyph-name="d" unicode="d" horiz-adv-x="632" 
d="M113.5 14.5q-47.5 30.5 -74 84.5t-26.5 120q0 86 36 156t101.5 110.5t150.5 40.5q53 0 95 -23.5t57 -54.5h8l4 72l34 196h131l-127 -716h-122l10 61h-8q-24 -35 -64.5 -56t-98.5 -21q-59 0 -106.5 30.5zM347.5 126q36.5 21 58.5 61t22 94t-35 88.5t-88 34.5
q-47 0 -83.5 -22.5t-57 -62t-20.5 -88.5q0 -56 36 -91t89 -35q42 0 78.5 21z" />
    <glyph glyph-name="e" unicode="e" horiz-adv-x="588" 
d="M126 16.5q-54 32.5 -83.5 88t-29.5 121.5q0 80 38 148.5t106.5 110t154.5 41.5q69 0 120 -30t78 -79t27 -106q0 -45 -13 -87h-383l-1 -11q1 -53 36.5 -83t85.5 -30q55 0 89 18.5t57 57.5l99 -52q-44 -70 -104 -105t-152 -35q-71 0 -125 32.5zM416 317v4q0 40 -32 69
t-84 29q-51 0 -89.5 -30t-53.5 -72h259z" />
    <glyph glyph-name="f" unicode="f" horiz-adv-x="414" 
d="M123 398h-91l20 112h91l5 28q14 91 72 138.5t151 47.5q23 0 45.5 -4t33.5 -10l-23 -125q-30 16 -63 16q-34 0 -57.5 -19t-28.5 -52l-4 -20h124l-19 -112h-125l-70 -398h-131z" />
    <glyph glyph-name="g" unicode="g" horiz-adv-x="624" 
d="M69 -189.5q-59 42.5 -73 105.5l128 48q10 -38 38.5 -59t71.5 -21q133 0 160 139l9 47h-9q-25 -36 -62 -53t-92 -17q-59 0 -106 29t-74 80t-27 115q0 81 34 150t98 110.5t148 41.5q51 0 90.5 -18t58.5 -52h8l10 54h125l-86 -486q-22 -128 -95 -192t-204 -64
q-92 0 -151 42.5zM359.5 140.5q36.5 21.5 58 59.5t21.5 84q0 56 -34 89.5t-83 33.5q-44 0 -80 -21.5t-57 -60.5t-21 -88q0 -56 33 -87t82 -31q44 0 80.5 21.5z" />
    <glyph glyph-name="h" unicode="h" horiz-adv-x="600" 
d="M126 716h131l-33 -181l-23 -89h8q25 38 66 59t95 21q76 0 120 -44.5t44 -113.5q0 -33 -6 -65l-54 -303h-131l53 293q4 24 4 39q0 30 -22.5 51t-59.5 21q-57 0 -92.5 -38.5t-48.5 -111.5l-46 -254h-131z" />
    <glyph glyph-name="i" unicode="i" horiz-adv-x="276" 
d="M126 590.5q-25 24.5 -25 59.5t25 59.5t60 24.5t59.5 -24.5t24.5 -59.5t-24.5 -59.5t-59.5 -24.5t-60 24.5zM95 510h131l-89 -510h-131z" />
    <glyph glyph-name="j" unicode="j" horiz-adv-x="277" 
d="M127.5 585.5q-24.5 24.5 -24.5 59.5t24.5 59.5t59.5 24.5t60 -24.5t25 -59.5t-25 -59.5t-60 -24.5t-59.5 24.5zM-130 -217l22 122q20 -11 51 -11q25 0 38 14t18 42l99 560h131l-100 -564q-18 -99 -63.5 -135.5t-124.5 -36.5q-40 0 -71 9z" />
    <glyph glyph-name="k" unicode="k" horiz-adv-x="561" 
d="M127 716h131l-67 -385h7l206 179h169l-2 -8l-231 -194l150 -300l-1 -8h-149l-105 222l-75 -63l-28 -159h-131z" />
    <glyph glyph-name="l" unicode="l" horiz-adv-x="260" 
d="M126 716h131l-126 -716h-131z" />
    <glyph glyph-name="m" unicode="m" horiz-adv-x="912" 
d="M212 510l-11 -64h8q29 40 67 60t92 20t89.5 -24.5t49.5 -65.5q28 41 73 65.5t109 24.5q74 0 116.5 -42t42.5 -109q0 -23 -6 -53l-57 -322h-130l53 304q3 18 3 32q0 32 -19 50t-54 18q-51 0 -87 -41.5t-49 -113.5l-44 -249h-131l54 304q0 5 1.5 14.5t1.5 17.5q0 32 -21 50
t-56 18q-50 0 -84.5 -41.5t-47.5 -113.5l-44 -249h-131l90 510h122z" />
    <glyph glyph-name="n" unicode="n" horiz-adv-x="600" 
d="M209 446q26 38 67.5 59t95.5 21q78 0 120 -44t42 -112q0 -25 -5 -62l-55 -308h-131l52 293q4 15 4 38q0 31 -22 52t-58 21q-58 0 -94 -38.5t-48 -105.5l-46 -260h-131l90 510h122l-11 -64h8z" />
    <glyph glyph-name="o" unicode="o" horiz-adv-x="608" 
d="M129 15.5q-55 31.5 -85 85.5t-30 121q0 85 38 154.5t107.5 109.5t159.5 40q71 0 126 -31.5t85 -85.5t30 -121q0 -85 -38 -154.5t-107.5 -109.5t-159.5 -40q-71 0 -126 31.5zM349.5 127q36.5 22 58 61t21.5 86q0 57 -34 93.5t-91 36.5q-43 0 -79 -22t-57.5 -60.5
t-21.5 -85.5q0 -57 33.5 -94t90.5 -37q43 0 79.5 22z" />
    <glyph glyph-name="p" unicode="p" horiz-adv-x="627" 
d="M95 510h123l-11 -62h8q23 36 64 57t99 21q59 0 106.5 -30.5t74 -84.5t26.5 -120q0 -86 -36 -156t-101.5 -110.5t-149.5 -40.5q-53 0 -95.5 23t-57.5 54h-8l-4 -72l-35 -205h-131zM377.5 127.5q36.5 22.5 56.5 62.5t20 89q0 56 -35.5 90.5t-88.5 34.5q-42 0 -79 -21
t-59 -60.5t-22 -93.5t35 -89t88 -35q48 0 84.5 22.5z" />
    <glyph glyph-name="q" unicode="q" horiz-adv-x="627" 
d="M371 -11l20 72h-8q-20 -32 -59.5 -54.5t-96.5 -22.5q-59 0 -107.5 30t-77 84.5t-28.5 122.5q0 87 37 156.5t100 109t139 39.5q56 0 98 -22t63 -56h8l11 62h123l-128 -726h-130zM355.5 128.5q35.5 23.5 54.5 63.5t19 87q0 55 -36 90t-87 35q-43 0 -80 -21t-58.5 -59
t-21.5 -87q0 -55 36.5 -93.5t90.5 -38.5q47 0 82.5 23.5z" />
    <glyph glyph-name="r" unicode="r" horiz-adv-x="427" 
d="M90 510h122l-11 -62h8q23 36 66 56.5t95 20.5q37 0 61 -11l-23 -134q-15 10 -36.5 16t-42.5 6q-59 0 -100.5 -42t-53.5 -106l-44 -254h-131z" />
    <glyph glyph-name="s" unicode="s" horiz-adv-x="498" 
d="M62.5 23.5q-58.5 39.5 -75.5 100.5l120 49q9 -36 39.5 -55t71.5 -19q34 0 57.5 14.5t23.5 39.5q0 44 -70 60l-50 12q-57 13 -97 50t-40 92q0 72 59.5 115.5t158.5 43.5q74 0 125 -30t74 -88l-120 -44q-9 27 -34 41.5t-56 14.5q-36 0 -56.5 -13.5t-20.5 -32.5
q0 -16 16 -29.5t41 -19.5l74 -18q60 -15 94 -53.5t34 -89.5q0 -81 -60.5 -130.5t-162.5 -49.5q-87 0 -145.5 39.5z" />
    <glyph glyph-name="t" unicode="t" horiz-adv-x="418" 
d="M118.5 27.5q-38.5 35.5 -38.5 103.5q0 19 5 52l37 215h-88l20 112h89l25 144h131l-25 -144h124l-20 -112h-125l-37 -209q-2 -22 -2 -24q0 -23 14 -36.5t37 -13.5q20 0 35.5 5.5t35.5 16.5l-22 -128q-42 -17 -91 -17q-66 0 -104.5 35.5z" />
    <glyph glyph-name="u" unicode="u" horiz-adv-x="600" 
d="M352 64q-26 -39 -67.5 -59.5t-95.5 -20.5q-78 0 -120 44t-42 112q0 32 5 61l55 309h131l-52 -293q-4 -16 -4 -38q0 -32 22 -53t58 -21q58 0 94 38.5t48 106.5l46 260h131l-90 -510h-122l11 64h-8z" />
    <glyph glyph-name="v" unicode="v" horiz-adv-x="578" 
d="M35 510h148l66 -332h7l189 332h151l-307 -510h-131z" />
    <glyph glyph-name="w" unicode="w" horiz-adv-x="834" 
d="M33 510h140l33 -331h7l160 331h138l46 -331h7l142 331h146l-248 -510h-144l-45 330h-7l-161 -330h-140z" />
    <glyph glyph-name="x" unicode="x" horiz-adv-x="536" 
d="M170 266l-131 244h154l69 -147h7l116 147h161l-220 -253l131 -257h-152l-70 152h-7l-120 -152h-161z" />
    <glyph glyph-name="y" unicode="y" horiz-adv-x="579" 
d="M170 29l-127 481h146l77 -317h7l185 317h148l-444 -726h-143z" />
    <glyph glyph-name="z" unicode="z" horiz-adv-x="505" 
d="M304 399h-254l20 111h419l-19 -107l-314 -292h265l-19 -111h-429l19 107z" />
    <glyph glyph-name="braceleft" unicode="{" horiz-adv-x="337" 
d="M77 -85q-43 39 -43 104q0 19 4 40l27 154q1 7 1 17q0 49 -54 49l20 110q27 0 48.5 16.5t27.5 49.5l28 163q15 82 67.5 128t139.5 46h41l-19 -108h-17q-35 0 -57 -21t-29 -59l-26 -146q-9 -52 -30.5 -80.5t-61.5 -39.5l-1 -8q54 -16 54 -77q0 -16 -5 -43l-25 -146
q-3 -13 -3 -23q0 -28 16.5 -42.5t44.5 -14.5h17l-19 -108h-35q-68 0 -111 39z" />
    <glyph glyph-name="bar" unicode="|" horiz-adv-x="264" 
d="M152 792h120l-160 -912h-120z" />
    <glyph glyph-name="braceright" unicode="}" horiz-adv-x="337" 
d="M-30 -16h17q35 0 57 21t29 59l26 146q9 52 30.5 80.5t61.5 39.5l1 8q-54 16 -54 77q0 16 5 43l25 146q3 14 3 23q0 28 -16.5 42.5t-44.5 14.5h-17l19 108h35q68 0 111 -39t43 -104q0 -19 -4 -40l-27 -154q-1 -7 -1 -17q0 -49 54 -49l-20 -110q-27 0 -48.5 -16.5
t-27.5 -49.5l-28 -163q-15 -82 -67.5 -128t-139.5 -46h-41z" />
    <glyph glyph-name="asciitilde" unicode="~" horiz-adv-x="554" 
d="M294.5 231.5q-23.5 8.5 -56.5 25.5q-24 12 -41 18.5t-35 6.5q-22 0 -36.5 -12t-20.5 -31h-106q11 73 54 113.5t119 40.5q33 0 57 -8.5t57 -25.5q25 -13 40.5 -19t33.5 -6q21 0 36 12t21 31h106q-13 -73 -55 -113.5t-118 -40.5q-32 0 -55.5 8.5z" />
    <glyph glyph-name="uni00A0" unicode="&#xa0;" horiz-adv-x="220" 
 />
    <glyph glyph-name="exclamdown" unicode="&#xa1;" horiz-adv-x="269" 
d="M103.5 377.5q-25.5 25.5 -25.5 61.5t25.5 61.5t61.5 25.5t61 -25.5t25 -61.5t-25 -61.5t-61 -25.5t-61.5 25.5zM18 -10l63 279h109l-37 -279l-36 -206h-135z" />
    <glyph glyph-name="cent" unicode="&#xa2;" horiz-adv-x="539" 
d="M190 88q-74 18 -121 77.5t-47 142.5q0 75 32.5 138t91 103t134.5 49l15 86h90l-16 -87q59 -10 98.5 -45.5t58.5 -87.5l-114 -46q-6 23 -22.5 41.5t-40.5 25.5l-51 -289q57 8 97 74l95 -45q-39 -65 -89.5 -99.5t-121.5 -40.5l-15 -85h-90zM260 486q-55 -15 -86 -60.5
t-31 -103.5q0 -43 17.5 -74.5t49.5 -45.5z" />
    <glyph glyph-name="sterling" unicode="&#xa3;" horiz-adv-x="538" 
d="M-12 106q45 18 78.5 54t38.5 81v1h-90l17 100h54q-3 8 -12.5 35.5t-14.5 54t-5 52.5q0 61 30 110t84.5 77.5t126.5 28.5q85 0 133 -42.5t62 -105.5l-123 -47q-13 79 -88 79q-43 0 -72 -30t-29 -75q0 -26 6.5 -50t19.5 -59l10 -28h135l-17 -100h-106q-10 -67 -73 -119
l4 -7h148q32 0 51 14.5t32 44.5l94 -44q-26 -66 -71 -98.5t-120 -32.5h-321z" />
    <glyph glyph-name="currency" unicode="&#xa4;" horiz-adv-x="609" 
d="M60 150l58 57q-34 55 -34 118q0 65 34 118l-58 58l64 64l58 -57q55 36 122 36q68 0 123 -36l58 57l64 -64l-58 -58q33 -52 33 -118q0 -65 -33 -118l58 -57l-64 -65l-58 57q-55 -36 -123 -36q-67 0 -122 36l-58 -57zM383.5 242.5q32.5 33.5 32.5 82.5t-32.5 82.5
t-79.5 33.5t-79.5 -33.5t-32.5 -82.5t32.5 -82.5t79.5 -33.5t79.5 33.5z" />
    <glyph glyph-name="yen" unicode="&#xa5;" horiz-adv-x="632" 
d="M210 133h-165l20 116h166l11 63h-166l21 116h91l-119 256h157l80 -189l18 -67h8l40 67l142 189h163l-207 -256h89l-21 -116h-161l-11 -63h161l-20 -116h-162l-24 -133h-134z" />
    <glyph glyph-name="brokenbar" unicode="&#xa6;" horiz-adv-x="264" 
d="M147 756h120l-67 -380h-120zM65 292h120l-72 -412h-120z" />
    <glyph glyph-name="section" unicode="&#xa7;" horiz-adv-x="560" 
d="M86 -206.5q-51 25.5 -81 70.5t-33 100l117 43q7 -54 38.5 -86.5t83.5 -32.5q45 0 76.5 23t31.5 62q0 38 -26 59.5t-89 43.5l-30 11q-60 21 -97.5 65t-37.5 99q0 51 28 93t76 69q-52 52 -52 119q0 58 32.5 103.5t88 71t121.5 25.5q87 0 137 -42.5t68 -109.5l-128 -47
q-7 34 -29.5 56.5t-64.5 22.5q-37 0 -64.5 -18.5t-27.5 -48.5t23 -50t79 -40l29 -10q75 -27 112.5 -71t37.5 -107q0 -54 -26 -95.5t-68 -70.5q40 -45 40 -113q0 -59 -34 -110t-91.5 -80.5t-124.5 -29.5q-64 0 -115 25.5zM372 242q0 38 -25.5 63.5t-83.5 44.5l-26 9
q-31 -13 -51 -35t-20 -49q0 -31 24 -54t71 -39q38 -13 61 -23q50 35 50 83z" />
    <glyph glyph-name="dieresis" unicode="&#xa8;" horiz-adv-x="452" 
d="M131 608.5q-21 21.5 -21 50.5q0 30 21 51t51 21t50.5 -21t20.5 -51t-20.5 -51t-50.5 -21t-51 21.5zM322 608.5q-21 21.5 -21 50.5q0 30 21 51t50 21q31 0 51.5 -21t20.5 -51t-21 -51t-51 -21q-29 0 -50 21.5z" />
    <glyph glyph-name="copyright" unicode="&#xa9;" horiz-adv-x="532" 
d="M151 303q-53 31 -84 84t-31 115t31 115t84 84t115 31t115 -31t84 -84t31 -115t-31 -115t-84 -84t-115 -31t-115 31zM357.5 344.5q41.5 24.5 66 66.5t24.5 91q0 50 -24.5 91.5t-66 66t-91.5 24.5q-49 0 -91 -24.5t-66.5 -66t-24.5 -91.5q0 -49 25 -90.5t66.5 -66.5
t90.5 -25q50 0 91.5 24.5zM185.5 418q-34.5 35 -34.5 84q0 50 34 84.5t85 34.5q28 0 48 -10t39 -29l-32 -29q-12 13 -23.5 18.5t-31.5 5.5q-29 0 -51 -21.5t-22 -53.5q0 -31 22 -53t51 -22q36 0 60 31l34 -27q-36 -48 -94 -48q-50 0 -84.5 35z" />
    <glyph glyph-name="ordfeminine" unicode="&#xaa;" horiz-adv-x="495" 
d="M87.5 309.5q-41.5 37.5 -41.5 94.5q0 74 56.5 118t143.5 44q71 0 123 -25l2 13l1 14q0 32 -23.5 51t-63.5 19q-31 0 -58.5 -13t-45.5 -37l-78 54q30 43 81.5 66.5t113.5 23.5q88 0 139.5 -41t51.5 -112q0 -17 -3 -35l-46 -258h-117l8 46h-8q-55 -60 -130 -60
q-64 0 -105.5 37.5zM312.5 392.5q34.5 29.5 41.5 67.5q-42 22 -96 22q-38 0 -65 -17t-27 -50q0 -25 20 -38.5t50 -13.5q42 0 76.5 29.5z" />
    <glyph glyph-name="guillemotleft" unicode="&#xab;" horiz-adv-x="610" 
d="M194 41l-171 230l252 230l67 -74l-181 -163l117 -157zM417 41l-171 230l252 230l67 -74l-181 -163l117 -157z" />
    <glyph glyph-name="logicalnot" unicode="&#xac;" horiz-adv-x="594" 
d="M386 290h-352l20 114h466l-52 -299h-115z" />
    <glyph glyph-name="uni00AD" unicode="&#xad;" horiz-adv-x="451" 
d="M396 368l-21 -116h-338l20 116h339z" />
    <glyph glyph-name="registered" unicode="&#xae;" horiz-adv-x="532" 
d="M151 303q-53 31 -84 84t-31 115t31 115t84 84t115 31t115 -31t84 -84t31 -115t-31 -115t-84 -84t-115 -31t-115 31zM357.5 344.5q41.5 24.5 66 66.5t24.5 91q0 50 -24.5 91.5t-66 66t-91.5 24.5q-49 0 -91 -24.5t-66.5 -66t-24.5 -91.5q0 -49 25 -90.5t66.5 -66.5
t90.5 -25q50 0 91.5 24.5zM189 615h96q29 0 51 -21t22 -51q0 -23 -14.5 -41.5t-35.5 -24.5l-2 -2l60 -84v-2h-52l-55 84h-24v-84h-46v226zM281 515q13 0 22 8t9 20q0 11 -8.5 19.5t-21.5 8.5h-47v-56h46z" />
    <glyph glyph-name="macron" unicode="&#xaf;" horiz-adv-x="416" 
d="M122 709h296l-18 -100h-296z" />
    <glyph glyph-name="degree" unicode="&#xb0;" horiz-adv-x="325" 
d="M102 474q-35 32 -35 82q0 63 41.5 103.5t104.5 40.5q49 0 84 -32t35 -82q0 -63 -41.5 -103.5t-104.5 -40.5q-49 0 -84 32zM234.5 536q16.5 17 16.5 41q0 20 -12.5 33t-32.5 13q-24 0 -41 -16.5t-17 -41.5q0 -21 13 -33.5t33 -12.5q24 0 40.5 17z" />
    <glyph glyph-name="plusminus" unicode="&#xb1;" horiz-adv-x="569" 
d="M219 316h-171l19 108h171l24 141h116l-24 -141h170l-19 -108h-170l-26 -141h-116zM13 116h456l-20 -116h-456z" />
    <glyph glyph-name="uni00B2" unicode="&#xb2;" horiz-adv-x="317" 
d="M35 413l150 129q22 17 36 33t14 34q0 16 -11 26t-29 10q-39 0 -54 -48l-75 29q14 46 51.5 72t91.5 26t86.5 -28.5t32.5 -72.5q0 -35 -17.5 -59.5t-58.5 -60.5q-12 -9 -44 -37q-10 -9 -24 -21t-20 -16h135l-15 -79h-261z" />
    <glyph glyph-name="uni00B3" unicode="&#xb3;" horiz-adv-x="334" 
d="M81 368.5q-36 26.5 -45 74.5l77 28q15 -52 61 -52q22 0 39 13t17 34q0 19 -14.5 29t-39.5 10h-35l13 70h34q24 0 40.5 10.5t16.5 29.5q0 14 -11.5 23t-26.5 9q-38 0 -56 -36l-72 32q17 37 53 59t88 22q50 0 82.5 -26.5t32.5 -66.5q0 -30 -16.5 -52t-44.5 -36
q20 -11 32 -30.5t12 -42.5q0 -56 -42.5 -92t-109.5 -36q-49 0 -85 26.5z" />
    <glyph glyph-name="acute" unicode="&#xb4;" horiz-adv-x="443" 
d="M256 724h154l-114 -136h-106z" />
    <glyph glyph-name="mu" unicode="&#xb5;" horiz-adv-x="600" 
d="M87 510h131l-54 -301q-2 -18 -2 -30q0 -33 22 -53.5t58 -20.5q58 0 94 38.5t48 106.5l46 260h131l-90 -510h-122l11 64h-8q-27 -40 -62.5 -60t-87.5 -20q-20 0 -41.5 7t-33.5 17h-8l-2 -65l-28 -159h-130z" />
    <glyph glyph-name="paragraph" unicode="&#xb6;" horiz-adv-x="643" 
d="M273 296h-25q-60 0 -111.5 25.5t-82 73.5t-30.5 111t30.5 111t82 73.5t111.5 25.5h315v-932h-110v825h-70v-825h-110v512z" />
    <glyph glyph-name="periodcentered" unicode="&#xb7;" horiz-adv-x="213" 
d="M41.5 262.5q-25.5 25.5 -25.5 61.5t25.5 61.5t61.5 25.5t61 -25.5t25 -61.5t-25 -61.5t-61 -25.5t-61.5 25.5z" />
    <glyph glyph-name="cedilla" unicode="&#xb8;" horiz-adv-x="411" 
d="M32 -218q-28 19 -35 47l68 27q2 -12 11.5 -20t22.5 -8q15 0 25.5 9.5t10.5 25.5q0 14 -8.5 22.5t-21.5 8.5q-14 0 -28 -14l-55 28l51 92h68l-29 -47q7 1 18 1q35 0 57 -24.5t22 -61.5q0 -48 -32.5 -76.5t-82.5 -28.5q-34 0 -62 19z" />
    <glyph glyph-name="uni00B9" unicode="&#xb9;" horiz-adv-x="272" 
d="M165 601l-54 -38l-41 65l123 88h81l-65 -366h-89z" />
    <glyph glyph-name="ordmasculine" unicode="&#xba;" horiz-adv-x="535" 
d="M111.5 326q-56.5 54 -56.5 146q0 68 34 127.5t95 96t138 36.5q92 0 148 -53.5t56 -145.5q0 -70 -35 -130t-96 -95.5t-136 -35.5q-91 0 -147.5 54zM336.5 399.5q31.5 18.5 50.5 51t19 71.5q0 45 -27 73t-69 28q-36 0 -67.5 -19t-50 -51.5t-18.5 -70.5q0 -45 26.5 -73
t68.5 -28q36 0 67.5 18.5z" />
    <glyph glyph-name="guillemotright" unicode="&#xbb;" horiz-adv-x="610" 
d="M159 501l172 -230l-253 -230l-66 74l180 163l-116 157zM382 501l172 -230l-253 -230l-66 74l180 163l-116 157z" />
    <glyph glyph-name="onequarter" unicode="&#xbc;" horiz-adv-x="759" 
d="M189 601l-54 -38l-41 65l123 88h81l-65 -366h-89zM654 731l70 -54l-587 -693l-71 55zM526 65h-173l12 64l212 237h88l-40 -227h47l-13 -74h-47l-12 -65h-86zM539 139l18 104h-8l-90 -104h80z" />
    <glyph glyph-name="onehalf" unicode="&#xbd;" horiz-adv-x="808" 
d="M189 601l-54 -38l-41 65l123 88h81l-65 -366h-89zM649 731l70 -54l-587 -693l-71 55zM447 63l150 129q22 17 36 33t14 34q0 16 -11 26t-29 10q-39 0 -54 -48l-75 29q14 46 51.5 72t91.5 26t86.5 -28.5t32.5 -72.5q0 -35 -17.5 -59.5t-58.5 -60.5q-12 -9 -44 -37
q-10 -9 -24 -21t-20 -16h135l-15 -79h-261z" />
    <glyph glyph-name="threequarters" unicode="&#xbe;" horiz-adv-x="842" 
d="M112 368.5q-36 26.5 -45 74.5l77 28q15 -52 61 -52q22 0 39 13t17 34q0 19 -14.5 29t-39.5 10h-35l13 70h34q24 0 40.5 10.5t16.5 29.5q0 14 -11.5 23t-26.5 9q-38 0 -56 -36l-72 32q17 37 53 59t88 22q50 0 82.5 -26.5t32.5 -66.5q0 -30 -16.5 -52t-44.5 -36
q20 -11 32 -30.5t12 -42.5q0 -56 -42.5 -92t-109.5 -36q-49 0 -85 26.5zM717 731l70 -54l-587 -693l-71 55zM604 65h-173l12 64l212 237h88l-40 -227h47l-13 -74h-47l-12 -65h-86zM617 139l18 104h-8l-90 -104h80z" />
    <glyph glyph-name="questiondown" unicode="&#xbf;" horiz-adv-x="503" 
d="M223.5 377.5q-25.5 25.5 -25.5 61.5t25.5 61.5t61.5 25.5t61.5 -25.5t25.5 -61.5t-25.5 -61.5t-61.5 -25.5t-61.5 25.5zM79 -210q-45 22 -70 61t-25 88q0 55 30.5 97t88.5 89q41 32 56.5 53.5t22.5 58.5l6 32h132l-10 -48q-9 -51 -33 -85.5t-87 -77.5q-35 -24 -55 -47
t-20 -51q0 -31 22 -50t59 -19q40 0 67.5 23t40.5 59l107 -48q-22 -67 -83.5 -112t-147.5 -45q-56 0 -101 22z" />
    <glyph glyph-name="Agrave" unicode="&#xc0;" horiz-adv-x="722" 
d="M340 716h158l143 -716h-144l-31 171h-273l-90 -171h-153zM443 295l-33 180l-11 86h-8l-40 -86l-94 -180h186zM303 908h148l19 -136h-102z" />
    <glyph glyph-name="Aacute" unicode="&#xc1;" horiz-adv-x="722" 
d="M340 716h158l143 -716h-144l-31 171h-273l-90 -171h-153zM443 295l-33 180l-11 86h-8l-40 -86l-94 -180h186zM435 908h154l-114 -136h-106z" />
    <glyph glyph-name="Acircumflex" unicode="&#xc2;" horiz-adv-x="722" 
d="M340 716h158l143 -716h-144l-31 171h-273l-90 -171h-153zM443 295l-33 180l-11 86h-8l-40 -86l-94 -180h186zM252 786l132 126h119l91 -126l-1 -8h-121l-31 59h-12l-49 -59h-129z" />
    <glyph glyph-name="Atilde" unicode="&#xc3;" horiz-adv-x="722" 
d="M340 716h158l143 -716h-144l-31 171h-273l-90 -171h-153zM443 295l-33 180l-11 86h-8l-40 -86l-94 -180h186zM457.5 777.5q-16.5 6.5 -40.5 19.5q-30 17 -45 17q-26 0 -33 -29h-92q8 63 42 95.5t86 32.5q20 0 36.5 -6.5t40.5 -19.5q30 -17 45 -17q26 0 33 29h92
q-8 -63 -42 -95.5t-86 -32.5q-20 0 -36.5 6.5z" />
    <glyph glyph-name="Adieresis" unicode="&#xc4;" horiz-adv-x="722" 
d="M340 716h158l143 -716h-144l-31 171h-273l-90 -171h-153zM443 295l-33 180l-11 86h-8l-40 -86l-94 -180h186zM288 792.5q-21 21.5 -21 50.5q0 30 21 51t51 21t50.5 -21t20.5 -51t-20.5 -51t-50.5 -21t-51 21.5zM479 792.5q-21 21.5 -21 50.5q0 30 21 51t50 21
q31 0 51.5 -21t20.5 -51t-21 -51t-51 -21q-29 0 -50 21.5z" />
    <glyph glyph-name="Aring" unicode="&#xc5;" horiz-adv-x="722" 
d="M320 680q-25 33 -25 76q0 36 17.5 65.5t47 47t65.5 17.5q35 0 65 -17.5t47.5 -47.5t17.5 -65q0 -29 -12 -54.5t-34 -44.5l132 -657h-144l-31 171h-273l-90 -171h-153zM453.5 728q11.5 12 11.5 28q0 17 -11.5 28.5t-28.5 11.5q-16 0 -28 -11.5t-12 -28.5q0 -16 12 -28
t28 -12q17 0 28.5 12zM443 295l-33 180l-11 86h-8l-40 -86l-94 -180h186z" />
    <glyph glyph-name="AE" unicode="&#xc6;" horiz-adv-x="1012" 
d="M480 716h536l-22 -128h-320l-29 -166h287l-23 -128h-287l-29 -166h319l-23 -128h-454l31 173h-232l-128 -173h-168zM488 301l52 287h-10l-43 -70l-162 -217h163z" />
    <glyph glyph-name="Ccedilla" unicode="&#xc7;" horiz-adv-x="750" 
d="M486.5 137q49.5 25 98.5 74l86 -97q-68 -69 -139.5 -99.5t-168.5 -30.5h-3l-19 -31q7 1 18 1q35 0 57 -24.5t22 -61.5q0 -48 -32.5 -76.5t-82.5 -28.5q-34 0 -62 19t-35 47l68 27q2 -12 11.5 -20t22.5 -8q15 0 25.5 9.5t10.5 25.5q0 14 -8.5 22.5t-21.5 8.5
q-14 0 -28 -14l-55 28l45 82q-76 14 -134.5 57t-91.5 112t-33 157q0 112 55 207.5t153.5 152t221.5 56.5q88 0 154 -32.5t106 -90.5l-107 -88q-31 41 -71.5 62t-99.5 21q-75 0 -138.5 -37.5t-101 -102t-37.5 -141.5q0 -63 26 -111t72.5 -74t105.5 -26q61 0 110.5 25z" />
    <glyph glyph-name="Egrave" unicode="&#xc8;" horiz-adv-x="593" 
d="M143 716h454l-23 -128h-319l-30 -166h288l-23 -128h-288l-29 -166h319l-22 -128h-454zM257 908h148l19 -136h-102z" />
    <glyph glyph-name="Eacute" unicode="&#xc9;" horiz-adv-x="593" 
d="M143 716h454l-23 -128h-319l-30 -166h288l-23 -128h-288l-29 -166h319l-22 -128h-454zM389 908h154l-114 -136h-106z" />
    <glyph glyph-name="Ecircumflex" unicode="&#xca;" horiz-adv-x="593" 
d="M143 716h454l-23 -128h-319l-30 -166h288l-23 -128h-288l-29 -166h319l-22 -128h-454zM206 786l132 126h119l91 -126l-1 -8h-121l-31 59h-12l-49 -59h-129z" />
    <glyph glyph-name="Edieresis" unicode="&#xcb;" horiz-adv-x="593" 
d="M143 716h454l-23 -128h-319l-30 -166h288l-23 -128h-288l-29 -166h319l-22 -128h-454zM242 792.5q-21 21.5 -21 50.5q0 30 21 51t51 21t50.5 -21t20.5 -51t-20.5 -51t-50.5 -21t-51 21.5zM433 792.5q-21 21.5 -21 50.5q0 30 21 51t50 21q31 0 51.5 -21t20.5 -51t-21 -51
t-51 -21q-29 0 -50 21.5z" />
    <glyph glyph-name="Igrave" unicode="&#xcc;" horiz-adv-x="298" 
d="M143 716h134l-127 -716h-134zM102 908h148l19 -136h-102z" />
    <glyph glyph-name="Iacute" unicode="&#xcd;" horiz-adv-x="298" 
d="M143 716h134l-127 -716h-134zM234 908h154l-114 -136h-106z" />
    <glyph glyph-name="Icircumflex" unicode="&#xce;" horiz-adv-x="298" 
d="M143 716h134l-127 -716h-134zM51 786l132 126h119l91 -126l-1 -8h-121l-31 59h-12l-49 -59h-129z" />
    <glyph glyph-name="Idieresis" unicode="&#xcf;" horiz-adv-x="299" 
d="M94.5 794.5q-20.5 20.5 -20.5 48.5q0 29 20.5 49t48.5 20q29 0 49 -20t20 -49q0 -28 -20 -48.5t-49 -20.5q-28 0 -48.5 20.5zM268.5 794.5q-20.5 20.5 -20.5 48.5q0 29 20 49t49 20t49 -20t20 -49q0 -28 -20.5 -48.5t-48.5 -20.5t-48.5 20.5zM143 716h134l-127 -716h-134
z" />
    <glyph glyph-name="Eth" unicode="&#xd0;" horiz-adv-x="780" 
d="M120 302h-76l20 110h75l55 304h227q104 0 177.5 -40t111 -110.5t37.5 -163.5q0 -109 -52 -201t-149.5 -146.5t-225.5 -54.5h-253zM326 128q84 0 149 33.5t100.5 92.5t35.5 133q0 98 -51 149.5t-153 51.5h-101l-31 -176h184l-20 -110h-184l-31 -174h102z" />
    <glyph glyph-name="Ntilde" unicode="&#xd1;" horiz-adv-x="742" 
d="M143 716h149l211 -480h8l16 138l61 342h133l-127 -716h-133l-222 507h-8l-16 -138l-66 -369h-133zM465.5 777.5q-16.5 6.5 -40.5 19.5q-30 17 -45 17q-26 0 -33 -29h-92q8 63 42 95.5t86 32.5q20 0 36.5 -6.5t40.5 -19.5q30 -17 45 -17q26 0 33 29h92q-8 -63 -42 -95.5
t-86 -32.5q-20 0 -36.5 6.5z" />
    <glyph glyph-name="Ograve" unicode="&#xd2;" horiz-adv-x="840" 
d="M202.5 25.5q-77.5 41.5 -121.5 117.5t-44 174q0 112 53.5 207t150.5 151.5t220 56.5q98 0 175 -43t120 -119t43 -171q0 -112 -53.5 -207t-150 -151.5t-219.5 -56.5q-96 0 -173.5 41.5zM527 150q63 38 99.5 103.5t36.5 143.5q0 60 -28 107t-77 73.5t-109 26.5
q-77 0 -140 -38t-99.5 -102.5t-36.5 -141.5q0 -61 28 -109t77 -74.5t109 -26.5q77 0 140 38zM357 908h148l19 -136h-102z" />
    <glyph glyph-name="Oacute" unicode="&#xd3;" horiz-adv-x="840" 
d="M202.5 25.5q-77.5 41.5 -121.5 117.5t-44 174q0 112 53.5 207t150.5 151.5t220 56.5q98 0 175 -43t120 -119t43 -171q0 -112 -53.5 -207t-150 -151.5t-219.5 -56.5q-96 0 -173.5 41.5zM527 150q63 38 99.5 103.5t36.5 143.5q0 60 -28 107t-77 73.5t-109 26.5
q-77 0 -140 -38t-99.5 -102.5t-36.5 -141.5q0 -61 28 -109t77 -74.5t109 -26.5q77 0 140 38zM489 908h154l-114 -136h-106z" />
    <glyph glyph-name="Ocircumflex" unicode="&#xd4;" horiz-adv-x="840" 
d="M202.5 25.5q-77.5 41.5 -121.5 117.5t-44 174q0 112 53.5 207t150.5 151.5t220 56.5q98 0 175 -43t120 -119t43 -171q0 -112 -53.5 -207t-150 -151.5t-219.5 -56.5q-96 0 -173.5 41.5zM527 150q63 38 99.5 103.5t36.5 143.5q0 60 -28 107t-77 73.5t-109 26.5
q-77 0 -140 -38t-99.5 -102.5t-36.5 -141.5q0 -61 28 -109t77 -74.5t109 -26.5q77 0 140 38zM306 786l132 126h119l91 -126l-1 -8h-121l-31 59h-12l-49 -59h-129z" />
    <glyph glyph-name="Otilde" unicode="&#xd5;" horiz-adv-x="840" 
d="M202.5 25.5q-77.5 41.5 -121.5 117.5t-44 174q0 112 53.5 207t150.5 151.5t220 56.5q98 0 175 -43t120 -119t43 -171q0 -112 -53.5 -207t-150 -151.5t-219.5 -56.5q-96 0 -173.5 41.5zM527 150q63 38 99.5 103.5t36.5 143.5q0 60 -28 107t-77 73.5t-109 26.5
q-77 0 -140 -38t-99.5 -102.5t-36.5 -141.5q0 -61 28 -109t77 -74.5t109 -26.5q77 0 140 38zM511.5 777.5q-16.5 6.5 -40.5 19.5q-30 17 -45 17q-26 0 -33 -29h-92q8 63 42 95.5t86 32.5q20 0 36.5 -6.5t40.5 -19.5q30 -17 45 -17q26 0 33 29h92q-8 -63 -42 -95.5t-86 -32.5
q-20 0 -36.5 6.5z" />
    <glyph glyph-name="Odieresis" unicode="&#xd6;" horiz-adv-x="840" 
d="M202.5 25.5q-77.5 41.5 -121.5 117.5t-44 174q0 112 53.5 207t150.5 151.5t220 56.5q98 0 175 -43t120 -119t43 -171q0 -112 -53.5 -207t-150 -151.5t-219.5 -56.5q-96 0 -173.5 41.5zM527 150q63 38 99.5 103.5t36.5 143.5q0 60 -28 107t-77 73.5t-109 26.5
q-77 0 -140 -38t-99.5 -102.5t-36.5 -141.5q0 -61 28 -109t77 -74.5t109 -26.5q77 0 140 38zM342 792.5q-21 21.5 -21 50.5q0 30 21 51t51 21t50.5 -21t20.5 -51t-20.5 -51t-50.5 -21t-51 21.5zM533 792.5q-21 21.5 -21 50.5q0 30 21 51t50 21q31 0 51.5 -21t20.5 -51
t-21 -51t-51 -21q-29 0 -50 21.5z" />
    <glyph glyph-name="multiply" unicode="&#xd7;" horiz-adv-x="611" 
d="M15 117l192 158l-133 154l91 78l135 -156l194 159l71 -85l-192 -158l133 -154l-91 -78l-135 156l-194 -159z" />
    <glyph glyph-name="Oslash" unicode="&#xd8;" horiz-adv-x="840" 
d="M74 15l53 67q-43 45 -66.5 104.5t-23.5 130.5q0 112 53.5 207t150.5 151.5t220 56.5q84 0 159 -35l56 70l84 -68l-52 -65q44 -45 67.5 -105t23.5 -130q0 -112 -53.5 -207t-150 -151.5t-219.5 -56.5q-88 0 -160 35l-57 -71zM533 588q-42 16 -84 16q-77 0 -140 -38
t-99.5 -102.5t-36.5 -141.5q0 -78 43 -130zM527 150q63 38 99.5 103.5t36.5 143.5q0 74 -43 127l-317 -396q40 -16 84 -16q77 0 140 38z" />
    <glyph glyph-name="Ugrave" unicode="&#xd9;" horiz-adv-x="694" 
d="M164.5 13.5q-54.5 29.5 -84.5 83t-30 123.5q0 36 9 84l72 412h135l-77 -435q-4 -25 -4 -47q0 -57 30.5 -89.5t91.5 -32.5q67 0 111.5 44.5t57.5 120.5l77 439h135l-79 -447q-25 -142 -107.5 -213.5t-212.5 -71.5q-70 0 -124.5 29.5zM294 908h148l19 -136h-102z" />
    <glyph glyph-name="Uacute" unicode="&#xda;" horiz-adv-x="694" 
d="M164.5 13.5q-54.5 29.5 -84.5 83t-30 123.5q0 36 9 84l72 412h135l-77 -435q-4 -25 -4 -47q0 -57 30.5 -89.5t91.5 -32.5q67 0 111.5 44.5t57.5 120.5l77 439h135l-79 -447q-25 -142 -107.5 -213.5t-212.5 -71.5q-70 0 -124.5 29.5zM426 908h154l-114 -136h-106z" />
    <glyph glyph-name="Ucircumflex" unicode="&#xdb;" horiz-adv-x="694" 
d="M164.5 13.5q-54.5 29.5 -84.5 83t-30 123.5q0 36 9 84l72 412h135l-77 -435q-4 -25 -4 -47q0 -57 30.5 -89.5t91.5 -32.5q67 0 111.5 44.5t57.5 120.5l77 439h135l-79 -447q-25 -142 -107.5 -213.5t-212.5 -71.5q-70 0 -124.5 29.5zM243 786l132 126h119l91 -126l-1 -8
h-121l-31 59h-12l-49 -59h-129z" />
    <glyph glyph-name="Udieresis" unicode="&#xdc;" horiz-adv-x="694" 
d="M164.5 13.5q-54.5 29.5 -84.5 83t-30 123.5q0 36 9 84l72 412h135l-77 -435q-4 -25 -4 -47q0 -57 30.5 -89.5t91.5 -32.5q67 0 111.5 44.5t57.5 120.5l77 439h135l-79 -447q-25 -142 -107.5 -213.5t-212.5 -71.5q-70 0 -124.5 29.5zM279 792.5q-21 21.5 -21 50.5
q0 30 21 51t51 21t50.5 -21t20.5 -51t-20.5 -51t-50.5 -21t-51 21.5zM470 792.5q-21 21.5 -21 50.5q0 30 21 51t50 21q31 0 51.5 -21t20.5 -51t-21 -51t-51 -21q-29 0 -50 21.5z" />
    <glyph glyph-name="Yacute" unicode="&#xdd;" horiz-adv-x="642" 
d="M249 333l-173 383h156l102 -237h8l180 237h167l-305 -383l-59 -333h-135zM392 908h154l-114 -136h-106z" />
    <glyph glyph-name="Thorn" unicode="&#xde;" horiz-adv-x="591" 
d="M133 716h135l-20 -109h106q63 0 113 -26t78.5 -73t28.5 -107q0 -77 -35.5 -132.5t-98.5 -84.5t-145 -29h-127l-27 -155h-135zM313 283q56 0 91 27.5t35 80.5q0 40 -24 64t-68 24h-121l-35 -196h122z" />
    <glyph glyph-name="germandbls" unicode="&#xdf;" horiz-adv-x="585" 
d="M503.5 324.5q23.5 -39.5 23.5 -95.5q0 -69 -34 -123t-94 -84t-136 -30q-42 0 -67 4l21 119q21 -4 51 -4q54 0 91 31.5t37 85.5q0 44 -27.5 70t-78.5 26h-25l20 115h20q49 0 82.5 25.5t33.5 69.5q0 35 -23 56t-62 21q-44 0 -72.5 -29.5t-37.5 -76.5l-89 -505h-131l89 507
q18 102 83 163.5t176 61.5q59 0 104 -24t69 -64.5t24 -87.5q0 -62 -31 -103.5t-79 -61.5l-1 -8q40 -19 63.5 -58.5z" />
    <glyph glyph-name="agrave" unicode="&#xe0;" horiz-adv-x="557" 
d="M96.5 5.5q-37.5 21.5 -59.5 58t-22 79.5q0 86 58.5 135t168.5 49q73 0 135 -25l5 22l2 22q0 32 -29.5 53t-72.5 21q-38 0 -69.5 -14.5t-53.5 -41.5l-87 64q39 48 97.5 73t127.5 25q100 0 157.5 -48t57.5 -126q0 -20 -5 -52l-54 -300h-129l9 52h-8q-25 -33 -60 -50.5
t-85 -17.5q-46 0 -83.5 21.5zM316 120.5q37 34.5 45 87.5q-28 12 -53 18t-60 6q-49 0 -75 -20.5t-26 -58.5q0 -31 22 -49t56 -18q54 0 91 34.5zM202 744h148l18 -136h-102z" />
    <glyph glyph-name="aacute" unicode="&#xe1;" horiz-adv-x="557" 
d="M96.5 5.5q-37.5 21.5 -59.5 58t-22 79.5q0 86 58.5 135t168.5 49q73 0 135 -25l5 22l2 22q0 32 -29.5 53t-72.5 21q-38 0 -69.5 -14.5t-53.5 -41.5l-87 64q39 48 97.5 73t127.5 25q100 0 157.5 -48t57.5 -126q0 -20 -5 -52l-54 -300h-129l9 52h-8q-25 -33 -60 -50.5
t-85 -17.5q-46 0 -83.5 21.5zM316 120.5q37 34.5 45 87.5q-28 12 -53 18t-60 6q-49 0 -75 -20.5t-26 -58.5q0 -31 22 -49t56 -18q54 0 91 34.5zM329 744h153l-113 -136h-106z" />
    <glyph glyph-name="acircumflex" unicode="&#xe2;" horiz-adv-x="557" 
d="M96.5 5.5q-37.5 21.5 -59.5 58t-22 79.5q0 86 58.5 135t168.5 49q73 0 135 -25l5 22l2 22q0 32 -29.5 53t-72.5 21q-38 0 -69.5 -14.5t-53.5 -41.5l-87 64q39 48 97.5 73t127.5 25q100 0 157.5 -48t57.5 -126q0 -20 -5 -52l-54 -300h-129l9 52h-8q-25 -33 -60 -50.5
t-85 -17.5q-46 0 -83.5 21.5zM316 120.5q37 34.5 45 87.5q-28 12 -53 18t-60 6q-49 0 -75 -20.5t-26 -58.5q0 -31 22 -49t56 -18q54 0 91 34.5zM144 610l132 126h119l91 -126l-2 -8h-120l-32 58h-12l-48 -58h-130z" />
    <glyph glyph-name="atilde" unicode="&#xe3;" horiz-adv-x="557" 
d="M96.5 5.5q-37.5 21.5 -59.5 58t-22 79.5q0 86 58.5 135t168.5 49q73 0 135 -25l5 22l2 22q0 32 -29.5 53t-72.5 21q-38 0 -69.5 -14.5t-53.5 -41.5l-87 64q39 48 97.5 73t127.5 25q100 0 157.5 -48t57.5 -126q0 -20 -5 -52l-54 -300h-129l9 52h-8q-25 -33 -60 -50.5
t-85 -17.5q-46 0 -83.5 21.5zM316 120.5q37 34.5 45 87.5q-28 12 -53 18t-60 6q-49 0 -75 -20.5t-26 -58.5q0 -31 22 -49t56 -18q54 0 91 34.5zM351 613.5q-17 6.5 -38 18.5q-31 18 -47 18q-25 0 -32 -29h-92q8 62 41.5 94.5t85.5 32.5q21 0 38 -7t39 -19q12 -7 24.5 -12
t21.5 -5q26 0 32 29h92q-8 -62 -41.5 -94.5t-85.5 -32.5q-21 0 -38 6.5z" />
    <glyph glyph-name="adieresis" unicode="&#xe4;" horiz-adv-x="557" 
d="M96.5 5.5q-37.5 21.5 -59.5 58t-22 79.5q0 86 58.5 135t168.5 49q73 0 135 -25l5 22l2 22q0 32 -29.5 53t-72.5 21q-38 0 -69.5 -14.5t-53.5 -41.5l-87 64q39 48 97.5 73t127.5 25q100 0 157.5 -48t57.5 -126q0 -20 -5 -52l-54 -300h-129l9 52h-8q-25 -33 -60 -50.5
t-85 -17.5q-46 0 -83.5 21.5zM316 120.5q37 34.5 45 87.5q-28 12 -53 18t-60 6q-49 0 -75 -20.5t-26 -58.5q0 -31 22 -49t56 -18q54 0 91 34.5zM183 628q-21 21 -21 51t21 50.5t50 20.5q31 0 51.5 -20.5t20.5 -50.5t-20.5 -51t-51.5 -21q-29 0 -50 21zM373.5 628
q-21.5 21 -21.5 51t21 50.5t51 20.5t51 -20.5t21 -50.5t-21 -51t-51 -21q-29 0 -50.5 21z" />
    <glyph glyph-name="aring" unicode="&#xe5;" horiz-adv-x="557" 
d="M96.5 5.5q-37.5 21.5 -59.5 58t-22 79.5q0 86 58.5 135t168.5 49q73 0 135 -25l5 22l2 22q0 32 -29.5 53t-72.5 21q-38 0 -69.5 -14.5t-53.5 -41.5l-87 64q39 48 97.5 73t127.5 25q100 0 157.5 -48t57.5 -126q0 -20 -5 -52l-54 -300h-129l9 52h-8q-25 -33 -60 -50.5
t-85 -17.5q-46 0 -83.5 21.5zM316 120.5q37 34.5 45 87.5q-28 12 -53 18t-60 6q-49 0 -75 -20.5t-26 -58.5q0 -31 22 -49t56 -18q54 0 91 34.5zM254.5 615.5q-31.5 31.5 -31.5 76.5t31.5 76.5t76.5 31.5t76.5 -31.5t31.5 -76.5t-31.5 -76.5t-76.5 -31.5t-76.5 31.5z
M355 667.5q10 10.5 10 24.5t-10.5 24t-23.5 10q-14 0 -24.5 -10t-10.5 -24t10.5 -24.5t24.5 -10.5t24 10.5z" />
    <glyph glyph-name="ae" unicode="&#xe6;" horiz-adv-x="937" 
d="M96.5 5.5q-37.5 21.5 -59.5 58t-22 79.5q0 91 63 137.5t171 46.5q40 0 75 -7.5t54 -15.5l5 22q2 14 2 17q0 36 -28 56.5t-74 20.5q-76 0 -110 -52l-95 51q68 107 219 107q63 0 108.5 -21.5t69.5 -57.5q73 79 189 79q68 0 119 -30t77.5 -79.5t26.5 -105.5q0 -46 -13 -87
h-383q-1 -3 -1 -11q2 -53 37 -83t86 -30q54 0 88 18.5t57 57.5l99 -52q-44 -70 -104 -105t-150 -35q-67 0 -116 29.5t-79 77.5q-45 -57 -102 -82t-127 -25q-45 0 -82.5 21.5zM765 317v4q0 41 -33 69.5t-82 28.5q-52 0 -90.5 -30t-53.5 -72h259zM316 120.5q37 34.5 45 87.5
q-50 24 -113 24q-49 0 -75 -20.5t-26 -58.5q0 -31 22 -49t56 -18q54 0 91 34.5z" />
    <glyph glyph-name="ccedilla" unicode="&#xe7;" horiz-adv-x="571" 
d="M346 124.5q33 19.5 51 54.5l111 -54q-38 -69 -104 -105t-148 -36h-5l-19 -31q7 1 18 1q35 0 57 -24.5t22 -61.5q0 -48 -32.5 -76.5t-82.5 -28.5q-34 0 -62 19t-35 47l68 27q2 -12 11.5 -20t22.5 -8q15 0 25.5 9.5t10.5 25.5q0 14 -8.5 22.5t-21.5 8.5q-14 0 -28 -14
l-55 28l47 84q-80 20 -128 83.5t-48 148.5q0 79 37.5 148.5t107.5 111.5t163 42q82 0 139.5 -39.5t78.5 -104.5l-122 -48q-13 33 -43.5 51.5t-70.5 18.5q-44 0 -80.5 -21.5t-57 -59.5t-20.5 -85q0 -59 35 -96t87 -37q46 0 79 19.5z" />
    <glyph glyph-name="egrave" unicode="&#xe8;" horiz-adv-x="588" 
d="M126 16.5q-54 32.5 -83.5 88t-29.5 121.5q0 80 38 148.5t106.5 110t154.5 41.5q69 0 120 -30t78 -79t27 -106q0 -45 -13 -87h-383l-1 -11q1 -53 36.5 -83t85.5 -30q55 0 89 18.5t57 57.5l99 -52q-44 -70 -104 -105t-152 -35q-71 0 -125 32.5zM416 317v4q0 40 -32 69
t-84 29q-51 0 -89.5 -30t-53.5 -72h259zM212 744h148l18 -136h-102z" />
    <glyph glyph-name="eacute" unicode="&#xe9;" horiz-adv-x="588" 
d="M126 16.5q-54 32.5 -83.5 88t-29.5 121.5q0 80 38 148.5t106.5 110t154.5 41.5q69 0 120 -30t78 -79t27 -106q0 -45 -13 -87h-383l-1 -11q1 -53 36.5 -83t85.5 -30q55 0 89 18.5t57 57.5l99 -52q-44 -70 -104 -105t-152 -35q-71 0 -125 32.5zM416 317v4q0 40 -32 69
t-84 29q-51 0 -89.5 -30t-53.5 -72h259zM339 744h153l-113 -136h-106z" />
    <glyph glyph-name="ecircumflex" unicode="&#xea;" horiz-adv-x="588" 
d="M126 16.5q-54 32.5 -83.5 88t-29.5 121.5q0 80 38 148.5t106.5 110t154.5 41.5q69 0 120 -30t78 -79t27 -106q0 -45 -13 -87h-383l-1 -11q1 -53 36.5 -83t85.5 -30q55 0 89 18.5t57 57.5l99 -52q-44 -70 -104 -105t-152 -35q-71 0 -125 32.5zM416 317v4q0 40 -32 69
t-84 29q-51 0 -89.5 -30t-53.5 -72h259zM154 610l132 126h119l91 -126l-2 -8h-120l-32 58h-12l-48 -58h-130z" />
    <glyph glyph-name="edieresis" unicode="&#xeb;" horiz-adv-x="588" 
d="M126 16.5q-54 32.5 -83.5 88t-29.5 121.5q0 80 38 148.5t106.5 110t154.5 41.5q69 0 120 -30t78 -79t27 -106q0 -45 -13 -87h-383l-1 -11q1 -53 36.5 -83t85.5 -30q55 0 89 18.5t57 57.5l99 -52q-44 -70 -104 -105t-152 -35q-71 0 -125 32.5zM416 317v4q0 40 -32 69
t-84 29q-51 0 -89.5 -30t-53.5 -72h259zM193 628q-21 21 -21 51t21 50.5t50 20.5q31 0 51.5 -20.5t20.5 -50.5t-20.5 -51t-51.5 -21q-29 0 -50 21zM383.5 628q-21.5 21 -21.5 51t21 50.5t51 20.5t51 -20.5t21 -50.5t-21 -51t-51 -21q-29 0 -50.5 21z" />
    <glyph glyph-name="igrave" unicode="&#xec;" horiz-adv-x="276" 
d="M96 510h131l-89 -510h-131zM64 744h148l18 -136h-102z" />
    <glyph glyph-name="iacute" unicode="&#xed;" horiz-adv-x="276" 
d="M96 510h131l-89 -510h-131zM191 744h153l-113 -136h-106z" />
    <glyph glyph-name="icircumflex" unicode="&#xee;" horiz-adv-x="276" 
d="M96 510h131l-89 -510h-131zM6 610l132 126h119l91 -126l-2 -8h-120l-32 58h-12l-48 -58h-130z" />
    <glyph glyph-name="idieresis" unicode="&#xef;" horiz-adv-x="276" 
d="M59.5 630.5q-20.5 20.5 -20.5 48.5t20.5 48.5t48.5 20.5q29 0 49 -20t20 -49t-20 -49t-49 -20q-28 0 -48.5 20.5zM227.5 630.5q-20.5 20.5 -20.5 48.5t20.5 48.5t48.5 20.5q29 0 49 -20t20 -49t-20 -49t-49 -20q-28 0 -48.5 20.5zM96 510h131l-89 -510h-131z" />
    <glyph glyph-name="eth" unicode="&#xf0;" horiz-adv-x="588" 
d="M123 14q-51 30 -80 81t-29 112q0 81 34 145.5t96 101.5t145 37q35 0 65 -10.5t48 -27.5l7 6q-9 26 -24.5 44.5t-47.5 48.5l-123 -51l-31 75l71 29q-40 18 -84 26l36 99q99 -21 172 -74l116 48l30 -74l-80 -34q44 -53 69 -125.5t25 -155.5q0 -90 -33.5 -165.5
t-101.5 -120.5t-166 -45q-63 0 -114 30zM329 122.5q32 21.5 50 57t18 76.5q0 51 -30 84.5t-78 33.5q-43 0 -76.5 -22t-52 -57.5t-18.5 -75.5q0 -51 32.5 -84.5t81.5 -33.5q41 0 73 21.5z" />
    <glyph glyph-name="ntilde" unicode="&#xf1;" horiz-adv-x="600" 
d="M209 446q26 38 67.5 59t95.5 21q78 0 120 -44t42 -112q0 -25 -5 -62l-55 -308h-131l52 293q4 15 4 38q0 31 -22 52t-58 21q-58 0 -94 -38.5t-48 -105.5l-46 -260h-131l90 510h122l-11 -64h8zM391 613.5q-17 6.5 -38 18.5q-31 18 -47 18q-25 0 -32 -29h-92q8 62 41.5 94.5
t85.5 32.5q21 0 38 -7t39 -19q12 -7 24.5 -12t21.5 -5q26 0 32 29h92q-8 -62 -41.5 -94.5t-85.5 -32.5q-21 0 -38 6.5z" />
    <glyph glyph-name="ograve" unicode="&#xf2;" horiz-adv-x="608" 
d="M129 15.5q-55 31.5 -85 85.5t-30 121q0 85 38 154.5t107.5 109.5t159.5 40q71 0 126 -31.5t85 -85.5t30 -121q0 -85 -38 -154.5t-107.5 -109.5t-159.5 -40q-71 0 -126 31.5zM349.5 127q36.5 22 58 61t21.5 86q0 57 -34 93.5t-91 36.5q-43 0 -79 -22t-57.5 -60.5
t-21.5 -85.5q0 -57 33.5 -94t90.5 -37q43 0 79.5 22zM224 744h148l18 -136h-102z" />
    <glyph glyph-name="oacute" unicode="&#xf3;" horiz-adv-x="608" 
d="M129 15.5q-55 31.5 -85 85.5t-30 121q0 85 38 154.5t107.5 109.5t159.5 40q71 0 126 -31.5t85 -85.5t30 -121q0 -85 -38 -154.5t-107.5 -109.5t-159.5 -40q-71 0 -126 31.5zM349.5 127q36.5 22 58 61t21.5 86q0 57 -34 93.5t-91 36.5q-43 0 -79 -22t-57.5 -60.5
t-21.5 -85.5q0 -57 33.5 -94t90.5 -37q43 0 79.5 22zM351 744h153l-113 -136h-106z" />
    <glyph glyph-name="ocircumflex" unicode="&#xf4;" horiz-adv-x="608" 
d="M129 15.5q-55 31.5 -85 85.5t-30 121q0 85 38 154.5t107.5 109.5t159.5 40q71 0 126 -31.5t85 -85.5t30 -121q0 -85 -38 -154.5t-107.5 -109.5t-159.5 -40q-71 0 -126 31.5zM349.5 127q36.5 22 58 61t21.5 86q0 57 -34 93.5t-91 36.5q-43 0 -79 -22t-57.5 -60.5
t-21.5 -85.5q0 -57 33.5 -94t90.5 -37q43 0 79.5 22zM166 610l132 126h119l91 -126l-2 -8h-120l-32 58h-12l-48 -58h-130z" />
    <glyph glyph-name="otilde" unicode="&#xf5;" horiz-adv-x="608" 
d="M129 15.5q-55 31.5 -85 85.5t-30 121q0 85 38 154.5t107.5 109.5t159.5 40q71 0 126 -31.5t85 -85.5t30 -121q0 -85 -38 -154.5t-107.5 -109.5t-159.5 -40q-71 0 -126 31.5zM349.5 127q36.5 22 58 61t21.5 86q0 57 -34 93.5t-91 36.5q-43 0 -79 -22t-57.5 -60.5
t-21.5 -85.5q0 -57 33.5 -94t90.5 -37q43 0 79.5 22zM373 613.5q-17 6.5 -38 18.5q-31 18 -47 18q-25 0 -32 -29h-92q8 62 41.5 94.5t85.5 32.5q21 0 38 -7t39 -19q12 -7 24.5 -12t21.5 -5q26 0 32 29h92q-8 -62 -41.5 -94.5t-85.5 -32.5q-21 0 -38 6.5z" />
    <glyph glyph-name="odieresis" unicode="&#xf6;" horiz-adv-x="608" 
d="M129 15.5q-55 31.5 -85 85.5t-30 121q0 85 38 154.5t107.5 109.5t159.5 40q71 0 126 -31.5t85 -85.5t30 -121q0 -85 -38 -154.5t-107.5 -109.5t-159.5 -40q-71 0 -126 31.5zM349.5 127q36.5 22 58 61t21.5 86q0 57 -34 93.5t-91 36.5q-43 0 -79 -22t-57.5 -60.5
t-21.5 -85.5q0 -57 33.5 -94t90.5 -37q43 0 79.5 22zM205 628q-21 21 -21 51t21 50.5t50 20.5q31 0 51.5 -20.5t20.5 -50.5t-20.5 -51t-51.5 -21q-29 0 -50 21zM395.5 628q-21.5 21 -21.5 51t21 50.5t51 20.5t51 -20.5t21 -50.5t-21 -51t-51 -21q-29 0 -50.5 21z" />
    <glyph glyph-name="divide" unicode="&#xf7;" horiz-adv-x="569" 
d="M246 410q-24 24 -24 58t24 58t58 24t58 -24t24 -58t-24 -58t-58 -24t-58 24zM51 325h457l-20 -108h-456zM177 16q-24 24 -24 58t24 58t58 24t58 -24t24 -58t-24 -58t-58 -24t-58 24z" />
    <glyph glyph-name="oslash" unicode="&#xf8;" horiz-adv-x="608" 
d="M42 13l34 43q-30 32 -46 74.5t-16 91.5q0 85 38 154.5t107.5 109.5t159.5 40q59 0 108 -23l40 52l74 -62l-38 -46q27 -32 42 -72.5t15 -86.5q0 -85 -38 -154.5t-107.5 -109.5t-159.5 -40q-51 0 -99 19l-36 -48zM348 404q-16 8 -44 8q-42 0 -79.5 -24t-60 -64.5
t-22.5 -87.5q0 -43 18 -73zM350.5 119.5q37.5 23.5 60 64.5t22.5 90q0 34 -14 64l-185 -236q17 -6 36 -6q43 0 80.5 23.5z" />
    <glyph glyph-name="ugrave" unicode="&#xf9;" horiz-adv-x="600" 
d="M352 64q-26 -39 -67.5 -59.5t-95.5 -20.5q-78 0 -120 44t-42 112q0 32 5 61l55 309h131l-52 -293q-4 -16 -4 -38q0 -32 22 -53t58 -21q58 0 94 38.5t48 106.5l46 260h131l-90 -510h-122l11 64h-8zM227 744h148l18 -136h-102z" />
    <glyph glyph-name="uacute" unicode="&#xfa;" horiz-adv-x="600" 
d="M352 64q-26 -39 -67.5 -59.5t-95.5 -20.5q-78 0 -120 44t-42 112q0 32 5 61l55 309h131l-52 -293q-4 -16 -4 -38q0 -32 22 -53t58 -21q58 0 94 38.5t48 106.5l46 260h131l-90 -510h-122l11 64h-8zM354 744h153l-113 -136h-106z" />
    <glyph glyph-name="ucircumflex" unicode="&#xfb;" horiz-adv-x="600" 
d="M352 64q-26 -39 -67.5 -59.5t-95.5 -20.5q-78 0 -120 44t-42 112q0 32 5 61l55 309h131l-52 -293q-4 -16 -4 -38q0 -32 22 -53t58 -21q58 0 94 38.5t48 106.5l46 260h131l-90 -510h-122l11 64h-8zM169 610l132 126h119l91 -126l-2 -8h-120l-32 58h-12l-48 -58h-130z" />
    <glyph glyph-name="udieresis" unicode="&#xfc;" horiz-adv-x="600" 
d="M352 64q-26 -39 -67.5 -59.5t-95.5 -20.5q-78 0 -120 44t-42 112q0 32 5 61l55 309h131l-52 -293q-4 -16 -4 -38q0 -32 22 -53t58 -21q58 0 94 38.5t48 106.5l46 260h131l-90 -510h-122l11 64h-8zM208 628q-21 21 -21 51t21 50.5t50 20.5q31 0 51.5 -20.5t20.5 -50.5
t-20.5 -51t-51.5 -21q-29 0 -50 21zM398.5 628q-21.5 21 -21.5 51t21 50.5t51 20.5t51 -20.5t21 -50.5t-21 -51t-51 -21q-29 0 -50.5 21z" />
    <glyph glyph-name="yacute" unicode="&#xfd;" horiz-adv-x="579" 
d="M170 29l-127 481h146l77 -317h7l185 317h148l-444 -726h-143zM346 744h153l-113 -136h-106z" />
    <glyph glyph-name="thorn" unicode="&#xfe;" horiz-adv-x="615" 
d="M134 716h131l-35 -196l-20 -72h8q24 36 64.5 57t99.5 21t106 -30.5t74 -84.5t27 -120q0 -86 -36.5 -156t-102 -110.5t-149.5 -40.5q-53 0 -95.5 23t-57.5 54h-8l-3 -72l-36 -205h-131zM380.5 127.5q36.5 22.5 56.5 62.5t20 89q0 56 -35.5 90.5t-88.5 34.5q-42 0 -79 -21
t-59 -60.5t-22 -93.5t35.5 -89t88.5 -35q47 0 83.5 22.5z" />
    <glyph glyph-name="ydieresis" unicode="&#xff;" horiz-adv-x="579" 
d="M170 29l-127 481h146l77 -317h7l185 317h148l-444 -726h-143zM200 628q-21 21 -21 51t21 50.5t50 20.5q31 0 51.5 -20.5t20.5 -50.5t-20.5 -51t-51.5 -21q-29 0 -50 21zM390.5 628q-21.5 21 -21.5 51t21 50.5t51 20.5t51 -20.5t21 -50.5t-21 -51t-51 -21q-29 0 -50.5 21z
" />
    <glyph glyph-name="Amacron" unicode="&#x100;" horiz-adv-x="722" 
d="M340 716h158l143 -716h-144l-31 171h-273l-90 -171h-153zM443 295l-33 180l-11 86h-8l-40 -86l-94 -180h186zM296 893h296l-18 -100h-296z" />
    <glyph glyph-name="amacron" unicode="&#x101;" horiz-adv-x="557" 
d="M96.5 5.5q-37.5 21.5 -59.5 58t-22 79.5q0 86 58.5 135t168.5 49q73 0 135 -25l5 22l2 22q0 32 -29.5 53t-72.5 21q-38 0 -69.5 -14.5t-53.5 -41.5l-87 64q39 48 97.5 73t127.5 25q100 0 157.5 -48t57.5 -126q0 -20 -5 -52l-54 -300h-129l9 52h-8q-25 -33 -60 -50.5
t-85 -17.5q-46 0 -83.5 21.5zM316 120.5q37 34.5 45 87.5q-28 12 -53 18t-60 6q-49 0 -75 -20.5t-26 -58.5q0 -31 22 -49t56 -18q54 0 91 34.5zM189 729h296l-17 -100h-297z" />
    <glyph glyph-name="Abreve" unicode="&#x102;" horiz-adv-x="722" 
d="M340 716h158l143 -716h-144l-31 171h-273l-90 -171h-153zM443 295l-33 180l-11 86h-8l-40 -86l-94 -180h186zM340.5 795q-34.5 32 -34.5 81q0 13 2 23h92q-1 -4 -1 -9q0 -16 10 -26.5t28 -10.5q19 0 33 13t18 33h92q-10 -66 -51 -101t-104 -35q-50 0 -84.5 32z" />
    <glyph glyph-name="abreve" unicode="&#x103;" horiz-adv-x="557" 
d="M96.5 5.5q-37.5 21.5 -59.5 58t-22 79.5q0 86 58.5 135t168.5 49q73 0 135 -25l5 22l2 22q0 32 -29.5 53t-72.5 21q-38 0 -69.5 -14.5t-53.5 -41.5l-87 64q39 48 97.5 73t127.5 25q100 0 157.5 -48t57.5 -126q0 -20 -5 -52l-54 -300h-129l9 52h-8q-25 -33 -60 -50.5
t-85 -17.5q-46 0 -83.5 21.5zM316 120.5q37 34.5 45 87.5q-28 12 -53 18t-60 6q-49 0 -75 -20.5t-26 -58.5q0 -31 22 -49t56 -18q54 0 91 34.5zM232.5 630.5q-34.5 31.5 -34.5 80.5q0 5 2 23h93q-1 -4 -1 -9q0 -15 9.5 -25.5t27.5 -10.5q20 0 34 12.5t17 32.5h92
q-10 -66 -51 -100.5t-104 -34.5q-50 0 -84.5 31.5z" />
    <glyph glyph-name="Aogonek" unicode="&#x104;" horiz-adv-x="722" 
d="M470 -197q-30 27 -30 70q0 37 20 68.5t54 53.5l-1 5h-16l-31 171h-273l-90 -171h-153l390 716h158l143 -716q-34 -19 -60 -45t-26 -52q0 -15 9 -23.5t24 -8.5q19 0 43 11l-17 -96q-30 -10 -60 -10q-54 0 -84 27zM443 295l-33 180l-11 86h-8l-40 -86l-94 -180h186z" />
    <glyph glyph-name="aogonek" unicode="&#x105;" horiz-adv-x="557" 
d="M282.5 -197q-30.5 27 -30.5 70q0 37 21 68t56 53l-5 6l9 52h-8q-25 -33 -60 -50.5t-85 -17.5q-46 0 -83.5 21.5t-59.5 58t-22 79.5q0 86 58.5 135t168.5 49q73 0 135 -25l5 22l2 22q0 32 -29.5 53t-72.5 21q-38 0 -69.5 -14.5t-53.5 -41.5l-87 64q39 48 97.5 73t127.5 25
q100 0 157.5 -48t57.5 -126q0 -20 -5 -52l-54 -300q-34 -19 -59.5 -45t-25.5 -52q0 -15 9 -23.5t24 -8.5q18 0 42 11l-17 -96q-29 -10 -59 -10q-54 0 -84.5 27zM316 120.5q37 34.5 45 87.5q-28 12 -53 18t-60 6q-49 0 -75 -20.5t-26 -58.5q0 -31 22 -49t56 -18q54 0 91 34.5
z" />
    <glyph glyph-name="Cacute" unicode="&#x106;" horiz-adv-x="750" 
d="M196 24.5q-74 40.5 -116.5 115.5t-42.5 176q0 112 55 207.5t153.5 152t221.5 56.5q88 0 154 -32.5t106 -90.5l-107 -88q-31 41 -71.5 62t-99.5 21q-75 0 -138.5 -37.5t-101 -102t-37.5 -141.5q0 -63 26 -111t72.5 -74t105.5 -26q61 0 110.5 25t98.5 74l86 -97
q-68 -69 -139.5 -99.5t-168.5 -30.5q-93 0 -167 40.5zM479 908h154l-114 -136h-106z" />
    <glyph glyph-name="cacute" unicode="&#x107;" horiz-adv-x="571" 
d="M130.5 15.5q-55.5 31.5 -86.5 86.5t-31 122q0 79 37.5 148.5t107.5 111.5t163 42q82 0 139.5 -39.5t78.5 -104.5l-122 -48q-13 33 -43.5 51.5t-70.5 18.5q-44 0 -80.5 -21.5t-57 -59.5t-20.5 -85q0 -59 35 -96t87 -37q46 0 79 19.5t51 54.5l111 -54q-38 -69 -104 -105
t-148 -36q-70 0 -125.5 31.5zM338 744h153l-113 -136h-106z" />
    <glyph glyph-name="Ccircumflex" unicode="&#x108;" horiz-adv-x="750" 
d="M196 24.5q-74 40.5 -116.5 115.5t-42.5 176q0 112 55 207.5t153.5 152t221.5 56.5q88 0 154 -32.5t106 -90.5l-107 -88q-31 41 -71.5 62t-99.5 21q-75 0 -138.5 -37.5t-101 -102t-37.5 -141.5q0 -63 26 -111t72.5 -74t105.5 -26q61 0 110.5 25t98.5 74l86 -97
q-68 -69 -139.5 -99.5t-168.5 -30.5q-93 0 -167 40.5zM296 786l132 126h119l91 -126l-1 -8h-121l-31 59h-12l-49 -59h-129z" />
    <glyph glyph-name="ccircumflex" unicode="&#x109;" horiz-adv-x="571" 
d="M130.5 15.5q-55.5 31.5 -86.5 86.5t-31 122q0 79 37.5 148.5t107.5 111.5t163 42q82 0 139.5 -39.5t78.5 -104.5l-122 -48q-13 33 -43.5 51.5t-70.5 18.5q-44 0 -80.5 -21.5t-57 -59.5t-20.5 -85q0 -59 35 -96t87 -37q46 0 79 19.5t51 54.5l111 -54q-38 -69 -104 -105
t-148 -36q-70 0 -125.5 31.5zM153 610l132 126h119l91 -126l-2 -8h-120l-32 58h-12l-48 -58h-130z" />
    <glyph glyph-name="Cdotaccent" unicode="&#x10a;" horiz-adv-x="750" 
d="M196 24.5q-74 40.5 -116.5 115.5t-42.5 176q0 112 55 207.5t153.5 152t221.5 56.5q88 0 154 -32.5t106 -90.5l-107 -88q-31 41 -71.5 62t-99.5 21q-75 0 -138.5 -37.5t-101 -102t-37.5 -141.5q0 -63 26 -111t72.5 -74t105.5 -26q61 0 110.5 25t98.5 74l86 -97
q-68 -69 -139.5 -99.5t-168.5 -30.5q-93 0 -167 40.5zM432 806q-21 21 -21 50t20.5 50t49.5 21q30 0 50.5 -21t20.5 -50t-20.5 -50t-50.5 -21q-28 0 -49 21z" />
    <glyph glyph-name="cdotaccent" unicode="&#x10b;" horiz-adv-x="571" 
d="M130.5 15.5q-55.5 31.5 -86.5 86.5t-31 122q0 79 37.5 148.5t107.5 111.5t163 42q82 0 139.5 -39.5t78.5 -104.5l-122 -48q-13 33 -43.5 51.5t-70.5 18.5q-44 0 -80.5 -21.5t-57 -59.5t-20.5 -85q0 -59 35 -96t87 -37q46 0 79 19.5t51 54.5l111 -54q-38 -69 -104 -105
t-148 -36q-70 0 -125.5 31.5zM283 617.5q-22 22.5 -22 53.5t22 53t54 22q31 0 53 -21.5t22 -53.5t-22 -54t-53 -22q-32 0 -54 22.5z" />
    <glyph glyph-name="Ccaron" unicode="&#x10c;" horiz-adv-x="750" 
d="M196 24.5q-74 40.5 -116.5 115.5t-42.5 176q0 112 55 207.5t153.5 152t221.5 56.5q88 0 154 -32.5t106 -90.5l-107 -88q-31 41 -71.5 62t-99.5 21q-75 0 -138.5 -37.5t-101 -102t-37.5 -141.5q0 -63 26 -111t72.5 -74t105.5 -26q61 0 110.5 25t98.5 74l86 -97
q-68 -69 -139.5 -99.5t-168.5 -30.5q-93 0 -167 40.5zM321 904l1 8h121l31 -59h12l49 59h129l-1 -8l-132 -126h-119z" />
    <glyph glyph-name="ccaron" unicode="&#x10d;" horiz-adv-x="571" 
d="M130.5 15.5q-55.5 31.5 -86.5 86.5t-31 122q0 79 37.5 148.5t107.5 111.5t163 42q82 0 139.5 -39.5t78.5 -104.5l-122 -48q-13 33 -43.5 51.5t-70.5 18.5q-44 0 -80.5 -21.5t-57 -59.5t-20.5 -85q0 -59 35 -96t87 -37q46 0 79 19.5t51 54.5l111 -54q-38 -69 -104 -105
t-148 -36q-70 0 -125.5 31.5zM178 727l2 9h120l32 -59h12l48 59h130l-2 -9l-132 -125h-118z" />
    <glyph glyph-name="Dcaron" unicode="&#x10e;" horiz-adv-x="738" 
d="M143 716h227q104 0 177.5 -40t111 -110.5t37.5 -163.5q0 -109 -52 -201t-149.5 -146.5t-225.5 -54.5h-253zM275 128q84 0 149 33.5t100.5 92.5t35.5 133q0 98 -51 149.5t-153 51.5h-101l-82 -460h102zM233 892l1 8h121l31 -59h12l49 59h129l-1 -8l-132 -126h-119z" />
    <glyph glyph-name="dcaron" unicode="&#x10f;" horiz-adv-x="746" 
d="M113.5 14.5q-47.5 30.5 -74 84.5t-26.5 120q0 86 36 156t101.5 110.5t150.5 40.5q53 0 95 -23.5t57 -54.5h8l4 72l34 196h131l-127 -716h-122l10 61h-8q-24 -35 -64.5 -56t-98.5 -21q-59 0 -106.5 30.5zM347.5 126q36.5 21 58.5 61t22 94t-35 88.5t-88 34.5
q-47 0 -83.5 -22.5t-57 -62t-20.5 -88.5q0 -56 36 -91t89 -35q42 0 78.5 21zM685 716h138l-77 -201h-97z" />
    <glyph glyph-name="Dcroat" unicode="&#x110;" horiz-adv-x="730" 
d="M-8 317l18 110h73l52 289h227q104 0 177.5 -40t111 -110.5t37.5 -163.5q0 -109 -52 -201t-149.5 -146.5t-225.5 -54.5h-253l55 317h-71zM416 161.5q65 33.5 100.5 92.5t35.5 133q0 98 -51 149.5t-153 51.5h-101l-29 -161h184l-19 -110h-185l-33 -189h102q84 0 149 33.5z
" />
    <glyph glyph-name="dcroat" unicode="&#x111;" horiz-adv-x="628" 
d="M113.5 14.5q-47.5 30.5 -74 84.5t-26.5 120q0 86 36 156t101.5 110.5t150.5 40.5q53 0 95 -23.5t57 -54.5h8l4 72l9 51h-139l17 91h137l10 54h131l-10 -54h61l-17 -91h-60l-101 -571h-122l10 61h-8q-24 -35 -64.5 -56t-98.5 -21q-59 0 -106.5 30.5zM347.5 126
q36.5 21 58.5 61t22 94t-35 88.5t-88 34.5q-47 0 -83.5 -22.5t-57 -62t-20.5 -88.5q0 -56 36 -91t89 -35q42 0 78.5 21z" />
    <glyph glyph-name="Emacron" unicode="&#x112;" horiz-adv-x="593" 
d="M143 716h454l-23 -128h-319l-30 -166h288l-23 -128h-288l-29 -166h319l-22 -128h-454zM250 893h296l-18 -100h-296z" />
    <glyph glyph-name="emacron" unicode="&#x113;" horiz-adv-x="588" 
d="M126 16.5q-54 32.5 -83.5 88t-29.5 121.5q0 80 38 148.5t106.5 110t154.5 41.5q69 0 120 -30t78 -79t27 -106q0 -45 -13 -87h-383l-1 -11q1 -53 36.5 -83t85.5 -30q55 0 89 18.5t57 57.5l99 -52q-44 -70 -104 -105t-152 -35q-71 0 -125 32.5zM416 317v4q0 40 -32 69
t-84 29q-51 0 -89.5 -30t-53.5 -72h259zM199 729h296l-17 -100h-297z" />
    <glyph glyph-name="Ebreve" unicode="&#x114;" horiz-adv-x="593" 
d="M143 716h454l-23 -128h-319l-30 -166h288l-23 -128h-288l-29 -166h319l-22 -128h-454zM294.5 795q-34.5 32 -34.5 81q0 13 2 23h92q-1 -4 -1 -9q0 -16 10 -26.5t28 -10.5q19 0 33 13t18 33h92q-10 -66 -51 -101t-104 -35q-50 0 -84.5 32z" />
    <glyph glyph-name="ebreve" unicode="&#x115;" horiz-adv-x="588" 
d="M126 16.5q-54 32.5 -83.5 88t-29.5 121.5q0 80 38 148.5t106.5 110t154.5 41.5q69 0 120 -30t78 -79t27 -106q0 -45 -13 -87h-383l-1 -11q1 -53 36.5 -83t85.5 -30q55 0 89 18.5t57 57.5l99 -52q-44 -70 -104 -105t-152 -35q-71 0 -125 32.5zM416 317v4q0 40 -32 69
t-84 29q-51 0 -89.5 -30t-53.5 -72h259zM242.5 630.5q-34.5 31.5 -34.5 80.5q0 5 2 23h93q-1 -4 -1 -9q0 -15 9.5 -25.5t27.5 -10.5q20 0 34 12.5t17 32.5h92q-10 -66 -51 -100.5t-104 -34.5q-50 0 -84.5 31.5z" />
    <glyph glyph-name="Edotaccent" unicode="&#x116;" horiz-adv-x="593" 
d="M143 716h454l-23 -128h-319l-30 -166h288l-23 -128h-288l-29 -166h319l-22 -128h-454zM342 806q-21 21 -21 50t20.5 50t49.5 21q30 0 50.5 -21t20.5 -50t-20.5 -50t-50.5 -21q-28 0 -49 21z" />
    <glyph glyph-name="edotaccent" unicode="&#x117;" horiz-adv-x="588" 
d="M126 16.5q-54 32.5 -83.5 88t-29.5 121.5q0 80 38 148.5t106.5 110t154.5 41.5q69 0 120 -30t78 -79t27 -106q0 -45 -13 -87h-383l-1 -11q1 -53 36.5 -83t85.5 -30q55 0 89 18.5t57 57.5l99 -52q-44 -70 -104 -105t-152 -35q-71 0 -125 32.5zM416 317v4q0 40 -32 69
t-84 29q-51 0 -89.5 -30t-53.5 -72h259zM284 617.5q-22 22.5 -22 53.5t22 53t54 22q31 0 53 -21.5t22 -53.5t-22 -54t-53 -22q-32 0 -54 22.5z" />
    <glyph glyph-name="Eogonek" unicode="&#x118;" horiz-adv-x="593" 
d="M143 716h454l-23 -128h-319l-30 -166h288l-23 -128h-288l-29 -166h319l-22 -128h-454zM299.5 -197q-30.5 27 -30.5 70q0 40 22.5 72.5t61.5 54.5h117q-34 -19 -59.5 -45t-25.5 -52q0 -15 9 -23.5t24 -8.5q18 0 42 11l-17 -96q-30 -10 -60 -10q-53 0 -83.5 27z" />
    <glyph glyph-name="eogonek" unicode="&#x119;" horiz-adv-x="588" 
d="M197.5 -196.5q-31.5 27.5 -31.5 69.5q0 34 16 62.5t45 49.5q-64 5 -113 39t-75 87t-26 115q0 80 38 148.5t106.5 110t154.5 41.5q69 0 120 -30t78 -79t27 -106q0 -45 -13 -87h-383l-1 -11q1 -53 36.5 -83t85.5 -30q55 0 89 18.5t57 57.5l99 -52q-26 -42 -58 -71.5
t-74 -48.5q-40 -17 -67 -45t-27 -56q0 -15 9 -23.5t24 -8.5t30 7l11 -88q-31 -14 -72 -14q-54 0 -85.5 27.5zM416 317v4q0 40 -32 69t-84 29q-51 0 -89.5 -30t-53.5 -72h259z" />
    <glyph glyph-name="Ecaron" unicode="&#x11a;" horiz-adv-x="593" 
d="M143 716h454l-23 -128h-319l-30 -166h288l-23 -128h-288l-29 -166h319l-22 -128h-454zM231 904l1 8h121l31 -59h12l49 59h129l-1 -8l-132 -126h-119z" />
    <glyph glyph-name="ecaron" unicode="&#x11b;" horiz-adv-x="588" 
d="M126 16.5q-54 32.5 -83.5 88t-29.5 121.5q0 80 38 148.5t106.5 110t154.5 41.5q69 0 120 -30t78 -79t27 -106q0 -45 -13 -87h-383l-1 -11q1 -53 36.5 -83t85.5 -30q55 0 89 18.5t57 57.5l99 -52q-44 -70 -104 -105t-152 -35q-71 0 -125 32.5zM416 317v4q0 40 -32 69
t-84 29q-51 0 -89.5 -30t-53.5 -72h259zM179 727l2 9h120l32 -59h12l48 59h130l-2 -9l-132 -125h-118z" />
    <glyph glyph-name="Gcircumflex" unicode="&#x11c;" horiz-adv-x="826" 
d="M204.5 27q-78.5 43 -122 120.5t-43.5 176.5q0 108 54.5 202t153 150t224.5 56q88 0 157 -31t111 -86l-107 -91q-26 36 -71.5 58t-103.5 22q-78 0 -142.5 -34.5t-102.5 -97t-38 -142.5q0 -66 28.5 -115.5t78 -76t111.5 -26.5q100 0 166 57q46 40 69 109h-221l20 115h350
q1 -7 1 -18q0 -90 -32 -164.5t-90 -126.5q-53 -48 -122 -74t-149 -26q-101 0 -179.5 43zM306 786l132 126h119l91 -126l-1 -8h-121l-31 59h-12l-49 -59h-129z" />
    <glyph glyph-name="gcircumflex" unicode="&#x11d;" horiz-adv-x="624" 
d="M69 -189.5q-59 42.5 -73 105.5l128 48q10 -38 38.5 -59t71.5 -21q133 0 160 139l9 47h-9q-25 -36 -62 -53t-92 -17q-59 0 -106 29t-74 80t-27 115q0 81 34 150t98 110.5t148 41.5q51 0 90.5 -18t58.5 -52h8l10 54h125l-86 -486q-22 -128 -95 -192t-204 -64
q-92 0 -151 42.5zM359.5 140.5q36.5 21.5 58 59.5t21.5 84q0 56 -34 89.5t-83 33.5q-44 0 -80 -21.5t-57 -60.5t-21 -88q0 -56 33 -87t82 -31q44 0 80.5 21.5zM169 610l132 126h119l91 -126l-2 -8h-120l-32 58h-12l-48 -58h-130z" />
    <glyph glyph-name="Gbreve" unicode="&#x11e;" horiz-adv-x="826" 
d="M204.5 27q-78.5 43 -122 120.5t-43.5 176.5q0 108 54.5 202t153 150t224.5 56q88 0 157 -31t111 -86l-107 -91q-26 36 -71.5 58t-103.5 22q-78 0 -142.5 -34.5t-102.5 -97t-38 -142.5q0 -66 28.5 -115.5t78 -76t111.5 -26.5q100 0 166 57q46 40 69 109h-221l20 115h350
q1 -7 1 -18q0 -90 -32 -164.5t-90 -126.5q-53 -48 -122 -74t-149 -26q-101 0 -179.5 43zM394.5 795q-34.5 32 -34.5 81q0 13 2 23h92q-1 -4 -1 -9q0 -16 10 -26.5t28 -10.5q19 0 33 13t18 33h92q-10 -66 -51 -101t-104 -35q-50 0 -84.5 32z" />
    <glyph glyph-name="gbreve" unicode="&#x11f;" horiz-adv-x="624" 
d="M69 -189.5q-59 42.5 -73 105.5l128 48q10 -38 38.5 -59t71.5 -21q133 0 160 139l9 47h-9q-25 -36 -62 -53t-92 -17q-59 0 -106 29t-74 80t-27 115q0 81 34 150t98 110.5t148 41.5q51 0 90.5 -18t58.5 -52h8l10 54h125l-86 -486q-22 -128 -95 -192t-204 -64
q-92 0 -151 42.5zM359.5 140.5q36.5 21.5 58 59.5t21.5 84q0 56 -34 89.5t-83 33.5q-44 0 -80 -21.5t-57 -60.5t-21 -88q0 -56 33 -87t82 -31q44 0 80.5 21.5zM257.5 630.5q-34.5 31.5 -34.5 80.5q0 5 2 23h93q-1 -4 -1 -9q0 -15 9.5 -25.5t27.5 -10.5q20 0 34 12.5t17 32.5
h92q-10 -66 -51 -100.5t-104 -34.5q-50 0 -84.5 31.5z" />
    <glyph glyph-name="Gdotaccent" unicode="&#x120;" horiz-adv-x="826" 
d="M204.5 27q-78.5 43 -122 120.5t-43.5 176.5q0 108 54.5 202t153 150t224.5 56q88 0 157 -31t111 -86l-107 -91q-26 36 -71.5 58t-103.5 22q-78 0 -142.5 -34.5t-102.5 -97t-38 -142.5q0 -66 28.5 -115.5t78 -76t111.5 -26.5q100 0 166 57q46 40 69 109h-221l20 115h350
q1 -7 1 -18q0 -90 -32 -164.5t-90 -126.5q-53 -48 -122 -74t-149 -26q-101 0 -179.5 43zM442 806q-21 21 -21 50t20.5 50t49.5 21q30 0 50.5 -21t20.5 -50t-20.5 -50t-50.5 -21q-28 0 -49 21z" />
    <glyph glyph-name="gdotaccent" unicode="&#x121;" horiz-adv-x="624" 
d="M69 -189.5q-59 42.5 -73 105.5l128 48q10 -38 38.5 -59t71.5 -21q133 0 160 139l9 47h-9q-25 -36 -62 -53t-92 -17q-59 0 -106 29t-74 80t-27 115q0 81 34 150t98 110.5t148 41.5q51 0 90.5 -18t58.5 -52h8l10 54h125l-86 -486q-22 -128 -95 -192t-204 -64
q-92 0 -151 42.5zM359.5 140.5q36.5 21.5 58 59.5t21.5 84q0 56 -34 89.5t-83 33.5q-44 0 -80 -21.5t-57 -60.5t-21 -88q0 -56 33 -87t82 -31q44 0 80.5 21.5zM299 617.5q-22 22.5 -22 53.5t22 53t54 22q31 0 53 -21.5t22 -53.5t-22 -54t-53 -22q-32 0 -54 22.5z" />
    <glyph glyph-name="uni0122" unicode="&#x122;" horiz-adv-x="826" 
d="M204.5 27q-78.5 43 -122 120.5t-43.5 176.5q0 108 54.5 202t153 150t224.5 56q88 0 157 -31t111 -86l-107 -91q-26 36 -71.5 58t-103.5 22q-78 0 -142.5 -34.5t-102.5 -97t-38 -142.5q0 -66 28.5 -115.5t78 -76t111.5 -26.5q100 0 166 57q46 40 69 109h-221l20 115h350
q1 -7 1 -18q0 -90 -32 -164.5t-90 -126.5q-53 -48 -122 -74t-149 -26q-101 0 -179.5 43zM331 -183q-20 8 -31.5 25t-11.5 39q0 29 20.5 50t50.5 21t50.5 -21t20.5 -51q0 -29 -19 -52l-94 -114l-44 37z" />
    <glyph glyph-name="uni0123" unicode="&#x123;" horiz-adv-x="624" 
d="M69 -189.5q-59 42.5 -73 105.5l128 48q10 -38 38.5 -59t71.5 -21q133 0 160 139l9 47h-9q-25 -36 -62 -53t-92 -17q-59 0 -106 29t-74 80t-27 115q0 81 34 150t98 110.5t148 41.5q51 0 90.5 -18t58.5 -52h8l10 54h125l-86 -486q-22 -128 -95 -192t-204 -64
q-92 0 -151 42.5zM359.5 140.5q36.5 21.5 58 59.5t21.5 84q0 56 -34 89.5t-83 33.5q-44 0 -80 -21.5t-57 -60.5t-21 -88q0 -56 33 -87t82 -31q44 0 80.5 21.5zM380 727q20 -8 31.5 -25t11.5 -39q0 -29 -20.5 -50t-50.5 -21t-50.5 21t-20.5 51q0 29 19 52l94 114l44 -37z" />
    <glyph glyph-name="Hcircumflex" unicode="&#x124;" horiz-adv-x="734" 
d="M143 716h134l-51 -286h302l51 286h135l-127 -716h-135l54 302h-302l-54 -302h-134zM267 786l132 126h119l91 -126l-1 -8h-121l-31 59h-12l-49 -59h-129z" />
    <glyph glyph-name="hcircumflex" unicode="&#x125;" horiz-adv-x="600" 
d="M126 716h131l-33 -181l-23 -89h8q25 38 66 59t95 21q76 0 120 -44.5t44 -113.5q0 -33 -6 -65l-54 -303h-131l53 293q4 24 4 39q0 30 -22.5 51t-59.5 21q-57 0 -92.5 -38.5t-48.5 -111.5l-46 -254h-131zM201 774l132 126h119l91 -126l-2 -8h-120l-32 58h-12l-48 -58h-130z
" />
    <glyph glyph-name="Hbar" unicode="&#x126;" horiz-adv-x="734" 
d="M40 493l18 98h62l23 125h134l-22 -125h302l22 125h135l-22 -125h62l-17 -98h-63l-87 -493h-135l54 302h-302l-54 -302h-134l87 493h-63zM539 493h-302l-11 -63h302z" />
    <glyph glyph-name="hbar" unicode="&#x127;" horiz-adv-x="599" 
d="M99 571h-58l16 91h57l11 54h130l-10 -54h135l-15 -91h-136l-6 -36l-23 -89h8q25 38 66 59t95 21q75 0 119 -44.5t44 -113.5q0 -40 -6 -65l-53 -303h-131l52 293q4 16 4 39q0 30 -22.5 51t-58.5 21q-58 0 -93.5 -39t-47.5 -111l-46 -254h-131z" />
    <glyph glyph-name="Itilde" unicode="&#x128;" horiz-adv-x="298" 
d="M143 716h134l-127 -716h-134zM256.5 777.5q-16.5 6.5 -40.5 19.5q-30 17 -45 17q-26 0 -33 -29h-92q8 63 42 95.5t86 32.5q20 0 36.5 -6.5t40.5 -19.5q30 -17 45 -17q26 0 33 29h92q-8 -63 -42 -95.5t-86 -32.5q-20 0 -36.5 6.5z" />
    <glyph glyph-name="itilde" unicode="&#x129;" horiz-adv-x="276" 
d="M96 510h131l-89 -510h-131zM213 613.5q-17 6.5 -38 18.5q-31 18 -47 18q-25 0 -32 -29h-92q8 62 41.5 94.5t85.5 32.5q21 0 38 -7t39 -19q12 -7 24.5 -12t21.5 -5q26 0 32 29h92q-8 -62 -41.5 -94.5t-85.5 -32.5q-21 0 -38 6.5z" />
    <glyph glyph-name="Imacron" unicode="&#x12a;" horiz-adv-x="298" 
d="M103 893h275l-18 -100h-275zM143 716h134l-127 -716h-134z" />
    <glyph glyph-name="imacron" unicode="&#x12b;" horiz-adv-x="276" 
d="M96 510h131l-89 -510h-131zM51 729h296l-17 -100h-297z" />
    <glyph glyph-name="Ibreve" unicode="&#x12c;" horiz-adv-x="298" 
d="M143 716h134l-127 -716h-134zM139.5 795q-34.5 32 -34.5 81q0 13 2 23h92q-1 -4 -1 -9q0 -16 10 -26.5t28 -10.5q19 0 33 13t18 33h92q-10 -66 -51 -101t-104 -35q-50 0 -84.5 32z" />
    <glyph glyph-name="ibreve" unicode="&#x12d;" horiz-adv-x="276" 
d="M96 510h131l-89 -510h-131zM94.5 630.5q-34.5 31.5 -34.5 80.5q0 5 2 23h93q-1 -4 -1 -9q0 -15 9.5 -25.5t27.5 -10.5q20 0 34 12.5t17 32.5h92q-10 -66 -51 -100.5t-104 -34.5q-50 0 -84.5 31.5z" />
    <glyph glyph-name="Iogonek" unicode="&#x12e;" horiz-adv-x="298" 
d="M-20.5 -197q-30.5 27 -30.5 70q0 37 21 68.5t56 53.5l-1 5h-9l127 716h134l-127 -716q-34 -19 -59.5 -45t-25.5 -52q0 -15 9 -23.5t24 -8.5q18 0 42 11l-17 -96q-29 -10 -59 -10q-54 0 -84.5 27z" />
    <glyph glyph-name="iogonek" unicode="&#x12f;" horiz-adv-x="276" 
d="M129.5 598.5q-23.5 23.5 -23.5 57.5q0 33 23.5 57t57.5 24t57.5 -24t23.5 -57q0 -34 -23.5 -57.5t-57.5 -23.5t-57.5 23.5zM-33 -197q-30 27 -30 70q0 37 19 67.5t54 52.5l-3 7l89 510h131l-89 -510q-34 -19 -60 -45t-26 -52q0 -15 9 -23.5t24 -8.5q19 0 43 11l-17 -96
q-30 -10 -60 -10q-54 0 -84 27z" />
    <glyph glyph-name="Idotaccent" unicode="&#x130;" horiz-adv-x="298" 
d="M143 716h134l-127 -716h-134zM187 806q-21 21 -21 50t20.5 50t49.5 21q30 0 50.5 -21t20.5 -50t-20.5 -50t-50.5 -21q-28 0 -49 21z" />
    <glyph glyph-name="dotlessi" unicode="&#x131;" horiz-adv-x="276" 
d="M96 510h131l-89 -510h-131z" />
    <glyph glyph-name="Jcircumflex" unicode="&#x134;" horiz-adv-x="569" 
d="M110 6q-47 22 -78 61.5t-37 89.5l129 50q5 -46 33 -70.5t70 -24.5q45 0 75.5 30t40.5 84l86 490h135l-87 -489q-22 -124 -92 -183.5t-173 -59.5q-55 0 -102 22zM336 786l132 126h119l91 -126l-1 -8h-121l-31 59h-12l-49 -59h-129z" />
    <glyph glyph-name="jcircumflex" unicode="&#x135;" horiz-adv-x="277" 
d="M-130 -217l22 122q20 -11 51 -11q25 0 38 14t18 42l99 560h131l-100 -564q-18 -99 -63.5 -135.5t-124.5 -36.5q-40 0 -71 9zM8 610l132 126h119l91 -126l-2 -8h-120l-32 58h-12l-48 -58h-130z" />
    <glyph glyph-name="uni0136" unicode="&#x136;" horiz-adv-x="683" 
d="M143 716h134l-53 -303h8l311 303h168l-2 -8l-312 -298l212 -402l-1 -8h-158l-161 307l-101 -97l-38 -210h-134zM255 -183q-20 8 -31.5 25t-11.5 39q0 29 20.5 50t50.5 21t50.5 -21t20.5 -51q0 -29 -19 -52l-94 -114l-44 37z" />
    <glyph glyph-name="uni0137" unicode="&#x137;" horiz-adv-x="561" 
d="M127 716h131l-67 -385h7l206 179h169l-2 -8l-231 -194l150 -300l-1 -8h-149l-105 222l-75 -63l-28 -159h-131zM194 -183q-20 8 -31.5 25t-11.5 39q0 29 20.5 50t50.5 21t50.5 -21t20.5 -51q0 -29 -19 -52l-94 -114l-44 37z" />
    <glyph glyph-name="kgreenlandic" unicode="&#x138;" horiz-adv-x="541" 
d="M90 510h130l-38 -219h8l203 219h156l-1 -8l-228 -240l149 -254l-2 -8h-147l-138 244h-8l-44 -244h-130z" />
    <glyph glyph-name="Lacute" unicode="&#x139;" horiz-adv-x="550" 
d="M143 716h134l-104 -588h303l-22 -128h-438zM233 908h154l-114 -136h-106z" />
    <glyph glyph-name="lacute" unicode="&#x13a;" horiz-adv-x="260" 
d="M126 716h131l-126 -716h-131zM215 908h153l-113 -136h-106z" />
    <glyph glyph-name="uni013B" unicode="&#x13b;" horiz-adv-x="550" 
d="M143 716h134l-104 -588h303l-22 -128h-438zM209 -183q-20 8 -31.5 25t-11.5 39q0 29 20.5 50t50.5 21t50.5 -21t20.5 -51q0 -29 -19 -52l-94 -114l-44 37z" />
    <glyph glyph-name="uni013C" unicode="&#x13c;" horiz-adv-x="260" 
d="M126 716h131l-126 -716h-131zM19 -183q-20 8 -31.5 25t-11.5 39q0 29 20.5 50t50.5 21t50.5 -21t20.5 -51q0 -29 -19 -52l-94 -114l-44 37z" />
    <glyph glyph-name="Lcaron" unicode="&#x13d;" horiz-adv-x="550" 
d="M143 716h134l-104 -588h303l-22 -128h-438zM413 716h138l-77 -201h-97z" />
    <glyph glyph-name="lcaron" unicode="&#x13e;" horiz-adv-x="402" 
d="M126 716h131l-126 -716h-131zM341 716h138l-77 -201h-97z" />
    <glyph glyph-name="Ldot" unicode="&#x13f;" horiz-adv-x="550" 
d="M143 716h134l-104 -588h303l-22 -128h-438zM333.5 282.5q-25.5 25.5 -25.5 61.5t25.5 61.5t61.5 25.5t61 -25.5t25 -61.5t-25 -61.5t-61 -25.5t-61.5 25.5z" />
    <glyph glyph-name="Lslash" unicode="&#x141;" horiz-adv-x="616" 
d="M73 214l-49 91l132 74l60 337h134l-44 -250l121 68l49 -88l-193 -109l-37 -209h303l-22 -128h-438l43 247z" />
    <glyph glyph-name="lslash" unicode="&#x142;" horiz-adv-x="419" 
d="M124 272l-52 -33l-54 85l130 84l55 308h131l-39 -216l67 44l56 -86l-147 -95l-64 -363h-131z" />
    <glyph glyph-name="Nacute" unicode="&#x143;" horiz-adv-x="742" 
d="M143 716h149l211 -480h8l16 138l61 342h133l-127 -716h-133l-222 507h-8l-16 -138l-66 -369h-133zM443 908h154l-114 -136h-106z" />
    <glyph glyph-name="nacute" unicode="&#x144;" horiz-adv-x="600" 
d="M209 446q26 38 67.5 59t95.5 21q78 0 120 -44t42 -112q0 -25 -5 -62l-55 -308h-131l52 293q4 15 4 38q0 31 -22 52t-58 21q-58 0 -94 -38.5t-48 -105.5l-46 -260h-131l90 510h122l-11 -64h8zM369 744h153l-113 -136h-106z" />
    <glyph glyph-name="uni0145" unicode="&#x145;" horiz-adv-x="742" 
d="M143 716h149l211 -480h8l16 138l61 342h133l-127 -716h-133l-222 507h-8l-16 -138l-66 -369h-133zM271 -183q-20 8 -31.5 25t-11.5 39q0 29 20.5 50t50.5 21t50.5 -21t20.5 -51q0 -29 -19 -52l-94 -114l-44 37z" />
    <glyph glyph-name="uni0146" unicode="&#x146;" horiz-adv-x="600" 
d="M209 446q26 38 67.5 59t95.5 21q78 0 120 -44t42 -112q0 -25 -5 -62l-55 -308h-131l52 293q4 15 4 38q0 31 -22 52t-58 21q-58 0 -94 -38.5t-48 -105.5l-46 -260h-131l90 510h122l-11 -64h8zM192 -183q-20 8 -31.5 25t-11.5 39q0 29 20.5 50t50.5 21t50.5 -21t20.5 -51
q0 -29 -19 -52l-94 -114l-44 37z" />
    <glyph glyph-name="Ncaron" unicode="&#x147;" horiz-adv-x="742" 
d="M143 716h149l211 -480h8l16 138l61 342h133l-127 -716h-133l-222 507h-8l-16 -138l-66 -369h-133zM285 904l1 8h121l31 -59h12l49 59h129l-1 -8l-132 -126h-119z" />
    <glyph glyph-name="ncaron" unicode="&#x148;" horiz-adv-x="600" 
d="M209 446q26 38 67.5 59t95.5 21q78 0 120 -44t42 -112q0 -25 -5 -62l-55 -308h-131l52 293q4 15 4 38q0 31 -22 52t-58 21q-58 0 -94 -38.5t-48 -105.5l-46 -260h-131l90 510h122l-11 -64h8zM209 727l2 9h120l32 -59h12l48 59h130l-2 -9l-132 -125h-118z" />
    <glyph glyph-name="Eng" unicode="&#x14a;" horiz-adv-x="742" 
d="M327 -219l22 126q23 -13 48 -13q24 0 37.5 14.5t18.5 44.5l9 48l-223 506h-8l-16 -138l-66 -369h-133l127 716h151l210 -470h8l17 138l59 332h133l-135 -766q-16 -90 -69.5 -133t-124.5 -43q-37 0 -65 7z" />
    <glyph glyph-name="eng" unicode="&#x14b;" horiz-adv-x="600" 
d="M206 -217l22 122q20 -11 51 -11q25 0 38 14t18 42l60 343q4 15 4 38q0 31 -22 52t-58 21q-57 0 -93.5 -38.5t-48.5 -105.5l-46 -260h-131l90 510h122l-11 -64h8q26 38 67.5 59t95.5 21q78 0 120 -44t42 -112q0 -25 -5 -62l-64 -362q-17 -98 -63.5 -135t-124.5 -37
q-40 0 -71 9z" />
    <glyph glyph-name="Omacron" unicode="&#x14c;" horiz-adv-x="840" 
d="M202.5 25.5q-77.5 41.5 -121.5 117.5t-44 174q0 112 53.5 207t150.5 151.5t220 56.5q98 0 175 -43t120 -119t43 -171q0 -112 -53.5 -207t-150 -151.5t-219.5 -56.5q-96 0 -173.5 41.5zM527 150q63 38 99.5 103.5t36.5 143.5q0 60 -28 107t-77 73.5t-109 26.5
q-77 0 -140 -38t-99.5 -102.5t-36.5 -141.5q0 -61 28 -109t77 -74.5t109 -26.5q77 0 140 38zM350 893h296l-18 -100h-296z" />
    <glyph glyph-name="omacron" unicode="&#x14d;" horiz-adv-x="608" 
d="M129 15.5q-55 31.5 -85 85.5t-30 121q0 85 38 154.5t107.5 109.5t159.5 40q71 0 126 -31.5t85 -85.5t30 -121q0 -85 -38 -154.5t-107.5 -109.5t-159.5 -40q-71 0 -126 31.5zM349.5 127q36.5 22 58 61t21.5 86q0 57 -34 93.5t-91 36.5q-43 0 -79 -22t-57.5 -60.5
t-21.5 -85.5q0 -57 33.5 -94t90.5 -37q43 0 79.5 22zM211 729h296l-17 -100h-297z" />
    <glyph glyph-name="Obreve" unicode="&#x14e;" horiz-adv-x="840" 
d="M202.5 25.5q-77.5 41.5 -121.5 117.5t-44 174q0 112 53.5 207t150.5 151.5t220 56.5q98 0 175 -43t120 -119t43 -171q0 -112 -53.5 -207t-150 -151.5t-219.5 -56.5q-96 0 -173.5 41.5zM527 150q63 38 99.5 103.5t36.5 143.5q0 60 -28 107t-77 73.5t-109 26.5
q-77 0 -140 -38t-99.5 -102.5t-36.5 -141.5q0 -61 28 -109t77 -74.5t109 -26.5q77 0 140 38zM394.5 795q-34.5 32 -34.5 81q0 13 2 23h92q-1 -4 -1 -9q0 -16 10 -26.5t28 -10.5q19 0 33 13t18 33h92q-10 -66 -51 -101t-104 -35q-50 0 -84.5 32z" />
    <glyph glyph-name="obreve" unicode="&#x14f;" horiz-adv-x="608" 
d="M129 15.5q-55 31.5 -85 85.5t-30 121q0 85 38 154.5t107.5 109.5t159.5 40q71 0 126 -31.5t85 -85.5t30 -121q0 -85 -38 -154.5t-107.5 -109.5t-159.5 -40q-71 0 -126 31.5zM349.5 127q36.5 22 58 61t21.5 86q0 57 -34 93.5t-91 36.5q-43 0 -79 -22t-57.5 -60.5
t-21.5 -85.5q0 -57 33.5 -94t90.5 -37q43 0 79.5 22zM254.5 630.5q-34.5 31.5 -34.5 80.5q0 5 2 23h93q-1 -4 -1 -9q0 -15 9.5 -25.5t27.5 -10.5q20 0 34 12.5t17 32.5h92q-10 -66 -51 -100.5t-104 -34.5q-50 0 -84.5 31.5z" />
    <glyph glyph-name="Ohungarumlaut" unicode="&#x150;" horiz-adv-x="840" 
d="M202.5 25.5q-77.5 41.5 -121.5 117.5t-44 174q0 112 53.5 207t150.5 151.5t220 56.5q98 0 175 -43t120 -119t43 -171q0 -112 -53.5 -207t-150 -151.5t-219.5 -56.5q-96 0 -173.5 41.5zM527 150q63 38 99.5 103.5t36.5 143.5q0 60 -28 107t-77 73.5t-109 26.5
q-77 0 -140 -38t-99.5 -102.5t-36.5 -141.5q0 -61 28 -109t77 -74.5t109 -26.5q77 0 140 38zM390 908h154l-114 -136h-106zM588 908h154l-114 -136h-106z" />
    <glyph glyph-name="ohungarumlaut" unicode="&#x151;" horiz-adv-x="608" 
d="M129 15.5q-55 31.5 -85 85.5t-30 121q0 85 38 154.5t107.5 109.5t159.5 40q71 0 126 -31.5t85 -85.5t30 -121q0 -85 -38 -154.5t-107.5 -109.5t-159.5 -40q-71 0 -126 31.5zM349.5 127q36.5 22 58 61t21.5 86q0 57 -34 93.5t-91 36.5q-43 0 -79 -22t-57.5 -60.5
t-21.5 -85.5q0 -57 33.5 -94t90.5 -37q43 0 79.5 22zM251 744h154l-114 -136h-106zM450 744h154l-114 -136h-106z" />
    <glyph glyph-name="OE" unicode="&#x152;" horiz-adv-x="1162" 
d="M198.5 26q-74.5 42 -118 118t-43.5 173q0 111 54 206.5t150.5 152t217.5 56.5q76 0 134.5 -25t95.5 -70h7l15 79h454l-23 -128h-319l-30 -166h288l-23 -128h-288l-29 -166h319l-22 -128h-454l12 69h-6q-41 -41 -98.5 -63t-127.5 -22q-91 0 -165.5 42zM525 149
q62 37 97 100.5t35 139.5q0 64 -27 113t-75 75.5t-109 26.5q-76 0 -138.5 -37.5t-98.5 -102.5t-36 -144q0 -60 28.5 -107.5t77 -74t106.5 -26.5q78 0 140 37z" />
    <glyph glyph-name="oe" unicode="&#x153;" horiz-adv-x="1001" 
d="M129 15.5q-55 31.5 -85 85.5t-30 121q0 85 38 154.5t107.5 109.5t159.5 40q59 0 107.5 -25t80.5 -68q41 44 96 68.5t121 24.5q70 0 121.5 -30t78.5 -79.5t27 -105.5q0 -50 -14 -87h-383l-1 -11q1 -53 36.5 -83t86.5 -30q54 0 88.5 18.5t57.5 57.5l98 -52
q-44 -70 -104 -105t-150 -35q-61 0 -110 24t-80 67q-40 -43 -96 -67t-125 -24q-71 0 -126 31.5zM829 317v4q0 41 -33 69.5t-82 28.5q-53 0 -91 -30t-54 -72h260zM349.5 127q36.5 22 58 61t21.5 86q0 57 -34 93.5t-91 36.5q-43 0 -79 -22t-57.5 -60.5t-21.5 -85.5
q0 -57 33.5 -94t90.5 -37q43 0 79.5 22z" />
    <glyph glyph-name="Racute" unicode="&#x154;" horiz-adv-x="634" 
d="M143 716h235q67 0 119 -26.5t80.5 -72t28.5 -100.5q0 -59 -25 -107.5t-68 -80.5t-95 -44l-3 -7l140 -270l-1 -8h-147l-138 269h-71l-48 -269h-134zM345 393q56 0 90.5 28.5t34.5 82.5q0 39 -26.5 63t-70.5 24h-118l-35 -198h125zM367 908h154l-114 -136h-106z" />
    <glyph glyph-name="racute" unicode="&#x155;" horiz-adv-x="427" 
d="M90 510h122l-11 -62h8q23 36 66 56.5t95 20.5q37 0 61 -11l-23 -134q-15 10 -36.5 16t-42.5 6q-59 0 -100.5 -42t-53.5 -106l-44 -254h-131zM287 744h153l-113 -136h-106z" />
    <glyph glyph-name="uni0156" unicode="&#x156;" horiz-adv-x="634" 
d="M143 716h235q67 0 119 -26.5t80.5 -72t28.5 -100.5q0 -59 -25 -107.5t-68 -80.5t-95 -44l-3 -7l140 -270l-1 -8h-147l-138 269h-71l-48 -269h-134zM345 393q56 0 90.5 28.5t34.5 82.5q0 39 -26.5 63t-70.5 24h-118l-35 -198h125zM230 -183q-20 8 -31.5 25t-11.5 39
q0 29 20.5 50t50.5 21t50.5 -21t20.5 -51q0 -29 -19 -52l-94 -114l-44 37z" />
    <glyph glyph-name="uni0157" unicode="&#x157;" horiz-adv-x="427" 
d="M90 510h122l-11 -62h8q23 36 66 56.5t95 20.5q37 0 61 -11l-23 -134q-15 10 -36.5 16t-42.5 6q-59 0 -100.5 -42t-53.5 -106l-44 -254h-131zM19 -183q-20 8 -31.5 25t-11.5 39q0 29 20.5 50t50.5 21t50.5 -21t20.5 -51q0 -29 -19 -52l-94 -114l-44 37z" />
    <glyph glyph-name="Rcaron" unicode="&#x158;" horiz-adv-x="634" 
d="M143 716h235q67 0 119 -26.5t80.5 -72t28.5 -100.5q0 -59 -25 -107.5t-68 -80.5t-95 -44l-3 -7l140 -270l-1 -8h-147l-138 269h-71l-48 -269h-134zM345 393q56 0 90.5 28.5t34.5 82.5q0 39 -26.5 63t-70.5 24h-118l-35 -198h125zM209 904l1 8h121l31 -59h12l49 59h129
l-1 -8l-132 -126h-119z" />
    <glyph glyph-name="rcaron" unicode="&#x159;" horiz-adv-x="427" 
d="M90 510h122l-11 -62h8q23 36 66 56.5t95 20.5q37 0 61 -11l-23 -134q-15 10 -36.5 16t-42.5 6q-59 0 -100.5 -42t-53.5 -106l-44 -254h-131zM127 727l2 9h120l32 -59h12l48 59h130l-2 -9l-132 -125h-118z" />
    <glyph glyph-name="Sacute" unicode="&#x15a;" horiz-adv-x="590" 
d="M84 36.5q-66 52.5 -83 150.5l129 52q5 -56 38 -91.5t89 -35.5q52 0 87.5 26t35.5 69q0 37 -26 62t-89 50l-35 14q-65 25 -106 71.5t-41 118.5q0 59 33.5 107t91.5 75t129 27q68 0 115 -23.5t71.5 -58.5t31.5 -71l-124 -47q-8 35 -34.5 55.5t-72.5 20.5q-44 0 -75 -21.5
t-31 -58.5q0 -32 23.5 -54t76.5 -41l41 -15q76 -29 116.5 -76t40.5 -120q0 -69 -34.5 -123t-96.5 -84.5t-143 -30.5q-92 0 -158 52.5zM362 908h154l-114 -136h-106z" />
    <glyph glyph-name="sacute" unicode="&#x15b;" horiz-adv-x="498" 
d="M62.5 23.5q-58.5 39.5 -75.5 100.5l120 49q9 -36 39.5 -55t71.5 -19q34 0 57.5 14.5t23.5 39.5q0 44 -70 60l-50 12q-57 13 -97 50t-40 92q0 72 59.5 115.5t158.5 43.5q74 0 125 -30t74 -88l-120 -44q-9 27 -34 41.5t-56 14.5q-36 0 -56.5 -13.5t-20.5 -32.5
q0 -16 16 -29.5t41 -19.5l74 -18q60 -15 94 -53.5t34 -89.5q0 -81 -60.5 -130.5t-162.5 -49.5q-87 0 -145.5 39.5zM292 744h153l-113 -136h-106z" />
    <glyph glyph-name="Scircumflex" unicode="&#x15c;" horiz-adv-x="590" 
d="M84 36.5q-66 52.5 -83 150.5l129 52q5 -56 38 -91.5t89 -35.5q52 0 87.5 26t35.5 69q0 37 -26 62t-89 50l-35 14q-65 25 -106 71.5t-41 118.5q0 59 33.5 107t91.5 75t129 27q68 0 115 -23.5t71.5 -58.5t31.5 -71l-124 -47q-8 35 -34.5 55.5t-72.5 20.5q-44 0 -75 -21.5
t-31 -58.5q0 -32 23.5 -54t76.5 -41l41 -15q76 -29 116.5 -76t40.5 -120q0 -69 -34.5 -123t-96.5 -84.5t-143 -30.5q-92 0 -158 52.5zM179 786l132 126h119l91 -126l-1 -8h-121l-31 59h-12l-49 -59h-129z" />
    <glyph glyph-name="scircumflex" unicode="&#x15d;" horiz-adv-x="498" 
d="M62.5 23.5q-58.5 39.5 -75.5 100.5l120 49q9 -36 39.5 -55t71.5 -19q34 0 57.5 14.5t23.5 39.5q0 44 -70 60l-50 12q-57 13 -97 50t-40 92q0 72 59.5 115.5t158.5 43.5q74 0 125 -30t74 -88l-120 -44q-9 27 -34 41.5t-56 14.5q-36 0 -56.5 -13.5t-20.5 -32.5
q0 -16 16 -29.5t41 -19.5l74 -18q60 -15 94 -53.5t34 -89.5q0 -81 -60.5 -130.5t-162.5 -49.5q-87 0 -145.5 39.5zM107 610l132 126h119l91 -126l-2 -8h-120l-32 58h-12l-48 -58h-130z" />
    <glyph glyph-name="Scedilla" unicode="&#x15e;" horiz-adv-x="590" 
d="M475.5 342q40.5 -47 40.5 -120q0 -69 -34.5 -123t-96.5 -84.5t-143 -30.5l-19 -31q7 1 18 1q35 0 57 -24.5t22 -61.5q0 -48 -32.5 -76.5t-82.5 -28.5q-34 0 -62 19t-35 47l68 27q2 -12 11.5 -20t22.5 -8q15 0 25.5 9.5t10.5 25.5q0 14 -8.5 22.5t-21.5 8.5q-14 0 -28 -14
l-55 28l46 83q-69 16 -116.5 66t-61.5 130l129 52q5 -56 38 -91.5t89 -35.5q52 0 87.5 26t35.5 69q0 37 -26 62t-89 50l-35 14q-65 25 -106 71.5t-41 118.5q0 59 33.5 107t91.5 75t129 27q68 0 115 -23.5t71.5 -58.5t31.5 -71l-124 -47q-8 35 -34.5 55.5t-72.5 20.5
q-44 0 -75 -21.5t-31 -58.5q0 -32 23.5 -54t76.5 -41l41 -15q76 -29 116.5 -76z" />
    <glyph glyph-name="scedilla" unicode="&#x15f;" horiz-adv-x="498" 
d="M397 253.5q34 -38.5 34 -89.5q0 -81 -59 -130t-160 -50l-19 -31q7 1 18 1q35 0 57 -24.5t22 -61.5q0 -48 -32.5 -76.5t-82.5 -28.5q-34 0 -62 19t-35 47l68 27q2 -12 11.5 -20t22.5 -8q15 0 25.5 9.5t10.5 25.5q0 14 -8.5 22.5t-21.5 8.5q-14 0 -28 -14l-55 28l45 82
q-63 12 -105 48t-56 86l120 49q9 -36 39.5 -55t71.5 -19q34 0 57.5 14.5t23.5 39.5q0 44 -70 60l-50 12q-57 13 -97 50t-40 92q0 72 59.5 115.5t158.5 43.5q74 0 125 -30t74 -88l-120 -44q-9 27 -34 41.5t-56 14.5q-36 0 -56.5 -13.5t-20.5 -32.5q0 -16 16 -29.5t41 -19.5
l74 -18q60 -15 94 -53.5z" />
    <glyph glyph-name="Scaron" unicode="&#x160;" horiz-adv-x="590" 
d="M84 36.5q-66 52.5 -83 150.5l129 52q5 -56 38 -91.5t89 -35.5q52 0 87.5 26t35.5 69q0 37 -26 62t-89 50l-35 14q-65 25 -106 71.5t-41 118.5q0 59 33.5 107t91.5 75t129 27q68 0 115 -23.5t71.5 -58.5t31.5 -71l-124 -47q-8 35 -34.5 55.5t-72.5 20.5q-44 0 -75 -21.5
t-31 -58.5q0 -32 23.5 -54t76.5 -41l41 -15q76 -29 116.5 -76t40.5 -120q0 -69 -34.5 -123t-96.5 -84.5t-143 -30.5q-92 0 -158 52.5zM204 904l1 8h121l31 -59h12l49 59h129l-1 -8l-132 -126h-119z" />
    <glyph glyph-name="scaron" unicode="&#x161;" horiz-adv-x="498" 
d="M62.5 23.5q-58.5 39.5 -75.5 100.5l120 49q9 -36 39.5 -55t71.5 -19q34 0 57.5 14.5t23.5 39.5q0 44 -70 60l-50 12q-57 13 -97 50t-40 92q0 72 59.5 115.5t158.5 43.5q74 0 125 -30t74 -88l-120 -44q-9 27 -34 41.5t-56 14.5q-36 0 -56.5 -13.5t-20.5 -32.5
q0 -16 16 -29.5t41 -19.5l74 -18q60 -15 94 -53.5t34 -89.5q0 -81 -60.5 -130.5t-162.5 -49.5q-87 0 -145.5 39.5zM132 727l2 9h120l32 -59h12l48 59h130l-2 -9l-132 -125h-118z" />
    <glyph glyph-name="uni0162" unicode="&#x162;" horiz-adv-x="588" 
d="M151 -218q-28 19 -35 47l68 27q2 -12 11.5 -20t22.5 -8q15 0 25.5 9.5t10.5 25.5q0 14 -8 22.5t-22 8.5q-15 0 -27 -14l-56 28l52 92h-32l104 588h-200l23 128h534l-22 -128h-200l-105 -588h-34l-29 -47q7 1 18 1q34 0 56 -24.5t22 -61.5q0 -48 -32 -76.5t-83 -28.5
q-34 0 -62 19z" />
    <glyph glyph-name="uni0163" unicode="&#x163;" horiz-adv-x="418" 
d="M96 -218q-28 19 -34 47l68 27q2 -12 11 -20t22 -8q15 0 25.5 9.5t10.5 25.5q0 14 -8 22.5t-22 8.5q-15 0 -27 -14l-56 28l58 102q-64 34 -64 121q0 24 5 52l37 215h-88l19 112h89l26 144h130l-25 -144h125l-20 -112h-125l-37 -209q-3 -18 -3 -26q0 -21 14 -34.5t37 -13.5
q29 0 52 17l19 -117q-36 -23 -108 -23q-9 0 -25 2l-25 -41q7 1 18 1q35 0 57 -24.5t22 -61.5q0 -48 -32.5 -76.5t-82.5 -28.5q-35 0 -63 19z" />
    <glyph glyph-name="Tcaron" unicode="&#x164;" horiz-adv-x="588" 
d="M265 588h-200l23 128h534l-22 -128h-200l-105 -588h-134zM208 904l1 8h121l31 -59h12l49 59h129l-1 -8l-132 -126h-119z" />
    <glyph glyph-name="tcaron" unicode="&#x165;" horiz-adv-x="411" 
d="M363 716h118l-54 -152h-91zM118.5 27.5q-38.5 35.5 -38.5 103.5q0 19 5 52l37 215h-88l20 112h89l25 144h131l-25 -144h124l-20 -112h-125l-37 -209q-2 -22 -2 -24q0 -23 14 -36.5t37 -13.5q20 0 35.5 5.5t35.5 16.5l-22 -128q-42 -17 -91 -17q-66 0 -104.5 35.5z" />
    <glyph glyph-name="Tbar" unicode="&#x166;" horiz-adv-x="588" 
d="M217 321h-126l19 106h126l29 161h-200l23 128h534l-22 -128h-200l-29 -161h127l-19 -106h-127l-57 -321h-134z" />
    <glyph glyph-name="tbar" unicode="&#x167;" horiz-adv-x="417" 
d="M118.5 27.5q-38.5 35.5 -38.5 103.5q0 19 5 52l7 39h-86l17 100h87l12 76h-88l20 112h89l25 144h131l-25 -144h124l-20 -112h-125l-13 -76h106l-17 -100h-107l-6 -33q-2 -22 -2 -24q0 -23 14 -36.5t37 -13.5q20 0 35.5 5.5t35.5 16.5l-22 -128q-42 -17 -91 -17
q-66 0 -104.5 35.5z" />
    <glyph glyph-name="Utilde" unicode="&#x168;" horiz-adv-x="694" 
d="M164.5 13.5q-54.5 29.5 -84.5 83t-30 123.5q0 36 9 84l72 412h135l-77 -435q-4 -25 -4 -47q0 -57 30.5 -89.5t91.5 -32.5q67 0 111.5 44.5t57.5 120.5l77 439h135l-79 -447q-25 -142 -107.5 -213.5t-212.5 -71.5q-70 0 -124.5 29.5zM448.5 777.5q-16.5 6.5 -40.5 19.5
q-30 17 -45 17q-26 0 -33 -29h-92q8 63 42 95.5t86 32.5q20 0 36.5 -6.5t40.5 -19.5q30 -17 45 -17q26 0 33 29h92q-8 -63 -42 -95.5t-86 -32.5q-20 0 -36.5 6.5z" />
    <glyph glyph-name="utilde" unicode="&#x169;" horiz-adv-x="600" 
d="M352 64q-26 -39 -67.5 -59.5t-95.5 -20.5q-78 0 -120 44t-42 112q0 32 5 61l55 309h131l-52 -293q-4 -16 -4 -38q0 -32 22 -53t58 -21q58 0 94 38.5t48 106.5l46 260h131l-90 -510h-122l11 64h-8zM376 613.5q-17 6.5 -38 18.5q-31 18 -47 18q-25 0 -32 -29h-92
q8 62 41.5 94.5t85.5 32.5q21 0 38 -7t39 -19q12 -7 24.5 -12t21.5 -5q26 0 32 29h92q-8 -62 -41.5 -94.5t-85.5 -32.5q-21 0 -38 6.5z" />
    <glyph glyph-name="Umacron" unicode="&#x16a;" horiz-adv-x="694" 
d="M164.5 13.5q-54.5 29.5 -84.5 83t-30 123.5q0 36 9 84l72 412h135l-77 -435q-4 -25 -4 -47q0 -57 30.5 -89.5t91.5 -32.5q67 0 111.5 44.5t57.5 120.5l77 439h135l-79 -447q-25 -142 -107.5 -213.5t-212.5 -71.5q-70 0 -124.5 29.5zM287 893h296l-18 -100h-296z" />
    <glyph glyph-name="umacron" unicode="&#x16b;" horiz-adv-x="600" 
d="M352 64q-26 -39 -67.5 -59.5t-95.5 -20.5q-78 0 -120 44t-42 112q0 32 5 61l55 309h131l-52 -293q-4 -16 -4 -38q0 -32 22 -53t58 -21q58 0 94 38.5t48 106.5l46 260h131l-90 -510h-122l11 64h-8zM214 729h296l-17 -100h-297z" />
    <glyph glyph-name="Ubreve" unicode="&#x16c;" horiz-adv-x="694" 
d="M164.5 13.5q-54.5 29.5 -84.5 83t-30 123.5q0 36 9 84l72 412h135l-77 -435q-4 -25 -4 -47q0 -57 30.5 -89.5t91.5 -32.5q67 0 111.5 44.5t57.5 120.5l77 439h135l-79 -447q-25 -142 -107.5 -213.5t-212.5 -71.5q-70 0 -124.5 29.5zM331.5 795q-34.5 32 -34.5 81
q0 13 2 23h92q-1 -4 -1 -9q0 -16 10 -26.5t28 -10.5q19 0 33 13t18 33h92q-10 -66 -51 -101t-104 -35q-50 0 -84.5 32z" />
    <glyph glyph-name="ubreve" unicode="&#x16d;" horiz-adv-x="600" 
d="M352 64q-26 -39 -67.5 -59.5t-95.5 -20.5q-78 0 -120 44t-42 112q0 32 5 61l55 309h131l-52 -293q-4 -16 -4 -38q0 -32 22 -53t58 -21q58 0 94 38.5t48 106.5l46 260h131l-90 -510h-122l11 64h-8zM257.5 630.5q-34.5 31.5 -34.5 80.5q0 5 2 23h93q-1 -4 -1 -9
q0 -15 9.5 -25.5t27.5 -10.5q20 0 34 12.5t17 32.5h92q-10 -66 -51 -100.5t-104 -34.5q-50 0 -84.5 31.5z" />
    <glyph glyph-name="Uring" unicode="&#x16e;" horiz-adv-x="694" 
d="M164.5 13.5q-54.5 29.5 -84.5 83t-30 123.5q0 36 9 84l72 412h135l-77 -435q-4 -25 -4 -47q0 -57 30.5 -89.5t91.5 -32.5q67 0 111.5 44.5t57.5 120.5l77 439h135l-79 -447q-25 -142 -107.5 -213.5t-212.5 -71.5q-70 0 -124.5 29.5zM351.5 779.5q-31.5 31.5 -31.5 76.5
t31.5 76.5t76.5 31.5t76.5 -31.5t31.5 -76.5t-31.5 -76.5t-76.5 -31.5t-76.5 31.5zM452.5 831.5q10.5 10.5 10.5 24.5t-10.5 24.5t-24.5 10.5t-24 -10.5t-10 -24.5t10 -24.5t24 -10.5t24.5 10.5z" />
    <glyph glyph-name="uring" unicode="&#x16f;" horiz-adv-x="600" 
d="M352 64q-26 -39 -67.5 -59.5t-95.5 -20.5q-78 0 -120 44t-42 112q0 32 5 61l55 309h131l-52 -293q-4 -16 -4 -38q0 -32 22 -53t58 -21q58 0 94 38.5t48 106.5l46 260h131l-90 -510h-122l11 64h-8zM279.5 615.5q-31.5 31.5 -31.5 76.5t31.5 76.5t76.5 31.5t76.5 -31.5
t31.5 -76.5t-31.5 -76.5t-76.5 -31.5t-76.5 31.5zM380 667.5q10 10.5 10 24.5t-10.5 24t-23.5 10q-14 0 -24.5 -10t-10.5 -24t10.5 -24.5t24.5 -10.5t24 10.5z" />
    <glyph glyph-name="Uhungarumlaut" unicode="&#x170;" horiz-adv-x="694" 
d="M164.5 13.5q-54.5 29.5 -84.5 83t-30 123.5q0 36 9 84l72 412h135l-77 -435q-4 -25 -4 -47q0 -57 30.5 -89.5t91.5 -32.5q67 0 111.5 44.5t57.5 120.5l77 439h135l-79 -447q-25 -142 -107.5 -213.5t-212.5 -71.5q-70 0 -124.5 29.5zM327 908h154l-114 -136h-106zM525 908
h154l-114 -136h-106z" />
    <glyph glyph-name="uhungarumlaut" unicode="&#x171;" horiz-adv-x="600" 
d="M352 64q-26 -39 -67.5 -59.5t-95.5 -20.5q-78 0 -120 44t-42 112q0 32 5 61l55 309h131l-52 -293q-4 -16 -4 -38q0 -32 22 -53t58 -21q58 0 94 38.5t48 106.5l46 260h131l-90 -510h-122l11 64h-8zM254 744h154l-114 -136h-106zM453 744h154l-114 -136h-106z" />
    <glyph glyph-name="Uogonek" unicode="&#x172;" horiz-adv-x="694" 
d="M230.5 -197q-30.5 27 -30.5 70q0 33 17 62t45 50q-62 6 -110 36.5t-75 82t-27 116.5q0 36 9 84l72 412h135l-77 -435q-4 -27 -4 -47q0 -57 30.5 -89.5t91.5 -32.5q67 0 111 44.5t58 120.5l77 439h135l-79 -447q-19 -106 -68 -170.5t-118 -89.5q-51 -18 -79 -47t-28 -59
q0 -15 9 -23.5t24 -8.5q18 0 42 11l-17 -96q-29 -10 -59 -10q-54 0 -84.5 27z" />
    <glyph glyph-name="uogonek" unicode="&#x173;" horiz-adv-x="600" 
d="M300.5 -197q-30.5 27 -30.5 70q0 38 21.5 68.5t59.5 51.5l-2 7l11 64h-8q-26 -39 -67.5 -59.5t-95.5 -20.5q-78 0 -120 44t-42 112q0 32 5 61l55 309h131l-52 -293q-4 -16 -4 -38q0 -32 22 -53t58 -21q58 0 94 38.5t48 106.5l46 260h131l-90 -510q-34 -19 -59.5 -45
t-25.5 -52q0 -15 9 -23.5t24 -8.5q18 0 42 11l-17 -96q-29 -10 -59 -10q-54 0 -84.5 27z" />
    <glyph glyph-name="Wcircumflex" unicode="&#x174;" horiz-adv-x="984" 
d="M79 716h150l26 -402l-1 -75h8l29 75l195 402h135l51 -402l3 -73h8l26 73l168 402h151l-308 -716h-146l-49 432l-2 77h-8l-30 -77l-201 -432h-139zM391 786l132 126h119l91 -126l-1 -8h-121l-31 59h-12l-49 -59h-129z" />
    <glyph glyph-name="wcircumflex" unicode="&#x175;" horiz-adv-x="834" 
d="M33 510h140l33 -331h7l160 331h138l46 -331h7l142 331h146l-248 -510h-144l-45 330h-7l-161 -330h-140zM279 610l132 126h119l91 -126l-2 -8h-120l-32 58h-12l-48 -58h-130z" />
    <glyph glyph-name="Ycircumflex" unicode="&#x176;" horiz-adv-x="642" 
d="M249 333l-173 383h156l102 -237h8l180 237h167l-305 -383l-59 -333h-135zM209 786l132 126h119l91 -126l-1 -8h-121l-31 59h-12l-49 -59h-129z" />
    <glyph glyph-name="ycircumflex" unicode="&#x177;" horiz-adv-x="579" 
d="M170 29l-127 481h146l77 -317h7l185 317h148l-444 -726h-143zM161 610l132 126h119l91 -126l-2 -8h-120l-32 58h-12l-48 -58h-130z" />
    <glyph glyph-name="Ydieresis" unicode="&#x178;" horiz-adv-x="642" 
d="M249 333l-173 383h156l102 -237h8l180 237h167l-305 -383l-59 -333h-135zM245 792.5q-21 21.5 -21 50.5q0 30 21 51t51 21t50.5 -21t20.5 -51t-20.5 -51t-50.5 -21t-51 21.5zM436 792.5q-21 21.5 -21 50.5q0 30 21 51t50 21q31 0 51.5 -21t20.5 -51t-21 -51t-51 -21
q-29 0 -50 21.5z" />
    <glyph glyph-name="Zacute" unicode="&#x179;" horiz-adv-x="609" 
d="M-2 136l436 452h-341l23 128h504l-24 -136l-433 -452h357l-23 -128h-523zM377 908h154l-114 -136h-106z" />
    <glyph glyph-name="zacute" unicode="&#x17a;" horiz-adv-x="505" 
d="M304 399h-254l20 111h419l-19 -107l-314 -292h265l-19 -111h-429l19 107zM299 744h153l-113 -136h-106z" />
    <glyph glyph-name="Zdotaccent" unicode="&#x17b;" horiz-adv-x="609" 
d="M-2 136l436 452h-341l23 128h504l-24 -136l-433 -452h357l-23 -128h-523zM330 806q-21 21 -21 50t20.5 50t49.5 21q30 0 50.5 -21t20.5 -50t-20.5 -50t-50.5 -21q-28 0 -49 21z" />
    <glyph glyph-name="zdotaccent" unicode="&#x17c;" horiz-adv-x="505" 
d="M304 399h-254l20 111h419l-19 -107l-314 -292h265l-19 -111h-429l19 107zM244 617.5q-22 22.5 -22 53.5t22 53t54 22q31 0 53 -21.5t22 -53.5t-22 -54t-53 -22q-32 0 -54 22.5z" />
    <glyph glyph-name="Zcaron" unicode="&#x17d;" horiz-adv-x="609" 
d="M-2 136l436 452h-341l23 128h504l-24 -136l-433 -452h357l-23 -128h-523zM219 904l1 8h121l31 -59h12l49 59h129l-1 -8l-132 -126h-119z" />
    <glyph glyph-name="zcaron" unicode="&#x17e;" horiz-adv-x="505" 
d="M304 399h-254l20 111h419l-19 -107l-314 -292h265l-19 -111h-429l19 107zM139 727l2 9h120l32 -59h12l48 59h130l-2 -9l-132 -125h-118z" />
    <glyph glyph-name="florin" unicode="&#x192;" horiz-adv-x="614" 
d="M467.5 578q-22.5 -19 -29.5 -54l-21 -104h113v-112h-135l-72 -365q-14 -74 -60.5 -118.5t-123.5 -44.5q-45 0 -79 11v128q32 -16 66 -16q60 0 75 74l65 331h-93v112h115l22 109q17 92 71 141.5t139 49.5q36 0 65 -10v-127q-31 14 -64 14q-31 0 -53.5 -19z" />
    <glyph glyph-name="Aringacute" unicode="&#x1fa;" horiz-adv-x="722" 
d="M320 680q-25 33 -25 76q0 52 35.5 89.5t88.5 40.5l40 67h116l-71 -94q24 -18 37.5 -45t13.5 -58q0 -29 -12 -54.5t-34 -44.5l132 -657h-144l-31 171h-273l-90 -171h-153zM453.5 728q11.5 12 11.5 28q0 17 -11.5 28.5t-28.5 11.5q-16 0 -28 -11.5t-12 -28.5q0 -16 12 -28
t28 -12q17 0 28.5 12zM443 295l-33 180l-11 86h-8l-40 -86l-94 -180h186z" />
    <glyph glyph-name="aringacute" unicode="&#x1fb;" horiz-adv-x="557" 
d="M347 938h139l-91 -115h-99zM251.5 612.5q-31.5 31.5 -31.5 76.5t31.5 76.5t76.5 31.5t76.5 -31.5t31.5 -76.5t-31.5 -76.5t-76.5 -31.5t-76.5 31.5zM352.5 664.5q10.5 10.5 10.5 24.5t-10.5 24.5t-24.5 10.5t-24 -10.5t-10 -24.5t10 -24.5t24 -10.5t24.5 10.5zM96.5 5.5
q-37.5 21.5 -59.5 58t-22 79.5q0 86 58.5 135t168.5 49q73 0 135 -25l5 22l2 22q0 32 -29.5 53t-72.5 21q-38 0 -69.5 -14.5t-53.5 -41.5l-87 64q39 48 97.5 73t127.5 25q100 0 157.5 -48t57.5 -126q0 -20 -5 -52l-54 -300h-129l9 52h-8q-25 -33 -60 -50.5t-85 -17.5
q-46 0 -83.5 21.5zM316 120.5q37 34.5 45 87.5q-28 12 -53 18t-60 6q-49 0 -75 -20.5t-26 -58.5q0 -31 22 -49t56 -18q54 0 91 34.5z" />
    <glyph glyph-name="AEacute" unicode="&#x1fc;" horiz-adv-x="1012" 
d="M480 716h536l-22 -128h-320l-29 -166h287l-23 -128h-287l-29 -166h319l-23 -128h-454l31 173h-232l-128 -173h-168zM488 301l52 287h-10l-43 -70l-162 -217h163zM771 908h154l-114 -136h-106z" />
    <glyph glyph-name="aeacute" unicode="&#x1fd;" horiz-adv-x="937" 
d="M96.5 5.5q-37.5 21.5 -59.5 58t-22 79.5q0 91 63 137.5t171 46.5q40 0 75 -7.5t54 -15.5l5 22q2 14 2 17q0 36 -28 56.5t-74 20.5q-76 0 -110 -52l-95 51q68 107 219 107q63 0 108.5 -21.5t69.5 -57.5q73 79 189 79q68 0 119 -30t77.5 -79.5t26.5 -105.5q0 -46 -13 -87
h-383q-1 -3 -1 -11q2 -53 37 -83t86 -30q54 0 88 18.5t57 57.5l99 -52q-44 -70 -104 -105t-150 -35q-67 0 -116 29.5t-79 77.5q-45 -57 -102 -82t-127 -25q-45 0 -82.5 21.5zM765 317v4q0 41 -33 69.5t-82 28.5q-52 0 -90.5 -30t-53.5 -72h259zM316 120.5q37 34.5 45 87.5
q-50 24 -113 24q-49 0 -75 -20.5t-26 -58.5q0 -31 22 -49t56 -18q54 0 91 34.5zM510 744h153l-113 -136h-106z" />
    <glyph glyph-name="Oslashacute" unicode="&#x1fe;" horiz-adv-x="840" 
d="M74 15l53 67q-43 45 -66.5 104.5t-23.5 130.5q0 112 53.5 207t150.5 151.5t220 56.5q84 0 159 -35l56 70l84 -68l-52 -65q44 -45 67.5 -105t23.5 -130q0 -112 -53.5 -207t-150 -151.5t-219.5 -56.5q-88 0 -160 35l-57 -71zM533 588q-42 16 -84 16q-77 0 -140 -38
t-99.5 -102.5t-36.5 -141.5q0 -78 43 -130zM527 150q63 38 99.5 103.5t36.5 143.5q0 74 -43 127l-317 -396q40 -16 84 -16q77 0 140 38zM489 908h154l-114 -136h-106z" />
    <glyph glyph-name="oslashacute" unicode="&#x1ff;" horiz-adv-x="608" 
d="M42 13l34 43q-30 32 -46 74.5t-16 91.5q0 85 38 154.5t107.5 109.5t159.5 40q59 0 108 -23l40 52l74 -62l-38 -46q27 -32 42 -72.5t15 -86.5q0 -85 -38 -154.5t-107.5 -109.5t-159.5 -40q-51 0 -99 19l-36 -48zM348 404q-16 8 -44 8q-42 0 -79.5 -24t-60 -64.5
t-22.5 -87.5q0 -43 18 -73zM350.5 119.5q37.5 23.5 60 64.5t22.5 90q0 34 -14 64l-185 -236q17 -6 36 -6q43 0 80.5 23.5zM351 744h153l-113 -136h-106z" />
    <glyph glyph-name="uni0218" unicode="&#x218;" horiz-adv-x="590" 
d="M84 36.5q-66 52.5 -83 150.5l129 52q5 -56 38 -91.5t89 -35.5q52 0 87.5 26t35.5 69q0 37 -26 62t-89 50l-35 14q-65 25 -106 71.5t-41 118.5q0 59 33.5 107t91.5 75t129 27q68 0 115 -23.5t71.5 -58.5t31.5 -71l-124 -47q-8 35 -34.5 55.5t-72.5 20.5q-44 0 -75 -21.5
t-31 -58.5q0 -32 23.5 -54t76.5 -41l41 -15q76 -29 116.5 -76t40.5 -120q0 -69 -34.5 -123t-96.5 -84.5t-143 -30.5q-92 0 -158 52.5zM172 -183q-20 8 -31.5 25t-11.5 39q0 29 20.5 50t50.5 21t50.5 -21t20.5 -51q0 -29 -19 -52l-94 -114l-44 37z" />
    <glyph glyph-name="uni0219" unicode="&#x219;" horiz-adv-x="498" 
d="M62.5 23.5q-58.5 39.5 -75.5 100.5l120 49q9 -36 39.5 -55t71.5 -19q34 0 57.5 14.5t23.5 39.5q0 44 -70 60l-50 12q-57 13 -97 50t-40 92q0 72 59.5 115.5t158.5 43.5q74 0 125 -30t74 -88l-120 -44q-9 27 -34 41.5t-56 14.5q-36 0 -56.5 -13.5t-20.5 -32.5
q0 -16 16 -29.5t41 -19.5l74 -18q60 -15 94 -53.5t34 -89.5q0 -81 -60.5 -130.5t-162.5 -49.5q-87 0 -145.5 39.5zM142 -183q-20 8 -31.5 25t-11.5 39q0 29 20.5 50t50.5 21t50.5 -21t20.5 -51q0 -29 -19 -52l-94 -114l-44 37z" />
    <glyph glyph-name="uni021A" unicode="&#x21a;" horiz-adv-x="588" 
d="M265 588h-200l23 128h534l-22 -128h-200l-105 -588h-134zM179 -183q-20 8 -31.5 25t-11.5 39q0 29 20.5 50t50.5 21t50.5 -21t20.5 -51q0 -29 -19 -52l-94 -114l-44 37z" />
    <glyph glyph-name="uni021B" unicode="&#x21b;" horiz-adv-x="418" 
d="M118.5 27.5q-38.5 35.5 -38.5 103.5q0 19 5 52l37 215h-88l20 112h89l25 144h131l-25 -144h124l-20 -112h-125l-37 -209q-2 -22 -2 -24q0 -23 14 -36.5t37 -13.5q20 0 35.5 5.5t35.5 16.5l-22 -128q-42 -17 -91 -17q-66 0 -104.5 35.5zM156 -183q-20 8 -31.5 25t-11.5 39
q0 29 20.5 50t50.5 21t50.5 -21t20.5 -51q0 -29 -19 -52l-94 -114l-44 37z" />
    <glyph glyph-name="uni0237" unicode="&#x237;" horiz-adv-x="277" 
d="M-130 -217l22 122q20 -11 51 -11q25 0 38 14t18 42l99 560h131l-100 -564q-18 -99 -63.5 -135.5t-124.5 -36.5q-40 0 -71 9z" />
    <glyph glyph-name="uni0259" unicode="&#x259;" horiz-adv-x="571" 
d="M112.5 14q-51.5 30 -78.5 79t-27 105q0 48 14 88h383v11q-1 52 -36 82.5t-86 30.5q-55 0 -89 -18.5t-57 -57.5l-98 52q43 70 103.5 105t150.5 35q71 0 125.5 -32.5t84 -88t29.5 -121.5q0 -80 -37 -149t-104.5 -110t-155.5 -41q-70 0 -121.5 30zM334.5 121
q38.5 30 53.5 71h-259v-3q0 -41 33 -69.5t82 -28.5q52 0 90.5 30z" />
    <glyph glyph-name="circumflex" unicode="&#x2c6;" horiz-adv-x="456" 
d="M97 590l132 126h119l91 -126l-1 -8h-121l-31 59h-12l-49 -59h-129z" />
    <glyph glyph-name="caron" unicode="&#x2c7;" horiz-adv-x="456" 
d="M118 708l1 8h121l31 -59h12l49 59h129l-1 -8l-132 -126h-119z" />
    <glyph glyph-name="breve" unicode="&#x2d8;" horiz-adv-x="416" 
d="M167.5 611q-34.5 32 -34.5 81q0 13 2 23h92q-1 -4 -1 -9q0 -16 10 -26.5t28 -10.5q19 0 33 13t18 33h92q-10 -66 -51 -101t-104 -35q-50 0 -84.5 32z" />
    <glyph glyph-name="dotaccent" unicode="&#x2d9;" horiz-adv-x="269" 
d="M131.5 597.5q-22.5 22.5 -22.5 53.5t22.5 53.5t53.5 22.5q32 0 54 -22t22 -54q0 -31 -22.5 -53.5t-53.5 -22.5t-53.5 22.5z" />
    <glyph glyph-name="ring" unicode="&#x2da;" horiz-adv-x="408" 
d="M176.5 595.5q-31.5 31.5 -31.5 76.5t31.5 76.5t76.5 31.5t76.5 -31.5t31.5 -76.5t-31.5 -76.5t-76.5 -31.5t-76.5 31.5zM277.5 647.5q10.5 10.5 10.5 24.5t-10.5 24.5t-24.5 10.5t-24 -10.5t-10 -24.5t10 -24.5t24 -10.5t24.5 10.5z" />
    <glyph glyph-name="ogonek" unicode="&#x2db;" horiz-adv-x="426" 
d="M53.5 -197q-30.5 27 -30.5 70q0 40 22.5 72.5t61.5 54.5h117q-34 -19 -59.5 -45t-25.5 -52q0 -15 9 -23.5t24 -8.5q18 0 42 11l-17 -96q-30 -10 -60 -10q-53 0 -83.5 27z" />
    <glyph glyph-name="tilde" unicode="&#x2dc;" horiz-adv-x="419" 
d="M283.5 593.5q-16.5 6.5 -40.5 19.5q-30 17 -45 17q-26 0 -33 -29h-92q8 63 42 95.5t86 32.5q20 0 36.5 -6.5t40.5 -19.5q30 -17 45 -17q26 0 33 29h92q-8 -63 -42 -95.5t-86 -32.5q-20 0 -36.5 6.5z" />
    <glyph glyph-name="hungarumlaut" unicode="&#x2dd;" horiz-adv-x="476" 
d="M176 724h154l-114 -136h-106zM374 724h154l-114 -136h-106z" />
    <glyph glyph-name="gravecomb" unicode="&#x300;" horiz-adv-x="0" 
d="M-278 744h148l18 -136h-102z" />
    <glyph glyph-name="acutecomb" unicode="&#x301;" horiz-adv-x="0" 
d="M-183 744h153l-113 -136h-106z" />
    <glyph glyph-name="uni0302" unicode="&#x302;" horiz-adv-x="0" 
d="M-355 610l132 126h119l91 -126l-2 -8h-120l-32 58h-12l-48 -58h-130z" />
    <glyph glyph-name="tildecomb" unicode="&#x303;" horiz-adv-x="0" 
d="M-133 613.5q-17 6.5 -38 18.5q-31 18 -47 18q-25 0 -32 -29h-92q8 62 41.5 94.5t85.5 32.5q21 0 38 -7t39 -19q12 -7 24.5 -12t21.5 -5q26 0 32 29h92q-8 -62 -41.5 -94.5t-85.5 -32.5q-21 0 -38 6.5z" />
    <glyph glyph-name="uni0304" unicode="&#x304;" horiz-adv-x="0" 
d="M-291 729h296l-17 -100h-297z" />
    <glyph glyph-name="uni0306" unicode="&#x306;" horiz-adv-x="0" 
d="M-245.5 630.5q-34.5 31.5 -34.5 80.5q0 5 2 23h93q-1 -4 -1 -9q0 -15 9.5 -25.5t27.5 -10.5q20 0 34 12.5t17 32.5h92q-10 -66 -51 -100.5t-104 -34.5q-50 0 -84.5 31.5z" />
    <glyph glyph-name="uni0307" unicode="&#x307;" horiz-adv-x="0" 
d="M-134 617.5q-22 22.5 -22 53.5t22 53t54 22q31 0 53 -21.5t22 -53.5t-22 -54t-53 -22q-32 0 -54 22.5z" />
    <glyph glyph-name="uni0308" unicode="&#x308;" horiz-adv-x="0" 
d="M-317 628q-21 21 -21 51t21 50.5t50 20.5q31 0 51.5 -20.5t20.5 -50.5t-20.5 -51t-51.5 -21q-29 0 -50 21zM-126.5 628q-21.5 21 -21.5 51t21 50.5t51 20.5t51 -20.5t21 -50.5t-21 -51t-51 -21q-29 0 -50.5 21z" />
    <glyph glyph-name="uni030A" unicode="&#x30a;" horiz-adv-x="0" 
d="M-227.5 615.5q-31.5 31.5 -31.5 76.5t31.5 76.5t76.5 31.5t76.5 -31.5t31.5 -76.5t-31.5 -76.5t-76.5 -31.5t-76.5 31.5zM-127 667.5q10 10.5 10 24.5t-10.5 24t-23.5 10q-14 0 -24.5 -10t-10.5 -24t10.5 -24.5t24.5 -10.5t24 10.5z" />
    <glyph glyph-name="uni030B" unicode="&#x30b;" horiz-adv-x="0" 
d="M-297 744h154l-114 -136h-106zM-98 744h154l-114 -136h-106z" />
    <glyph glyph-name="uni030C" unicode="&#x30c;" horiz-adv-x="0" 
d="M-335 727l2 9h120l32 -59h12l48 59h130l-2 -9l-132 -125h-118z" />
    <glyph glyph-name="uni0312" unicode="&#x312;" horiz-adv-x="0" 
d="M-129 727q20 -8 31.5 -25t11.5 -39q0 -29 -20.5 -50t-50.5 -21t-50.5 21t-20.5 51q0 29 19 52l94 114l44 -37z" />
    <glyph glyph-name="uni0326" unicode="&#x326;" horiz-adv-x="0" 
d="M-303 -183q-20 8 -31.5 25t-11.5 39q0 29 20.5 50t50.5 21t50.5 -21t20.5 -51q0 -29 -19 -52l-94 -114l-44 37z" />
    <glyph glyph-name="uni0327" unicode="&#x327;" horiz-adv-x="0" 
d="M-379 -218q-28 19 -35 47l68 27q2 -12 11.5 -20t22.5 -8q15 0 25.5 9.5t10.5 25.5q0 14 -8.5 22.5t-21.5 8.5q-14 0 -28 -14l-55 28l51 92h68l-29 -47q7 1 18 1q35 0 57 -24.5t22 -61.5q0 -48 -32.5 -76.5t-82.5 -28.5q-34 0 -62 19z" />
    <glyph glyph-name="uni0328" unicode="&#x328;" horiz-adv-x="0" 
d="M-372.5 -197q-30.5 27 -30.5 70q0 40 22.5 72.5t61.5 54.5h117q-34 -19 -59.5 -45t-25.5 -52q0 -15 9 -23.5t24 -8.5q18 0 42 11l-17 -96q-30 -10 -60 -10q-53 0 -83.5 27z" />
    <glyph glyph-name="uni0374" unicode="&#x374;" horiz-adv-x="314" 
d="M337 716l-169 -221h-105l117 221h157z" />
    <glyph glyph-name="uni0375" unicode="&#x375;" horiz-adv-x="314" 
d="M-8 -99l152 221h108l-104 -221h-156z" />
    <glyph glyph-name="uni037E" unicode="&#x37e;" horiz-adv-x="271" 
d="M83.5 374.5q-25.5 25.5 -25.5 61.5t25.5 61t61.5 25t61 -25t25 -61t-25 -61.5t-61 -25.5t-61.5 25.5zM-31 -82l75 92q-19 14 -30.5 31.5t-11.5 45.5q0 36 26 61.5t61 25.5q36 0 61.5 -25.5t25.5 -61.5q0 -18 -8 -34.5t-26 -37.5l-118 -141z" />
    <glyph glyph-name="tonos" unicode="&#x384;" horiz-adv-x="442" 
d="M236 736h153l-111 -136h-107z" />
    <glyph glyph-name="dieresistonos" unicode="&#x385;" horiz-adv-x="464" 
d="M259 732h74l-25 -144h-74zM102.5 612.5q-19.5 19.5 -19.5 46.5q0 28 19.5 47t46.5 19q28 0 47 -19t19 -47q0 -27 -19 -46.5t-47 -19.5q-27 0 -46.5 19.5zM370.5 612.5q-19.5 19.5 -19.5 46.5q0 28 19.5 47t46.5 19q28 0 47 -19t19 -47q0 -27 -19 -46.5t-47 -19.5
q-27 0 -46.5 19.5z" />
    <glyph glyph-name="Alphatonos" unicode="&#x386;" horiz-adv-x="722" 
d="M340 716h158l143 -716h-144l-31 171h-273l-90 -171h-153zM443 295l-33 180l-11 86h-8l-40 -86l-94 -180h186zM132 724h154l-114 -136h-106z" />
    <glyph glyph-name="anoteleia" unicode="&#x387;" horiz-adv-x="213" 
d="M41.5 262.5q-25.5 25.5 -25.5 61.5t25.5 61.5t61.5 25.5t61 -25.5t25 -61.5t-25 -61.5t-61 -25.5t-61.5 25.5z" />
    <glyph glyph-name="Epsilontonos" unicode="&#x388;" horiz-adv-x="673" 
d="M223 716h454l-23 -128h-319l-30 -166h288l-23 -128h-288l-29 -166h319l-22 -128h-454zM34 724h154l-114 -136h-106z" />
    <glyph glyph-name="Etatonos" unicode="&#x389;" horiz-adv-x="812" 
d="M221 716h134l-51 -286h302l51 286h135l-127 -716h-135l54 302h-302l-54 -302h-134zM23 724h154l-114 -136h-106z" />
    <glyph glyph-name="Iotatonos" unicode="&#x38a;" horiz-adv-x="376" 
d="M221 716h134l-127 -716h-134zM23 724h154l-114 -136h-106z" />
    <glyph glyph-name="Omicrontonos" unicode="&#x38c;" horiz-adv-x="840" 
d="M202.5 25.5q-77.5 41.5 -121.5 117.5t-44 174q0 112 53.5 207t150.5 151.5t220 56.5q98 0 175 -43t120 -119t43 -171q0 -112 -53.5 -207t-150 -151.5t-219.5 -56.5q-96 0 -173.5 41.5zM527 150q63 38 99.5 103.5t36.5 143.5q0 60 -28 107t-77 73.5t-109 26.5
q-77 0 -140 -38t-99.5 -102.5t-36.5 -141.5q0 -61 28 -109t77 -74.5t109 -26.5q77 0 140 38zM12 724h154l-114 -136h-106z" />
    <glyph glyph-name="Upsilontonos" unicode="&#x38e;" horiz-adv-x="758" 
d="M365 333l-173 383h156l102 -237h8l180 237h167l-305 -383l-59 -333h-135zM23 724h154l-114 -136h-106z" />
    <glyph glyph-name="Omegatonos" unicode="&#x38f;" horiz-adv-x="785" 
d="M12 724h154l-114 -136h-106zM0 117h142l2 8q-47 39 -79 98.5t-32 139.5q0 97 51 182t143.5 136t210.5 51q96 0 168.5 -38t112 -104t39.5 -149q0 -199 -200 -316l-2 -8h135l-20 -117h-299l29 164q61 16 111 52.5t78.5 88.5t28.5 111q0 57 -25 99.5t-69.5 65.5t-100.5 23
q-74 0 -132.5 -33t-91 -87.5t-32.5 -118.5q0 -76 39.5 -128t100.5 -73l-29 -164h-298z" />
    <glyph glyph-name="iotadieresistonos" unicode="&#x390;" horiz-adv-x="276" 
d="M96 510h131l-89 -510h-131zM163 732h74l-25 -144h-74zM6.5 612.5q-19.5 19.5 -19.5 46.5q0 28 19.5 47t46.5 19q28 0 47 -19t19 -47q0 -27 -19 -46.5t-47 -19.5q-27 0 -46.5 19.5zM274.5 612.5q-19.5 19.5 -19.5 46.5q0 28 19.5 47t46.5 19q28 0 47 -19t19 -47
q0 -27 -19 -46.5t-47 -19.5q-27 0 -46.5 19.5z" />
    <glyph glyph-name="Alpha" unicode="&#x391;" horiz-adv-x="722" 
d="M340 716h158l143 -716h-144l-31 171h-273l-90 -171h-153zM443 295l-33 180l-11 86h-8l-40 -86l-94 -180h186z" />
    <glyph glyph-name="Beta" unicode="&#x392;" horiz-adv-x="646" 
d="M143 716h254q67 0 115.5 -24t73.5 -64t25 -88q0 -66 -36 -107t-90 -58l-1 -8q42 -19 68.5 -56t26.5 -89q0 -66 -36 -116.5t-98 -78t-139 -27.5h-290zM361 424q52 0 83.5 24t31.5 68q0 35 -23 57t-61 22h-137l-29 -171h135zM323 123q51 0 85.5 26.5t34.5 72.5
q0 39 -25 62.5t-71 23.5h-142l-33 -185h151z" />
    <glyph glyph-name="Gamma" unicode="&#x393;" horiz-adv-x="546" 
d="M143 716h438l-23 -128h-303l-105 -588h-134z" />
    <glyph glyph-name="uni0394" unicode="&#x394;" horiz-adv-x="714" 
d="M340 716h155l138 -716h-683zM468 124l-73 425h-8l-219 -425h300z" />
    <glyph glyph-name="Epsilon" unicode="&#x395;" horiz-adv-x="593" 
d="M143 716h454l-23 -128h-319l-30 -166h288l-23 -128h-288l-29 -166h319l-22 -128h-454z" />
    <glyph glyph-name="Zeta" unicode="&#x396;" horiz-adv-x="609" 
d="M-2 136l436 452h-341l23 128h504l-24 -136l-433 -452h357l-23 -128h-523z" />
    <glyph glyph-name="Eta" unicode="&#x397;" horiz-adv-x="734" 
d="M143 716h134l-51 -286h302l51 286h135l-127 -716h-135l54 302h-302l-54 -302h-134z" />
    <glyph glyph-name="Theta" unicode="&#x398;" horiz-adv-x="854" 
d="M202.5 25.5q-77.5 41.5 -121.5 117.5t-44 174q0 112 53.5 207t150.5 151.5t220 56.5q98 0 175 -43t120 -119t43 -171q0 -112 -53.5 -207t-150 -151.5t-219.5 -56.5q-96 0 -173.5 41.5zM527 150q63 38 99.5 103.5t36.5 143.5q0 60 -28 107t-77 73.5t-109 26.5
q-77 0 -140 -38t-99.5 -102.5t-36.5 -141.5q0 -61 28 -109t77 -74.5t109 -26.5q77 0 140 38zM279 417h309l-21 -118h-308z" />
    <glyph glyph-name="Iota" unicode="&#x399;" horiz-adv-x="298" 
d="M143 716h134l-127 -716h-134z" />
    <glyph glyph-name="Kappa" unicode="&#x39a;" horiz-adv-x="672" 
d="M143 716h134l-59 -336h8l310 336h172l-2 -8l-341 -360l230 -340l-1 -8h-164l-215 319h-8l-57 -319h-134z" />
    <glyph glyph-name="Lambda" unicode="&#x39b;" horiz-adv-x="706" 
d="M336 716h156l133 -716h-146l-77 477l-8 84h-8l-39 -84l-243 -477h-154z" />
    <glyph glyph-name="Mu" unicode="&#x39c;" horiz-adv-x="900" 
d="M143 716h170l102 -503h8l278 503h178l-127 -716h-133l63 353l29 119h-8l-263 -472h-107l-100 472h-8l-13 -119l-63 -353h-133z" />
    <glyph glyph-name="Nu" unicode="&#x39d;" horiz-adv-x="742" 
d="M143 716h149l211 -480h8l16 138l61 342h133l-127 -716h-133l-222 507h-8l-16 -138l-66 -369h-133z" />
    <glyph glyph-name="Xi" unicode="&#x39e;" horiz-adv-x="554" 
d="M94 716h488l-23 -128h-487zM74 421h423l-21 -126h-424zM-9 128h487l-23 -128h-487z" />
    <glyph glyph-name="Omicron" unicode="&#x39f;" horiz-adv-x="840" 
d="M202.5 25.5q-77.5 41.5 -121.5 117.5t-44 174q0 112 53.5 207t150.5 151.5t220 56.5q98 0 175 -43t120 -119t43 -171q0 -112 -53.5 -207t-150 -151.5t-219.5 -56.5q-96 0 -173.5 41.5zM527 150q63 38 99.5 103.5t36.5 143.5q0 60 -28 107t-77 73.5t-109 26.5
q-77 0 -140 -38t-99.5 -102.5t-36.5 -141.5q0 -61 28 -109t77 -74.5t109 -26.5q77 0 140 38z" />
    <glyph glyph-name="Pi" unicode="&#x3a0;" horiz-adv-x="713" 
d="M143 716h550l-127 -716h-135l104 588h-280l-105 -588h-134z" />
    <glyph glyph-name="Rho" unicode="&#x3a1;" horiz-adv-x="610" 
d="M143 716h240q63 0 113 -26t78 -72.5t28 -107.5q0 -77 -35.5 -133t-98.5 -85t-144 -29h-127l-47 -263h-134zM341 391q57 0 91.5 28t34.5 81q0 40 -24 64t-67 24h-121l-35 -197h121z" />
    <glyph glyph-name="Sigma" unicode="&#x3a3;" horiz-adv-x="540" 
d="M398 366l-228 -241h295l-23 -125h-457l23 133l231 235l-151 215l23 133h458l-22 -125h-299z" />
    <glyph glyph-name="Tau" unicode="&#x3a4;" horiz-adv-x="588" 
d="M265 588h-200l23 128h534l-22 -128h-200l-105 -588h-134z" />
    <glyph glyph-name="Upsilon" unicode="&#x3a5;" horiz-adv-x="642" 
d="M249 333l-173 383h156l102 -237h8l180 237h167l-305 -383l-59 -333h-135z" />
    <glyph glyph-name="Phi" unicode="&#x3a6;" horiz-adv-x="830" 
d="M293 60q-75 10 -132.5 47.5t-89 94t-31.5 123.5q0 93 48 165t129.5 115t180.5 51l16 92h135l-16 -92q76 -12 133.5 -49.5t88.5 -94t31 -123.5q0 -93 -47.5 -165t-129.5 -114.5t-182 -49.5l-16 -92h-134zM376 532q-88 -12 -144.5 -61.5t-56.5 -133.5q0 -62 37 -102
t102 -51zM594.5 244q56.5 49 56.5 134q0 63 -37.5 103t-102.5 51l-62 -348q89 11 145.5 60z" />
    <glyph glyph-name="Chi" unicode="&#x3a7;" horiz-adv-x="694" 
d="M261 377l-171 339h169l104 -231h8l182 231h174l-291 -351l183 -365h-165l-121 251h-8l-202 -251h-174z" />
    <glyph glyph-name="Psi" unicode="&#x3a8;" horiz-adv-x="794" 
d="M184 184.5q-50 28.5 -79.5 82t-29.5 125.5q0 26 6 62l46 262h135l-49 -272q-4 -34 -4 -44q0 -53 27.5 -84.5t77.5 -31.5l77 432h135l-77 -432q62 0 103 43t54 115l49 274h134l-51 -289q-15 -85 -61.5 -146.5t-112.5 -93t-138 -31.5l-27 -156h-135l28 156q-58 0 -108 28.5
z" />
    <glyph glyph-name="uni03A9" unicode="&#x3a9;" horiz-adv-x="816" 
d="M16 117h142l2 8q-47 39 -79 98.5t-32 139.5q0 97 51 182t143.5 136t210.5 51q96 0 168.5 -38t112 -104t39.5 -149q0 -199 -200 -316l-2 -8h135l-20 -117h-299l29 164q61 16 111 52.5t78.5 88.5t28.5 111q0 57 -25 99.5t-69.5 65.5t-100.5 23q-74 0 -132.5 -33t-91 -87.5
t-32.5 -118.5q0 -76 39.5 -128t100.5 -73l-29 -164h-298z" />
    <glyph glyph-name="Iotadieresis" unicode="&#x3aa;" horiz-adv-x="298" 
d="M94 809q-20 20 -20 47q0 28 20 47.5t47 19.5q28 0 47.5 -19.5t19.5 -47.5q0 -27 -19.5 -47t-47.5 -20q-27 0 -47 20zM272 809q-20 20 -20 47q0 28 20 47.5t48 19.5t47.5 -19.5t19.5 -47.5q0 -27 -19.5 -47t-47.5 -20t-48 20zM141 716h134l-127 -716h-134z" />
    <glyph glyph-name="Upsilondieresis" unicode="&#x3ab;" horiz-adv-x="642" 
d="M249 333l-173 383h156l102 -237h8l180 237h167l-305 -383l-59 -333h-135zM245 792.5q-21 21.5 -21 50.5q0 30 21 51t51 21t50.5 -21t20.5 -51t-20.5 -51t-50.5 -21t-51 21.5zM436 792.5q-21 21.5 -21 50.5q0 30 21 51t50 21q31 0 51.5 -21t20.5 -51t-21 -51t-51 -21
q-29 0 -50 21.5z" />
    <glyph glyph-name="alphatonos" unicode="&#x3ac;" horiz-adv-x="628" 
d="M118 12.5q-48 28.5 -77 81t-29 120.5q0 88 37 159.5t103 112t151 40.5q58 0 94.5 -22.5t53.5 -55.5h8l11 62h123l-90 -510h-123l11 61h-8q-24 -37 -63 -57t-99 -20q-55 0 -103 28.5zM345.5 127q37.5 22 60 62.5t22.5 92.5q0 53 -34.5 87.5t-85.5 34.5q-47 0 -84.5 -22
t-59 -61.5t-21.5 -89.5q0 -56 35.5 -91t85.5 -35q44 0 81.5 22zM340 736h153l-111 -136h-107z" />
    <glyph glyph-name="epsilontonos" unicode="&#x3ad;" horiz-adv-x="522" 
d="M98 3q-44 19 -67 52t-23 73q0 97 103 135l1 8q-45 39 -45 97q0 47 29 83t79 55.5t112 19.5q117 0 180 -87l-86 -68q-17 24 -44.5 37.5t-62.5 13.5q-37 0 -63.5 -15.5t-26.5 -45.5q0 -21 20 -38t50 -17h72l-17 -94h-84q-37 0 -62.5 -16t-25.5 -46q0 -25 22.5 -41t58.5 -16
q42 0 75.5 15t67.5 47l76 -73q-47 -50 -103 -74t-132 -24q-60 0 -104 19zM317 736h153l-111 -136h-107z" />
    <glyph glyph-name="etatonos" unicode="&#x3ae;" horiz-adv-x="601" 
d="M395 293q4 22 4 38q0 31 -22 52t-58 21q-57 0 -93.5 -38.5t-48.5 -105.5l-46 -260h-131l90 510h122l-11 -64h8q26 38 67.5 59t95.5 21q78 0 120 -44t42 -112q0 -25 -5 -62l-93 -524h-131zM367 736h153l-111 -136h-107z" />
    <glyph glyph-name="iotatonos" unicode="&#x3af;" horiz-adv-x="276" 
d="M96 510h131l-89 -510h-131zM189 736h153l-111 -136h-107z" />
    <glyph glyph-name="upsilondieresistonos" unicode="&#x3b0;" horiz-adv-x="596" 
d="M93.5 35.5q-58.5 51.5 -60.5 136.5q0 32 6 67l48 271h130l-48 -272q-3 -19 -3 -36q1 -46 27 -71.5t66 -25.5q51 0 86 27t52 69.5t17 88.5q0 98 -55 220h140q45 -105 45 -221q0 -92 -37.5 -161.5t-104.5 -106.5t-152 -37q-98 0 -156.5 51.5zM299 732h74l-25 -144h-74z
M142.5 612.5q-19.5 19.5 -19.5 46.5q0 28 19.5 47t46.5 19q28 0 47 -19t19 -47q0 -27 -19 -46.5t-47 -19.5q-27 0 -46.5 19.5zM410.5 612.5q-19.5 19.5 -19.5 46.5q0 28 19.5 47t46.5 19q28 0 47 -19t19 -47q0 -27 -19 -46.5t-47 -19.5q-27 0 -46.5 19.5z" />
    <glyph glyph-name="alpha" unicode="&#x3b1;" horiz-adv-x="628" 
d="M118 12.5q-48 28.5 -77 81t-29 120.5q0 88 37 159.5t103 112t151 40.5q58 0 94.5 -22.5t53.5 -55.5h8l11 62h123l-90 -510h-123l11 61h-8q-24 -37 -63 -57t-99 -20q-55 0 -103 28.5zM345.5 127q37.5 22 60 62.5t22.5 92.5q0 53 -34.5 87.5t-85.5 34.5q-47 0 -84.5 -22
t-59 -61.5t-21.5 -89.5q0 -56 35.5 -91t85.5 -35q44 0 81.5 22z" />
    <glyph glyph-name="beta" unicode="&#x3b2;" horiz-adv-x="601" 
d="M103 507q18 102 82.5 163.5t170.5 61.5q57 0 103.5 -23t73 -62.5t26.5 -87.5q0 -63 -31 -105t-79 -63l-2 -8q41 -21 64.5 -61.5t23.5 -99.5q0 -61 -32.5 -116t-89 -88.5t-126.5 -33.5q-84 0 -135 59h-8l-5 -76l-32 -183h-131zM342 118.5q28 15.5 45 43t17 62.5
q0 46 -31.5 73t-80.5 27h-21l21 115h21q48 0 82 24.5t34 66.5q0 38 -24 59.5t-62 21.5q-44 0 -72 -29t-37 -75l-49 -278q-3 -16 -3 -36q0 -41 27 -65.5t73 -24.5q32 0 60 15.5z" />
    <glyph glyph-name="gamma" unicode="&#x3b3;" horiz-adv-x="603" 
d="M174 4l-138 506h144l83 -336h7l200 336h153l-318 -505l-40 -221h-130z" />
    <glyph glyph-name="delta" unicode="&#x3b4;" horiz-adv-x="610" 
d="M129.5 15.5q-54.5 31.5 -85.5 85t-31 117.5q0 69 27.5 131t81.5 106.5t130 59.5l-132 101l18 100h442l-19 -111h-249l130 -98q61 -49 88 -104t27 -120q0 -80 -38 -148.5t-107.5 -109.5t-159.5 -41q-68 0 -122.5 31.5zM343.5 127.5q36.5 22.5 59 61t22.5 84.5q0 55 -34 94
t-89 39q-42 0 -77.5 -23t-57 -63.5t-21.5 -91.5q0 -35 17 -63t44.5 -44t57.5 -16q42 0 78.5 22.5z" />
    <glyph glyph-name="epsilon" unicode="&#x3b5;" horiz-adv-x="522" 
d="M98 3q-44 19 -67 52t-23 73q0 97 103 135l1 8q-45 39 -45 97q0 47 29 83t79 55.5t112 19.5q117 0 180 -87l-86 -68q-17 24 -44.5 37.5t-62.5 13.5q-37 0 -63.5 -15.5t-26.5 -45.5q0 -21 20 -38t50 -17h72l-17 -94h-84q-37 0 -62.5 -16t-25.5 -46q0 -25 22.5 -41t58.5 -16
q42 0 75.5 15t67.5 47l76 -73q-47 -50 -103 -74t-132 -24q-60 0 -104 19z" />
    <glyph glyph-name="zeta" unicode="&#x3b6;" horiz-adv-x="522" 
d="M271 -64q19 0 31.5 9t12.5 26q0 14 -9.5 21.5t-26.5 7.5h-123q-67 0 -107 36t-40 92q0 43 21 76t67 62q30 19 103 67.5t98 65.5h-226l20 111h417l-19 -106q-45 -29 -147.5 -95.5t-156.5 -100.5q-21 -12 -30 -24.5t-9 -29.5q0 -21 15.5 -32t37.5 -11h98q65 0 104 -34
t39 -90q0 -74 -50.5 -114.5t-137.5 -40.5z" />
    <glyph glyph-name="eta" unicode="&#x3b7;" horiz-adv-x="601" 
d="M395 293q4 22 4 38q0 31 -22 52t-58 21q-57 0 -93.5 -38.5t-48.5 -105.5l-46 -260h-131l90 510h122l-11 -64h8q26 38 67.5 59t95.5 21q78 0 120 -44t42 -112q0 -25 -5 -62l-93 -524h-131z" />
    <glyph glyph-name="theta" unicode="&#x3b8;" horiz-adv-x="695" 
d="M158.5 20.5q-55.5 36.5 -86.5 103t-31 154.5q0 110 43.5 207t122 156t178.5 59q73 0 128.5 -36.5t86.5 -103t31 -154.5q0 -110 -43.5 -207t-122 -156t-178.5 -59q-73 0 -128.5 36.5zM497 416q-6 74 -39.5 117.5t-86.5 43.5q-60 0 -107.5 -44.5t-70.5 -116.5h304z
M418.5 162.5q50.5 55.5 69.5 141.5h-314v-9q0 -85 34 -136.5t93 -51.5q67 0 117.5 55.5z" />
    <glyph glyph-name="iota" unicode="&#x3b9;" horiz-adv-x="276" 
d="M96 510h131l-89 -510h-131z" />
    <glyph glyph-name="kappa" unicode="&#x3ba;" horiz-adv-x="541" 
d="M90 510h130l-38 -219h8l203 219h156l-1 -8l-228 -240l149 -254l-2 -8h-147l-138 244h-8l-44 -244h-130z" />
    <glyph glyph-name="lambda" unicode="&#x3bb;" horiz-adv-x="562" 
d="M232 468l-64 238h144l178 -706h-145l-67 295h-7l-173 -295h-152z" />
    <glyph glyph-name="uni03BC" unicode="&#x3bc;" horiz-adv-x="600" 
d="M87 510h131l-54 -301q-2 -18 -2 -30q0 -33 22 -53.5t58 -20.5q58 0 94 38.5t48 106.5l46 260h131l-90 -510h-122l11 64h-8q-27 -40 -62.5 -60t-87.5 -20q-20 0 -41.5 7t-33.5 17h-8l-2 -65l-28 -159h-130z" />
    <glyph glyph-name="nu" unicode="&#x3bd;" horiz-adv-x="578" 
d="M35 510h148l66 -332h7l189 332h151l-307 -510h-131z" />
    <glyph glyph-name="xi" unicode="&#x3be;" horiz-adv-x="552" 
d="M284 -64q19 0 31.5 10t12.5 26q0 13 -9 20.5t-25 7.5h-76q-67 0 -116 24t-75 65.5t-26 91.5q0 68 36.5 118.5t108.5 82.5l2 8q-64 51 -64 130q0 58 33 106.5t92.5 77t133.5 28.5q73 0 124.5 -30.5t79.5 -79.5l-112 -74q-32 67 -105 67q-47 0 -82 -27t-35 -73
q0 -38 28.5 -61.5t69.5 -23.5h99l-21 -113h-110q-61 0 -101.5 -27t-40.5 -79q0 -40 33 -64t84 -24h41q74 0 117 -33.5t43 -96.5q0 -77 -51 -118.5t-138 -42.5z" />
    <glyph glyph-name="omicron" unicode="&#x3bf;" horiz-adv-x="608" 
d="M129 15.5q-55 31.5 -85 85.5t-30 121q0 85 38 154.5t107.5 109.5t159.5 40q71 0 126 -31.5t85 -85.5t30 -121q0 -85 -38 -154.5t-107.5 -109.5t-159.5 -40q-71 0 -126 31.5zM349.5 127q36.5 22 58 61t21.5 86q0 57 -34 93.5t-91 36.5q-43 0 -79 -22t-57.5 -60.5
t-21.5 -85.5q0 -57 33.5 -94t90.5 -37q43 0 79.5 22z" />
    <glyph glyph-name="pi" unicode="&#x3c0;" horiz-adv-x="751" 
d="M458 29.5q-39 37.5 -39 100.5q0 18 5 53l38 215h-186l-70 -398h-131l70 398h-115l19 112h684l-20 -112h-121l-36 -209q-3 -19 -3 -29q0 -21 12 -35t34 -14q19 0 33 4t34 15l-22 -125q-45 -13 -80 -13q-67 0 -106 37.5z" />
    <glyph glyph-name="rho" unicode="&#x3c1;" horiz-adv-x="630" 
d="M47 253q22 124 97.5 198.5t197.5 74.5q76 0 131 -30t83 -83t28 -120q0 -82 -36 -153t-101.5 -113.5t-149.5 -42.5q-54 0 -92.5 22t-61.5 55h-8l-3 -72l-37 -205h-130zM369.5 126.5q37.5 21.5 59.5 61.5t22 92q0 57 -35.5 91t-86.5 34q-44 0 -81 -23t-58.5 -63.5
t-21.5 -90.5q0 -54 34.5 -88.5t82.5 -34.5q47 0 84.5 21.5z" />
    <glyph glyph-name="sigma1" unicode="&#x3c2;" horiz-adv-x="561" 
d="M132 16q-56 32 -87 88t-31 126q0 78 37 145.5t105.5 108.5t159.5 41q86 0 144 -38t79 -105l-125 -49q-12 35 -42 52.5t-73 17.5t-78 -22.5t-55 -59.5t-20 -79q0 -63 35.5 -100t99.5 -37h27q70 0 110.5 -35.5t40.5 -93.5q0 -78 -49.5 -118.5t-138.5 -41.5l18 104
q19 0 31.5 9t12.5 26q0 13 -10 21t-29 8h-34q-72 0 -128 32z" />
    <glyph glyph-name="sigma" unicode="&#x3c3;" horiz-adv-x="629" 
d="M129.5 15.5q-55.5 31.5 -86 85.5t-30.5 119q0 80 38 146.5t106 105t152 38.5h329l-20 -111h-32l-78 8l-1 -8q42 -51 42 -131q0 -79 -36.5 -143.5t-103 -102.5t-152.5 -38q-72 0 -127.5 31.5zM344.5 127q34.5 22 54 59t19.5 80q0 52 -33.5 87t-89.5 35q-42 0 -76 -20
t-53.5 -56t-19.5 -80q0 -53 33.5 -90t86.5 -37q44 0 78.5 22z" />
    <glyph glyph-name="tau" unicode="&#x3c4;" horiz-adv-x="507" 
d="M191 388h-159l21 122h450l-21 -122h-160l-69 -388h-130z" />
    <glyph glyph-name="upsilon" unicode="&#x3c5;" horiz-adv-x="596" 
d="M93.5 35.5q-58.5 51.5 -60.5 136.5q0 32 6 67l48 271h130l-48 -272q-3 -19 -3 -36q1 -46 27 -71.5t66 -25.5q51 0 86 27t52 69.5t17 88.5q0 98 -55 220h140q45 -105 45 -221q0 -92 -37.5 -161.5t-104.5 -106.5t-152 -37q-98 0 -156.5 51.5z" />
    <glyph glyph-name="phi" unicode="&#x3c6;" horiz-adv-x="765" 
d="M250 -11q-100 14 -159.5 76t-59.5 157q0 197 215 304l41 -109q-123 -68 -123 -179q0 -49 28.5 -83.5t78.5 -45.5l45 255q9 51 39 87.5t72 55.5t84 19q93 0 142.5 -56t49.5 -152q0 -91 -41 -163.5t-114 -116t-166 -49.5l-37 -205h-132zM526 177.5q47 54.5 47 128.5
q0 50 -16.5 76t-47.5 26q-25 0 -42.5 -16.5t-22.5 -45.5l-41 -237q76 14 123 68.5z" />
    <glyph glyph-name="chi" unicode="&#x3c7;" horiz-adv-x="536" 
d="M170 266l-131 244h154l69 -147h7l116 147h161l-220 -253l131 -257h-152l-70 152h-7l-120 -152h-161z" />
    <glyph glyph-name="psi" unicode="&#x3c8;" horiz-adv-x="747" 
d="M250 -16q-58 0 -107 24.5t-79 71.5t-30 112q0 28 4 55l46 263h131l-49 -277q-3 -16 -3 -33q0 -49 32 -72t76 -23l72 405h132l-72 -404q83 1 123 57.5t40 135.5q0 61 -8 109.5t-26 101.5h131q34 -86 34 -201q0 -92 -38 -165.5t-109.5 -116.5t-167.5 -43l-36 -200h-132z
" />
    <glyph glyph-name="omega" unicode="&#x3c9;" horiz-adv-x="830" 
d="M120 9q-43 25 -68.5 71.5t-25.5 108.5q0 82 34 161t98 160h148q-67 -87 -104 -159t-37 -144q0 -44 21 -69.5t55 -25.5q38 0 67.5 32t40.5 96l26 145h123l-26 -145q-4 -27 -4 -47q0 -39 18.5 -60t51.5 -21q37 0 65 26t42.5 67t14.5 86q0 56 -11.5 105t-38.5 114h144
q22 -54 32 -105.5t10 -111.5q0 -79 -30.5 -150t-90.5 -115t-144 -44q-56 0 -94 26t-54 66q-59 -92 -169 -92q-51 0 -94 25z" />
    <glyph glyph-name="iotadieresis" unicode="&#x3ca;" horiz-adv-x="276" 
d="M56.5 630.5q-20.5 20.5 -20.5 48.5t20.5 48.5t48.5 20.5q29 0 49 -20t20 -49t-20 -49t-49 -20q-28 0 -48.5 20.5zM224.5 630.5q-20.5 20.5 -20.5 48.5t20.5 48.5t48.5 20.5q29 0 49 -20t20 -49t-20 -49t-49 -20q-28 0 -48.5 20.5zM96 510h131l-89 -510h-131z" />
    <glyph glyph-name="upsilondieresis" unicode="&#x3cb;" horiz-adv-x="596" 
d="M93.5 35.5q-58.5 51.5 -60.5 136.5q0 32 6 67l48 271h130l-48 -272q-3 -19 -3 -36q1 -46 27 -71.5t66 -25.5q51 0 86 27t52 69.5t17 88.5q0 98 -55 220h140q45 -105 45 -221q0 -92 -37.5 -161.5t-104.5 -106.5t-152 -37q-98 0 -156.5 51.5zM181 628q-21 21 -21 51
t21 50.5t50 20.5q31 0 51.5 -20.5t20.5 -50.5t-20.5 -51t-51.5 -21q-29 0 -50 21zM371.5 628q-21.5 21 -21.5 51t21 50.5t51 20.5t51 -20.5t21 -50.5t-21 -51t-51 -21q-29 0 -50.5 21z" />
    <glyph glyph-name="omicrontonos" unicode="&#x3cc;" horiz-adv-x="608" 
d="M129 15.5q-55 31.5 -85 85.5t-30 121q0 85 38 154.5t107.5 109.5t159.5 40q71 0 126 -31.5t85 -85.5t30 -121q0 -85 -38 -154.5t-107.5 -109.5t-159.5 -40q-71 0 -126 31.5zM349.5 127q36.5 22 58 61t21.5 86q0 57 -34 93.5t-91 36.5q-43 0 -79 -22t-57.5 -60.5
t-21.5 -85.5q0 -57 33.5 -94t90.5 -37q43 0 79.5 22zM349 736h153l-111 -136h-107z" />
    <glyph glyph-name="upsilontonos" unicode="&#x3cd;" horiz-adv-x="596" 
d="M93.5 35.5q-58.5 51.5 -60.5 136.5q0 32 6 67l48 271h130l-48 -272q-3 -19 -3 -36q1 -46 27 -71.5t66 -25.5q51 0 86 27t52 69.5t17 88.5q0 98 -55 220h140q45 -105 45 -221q0 -92 -37.5 -161.5t-104.5 -106.5t-152 -37q-98 0 -156.5 51.5zM325 736h153l-111 -136h-107z
" />
    <glyph glyph-name="omegatonos" unicode="&#x3ce;" horiz-adv-x="830" 
d="M120 9q-43 25 -68.5 71.5t-25.5 108.5q0 82 34 161t98 160h148q-67 -87 -104 -159t-37 -144q0 -44 21 -69.5t55 -25.5q38 0 67.5 32t40.5 96l26 145h123l-26 -145q-4 -27 -4 -47q0 -39 18.5 -60t51.5 -21q37 0 65 26t42.5 67t14.5 86q0 56 -11.5 105t-38.5 114h144
q22 -54 32 -105.5t10 -111.5q0 -79 -30.5 -150t-90.5 -115t-144 -44q-56 0 -94 26t-54 66q-59 -92 -169 -92q-51 0 -94 25zM486 736h153l-111 -136h-107z" />
    <glyph glyph-name="theta1" unicode="&#x3d1;" horiz-adv-x="651" 
d="M124.5 8q-46.5 24 -73 69.5t-26.5 107.5q0 24 5 56l47 269h124l-48 -274q-3 -14 -3 -35q0 -49 27.5 -74.5t72.5 -25.5q57 0 92.5 34t47.5 99l6 40q-72 22 -117 85.5t-45 152.5q0 61 22 111t65.5 79.5t105.5 29.5q70 0 108 -39t38 -105q0 -14 -5 -44l-30 -169h89l-19 -107
h-89l-7 -42q-21 -117 -94 -179.5t-188 -62.5q-59 0 -105.5 24zM449 568q1 8 1 17q0 18 -9.5 29t-26.5 11q-29 0 -45 -32t-16 -75t16.5 -77.5t47.5 -51.5z" />
    <glyph glyph-name="Upsilon1" unicode="&#x3d2;" horiz-adv-x="658" 
d="M250 312l-82 247q-8 25 -20 35.5t-31 10.5t-33 -8l-34 99q20 12 48 20t58 8q93 0 127 -100l54 -168h8l114 170q38 57 76.5 77.5t84.5 20.5q57 0 92 -29l-57 -101q-15 11 -34 11q-18 0 -34 -10.5t-33 -35.5l-169 -247l-55 -312h-134z" />
    <glyph glyph-name="uni03D3" unicode="&#x3d3;" horiz-adv-x="777" 
d="M369 312l-82 247q-8 25 -20 35.5t-31 10.5t-33 -8l-34 99q20 12 48 20t58 8q93 0 127 -100l54 -168h8l114 170q38 57 76.5 77.5t84.5 20.5q57 0 92 -29l-57 -101q-15 11 -34 11q-18 0 -34 -10.5t-33 -35.5l-169 -247l-55 -312h-134zM16 724h154l-114 -136h-106z" />
    <glyph glyph-name="uni03D4" unicode="&#x3d4;" horiz-adv-x="658" 
d="M250 312l-82 247q-8 25 -20 35.5t-31 10.5t-33 -8l-34 99q20 12 48 20t58 8q93 0 127 -100l54 -168h8l114 170q38 57 76.5 77.5t84.5 20.5q57 0 92 -29l-57 -101q-15 11 -34 11q-18 0 -34 -10.5t-33 -35.5l-169 -247l-55 -312h-134zM247 792.5q-21 21.5 -21 50.5
q0 30 21 51t51 21t50.5 -21t20.5 -51t-20.5 -51t-50.5 -21t-51 21.5zM438 792.5q-21 21.5 -21 50.5q0 30 21 51t50 21q31 0 51.5 -21t20.5 -51t-21 -51t-51 -21q-29 0 -50 21.5z" />
    <glyph glyph-name="omega1" unicode="&#x3d6;" horiz-adv-x="915" 
d="M142.5 8q-41.5 24 -65.5 69.5t-24 107.5q0 65 18.5 118.5t49.5 106.5h-73l18 100h834l-17 -100h-79q13 -61 13 -120q0 -83 -30.5 -153t-89.5 -111.5t-142 -41.5q-56 0 -93.5 25.5t-54.5 66.5q-27 -43 -72.5 -67.5t-99.5 -24.5q-51 0 -92.5 24zM331 144q32 32 43 96l17 99
h123l-17 -99q-5 -30 -5 -45q0 -40 19 -61.5t51 -21.5q57 0 88 51t31 125q0 56 -17 122h-398q-30 -47 -52 -103t-22 -105q0 -42 18.5 -66t50.5 -24q38 0 70 32z" />
    <glyph glyph-name="uni0400" unicode="&#x400;" horiz-adv-x="593" 
d="M143 716h454l-23 -128h-319l-30 -166h288l-23 -128h-288l-29 -166h319l-22 -128h-454zM257 908h148l19 -136h-102z" />
    <glyph glyph-name="uni0401" unicode="&#x401;" horiz-adv-x="593" 
d="M143 716h454l-23 -128h-319l-30 -166h288l-23 -128h-288l-29 -166h319l-22 -128h-454zM242 792.5q-21 21.5 -21 50.5q0 30 21 51t51 21t50.5 -21t20.5 -51t-20.5 -51t-50.5 -21t-51 21.5zM433 792.5q-21 21.5 -21 50.5q0 30 21 51t50 21q31 0 51.5 -21t20.5 -51t-21 -51
t-51 -21q-29 0 -50 21.5z" />
    <glyph glyph-name="uni0402" unicode="&#x402;" horiz-adv-x="788" 
d="M255 588h-193l23 128h525l-23 -128h-197l-26 -147l-21 -75h8q38 35 81 53.5t102 18.5q54 0 99.5 -23.5t72 -68t26.5 -104.5q0 -71 -34.5 -126t-96.5 -85.5t-142 -30.5h-32l21 120h21q54 0 90 28.5t36 78.5q0 41 -28.5 64t-75.5 23q-46 0 -90.5 -21.5t-72.5 -54.5
l-42 -238h-135z" />
    <glyph glyph-name="uni0403" unicode="&#x403;" horiz-adv-x="546" 
d="M143 716h438l-23 -128h-303l-105 -588h-134zM385 908h154l-114 -136h-106z" />
    <glyph glyph-name="uni0404" unicode="&#x404;" horiz-adv-x="733" 
d="M182.5 26.5q-72.5 42.5 -113 118.5t-40.5 173q0 107 55 202t154.5 153.5t226.5 58.5q86 0 148.5 -30.5t108.5 -92.5l-111 -88q-62 83 -169 83q-94 0 -167 -51t-100 -136h321l-20 -118h-312q7 -86 61.5 -136.5t137.5 -50.5q64 0 112 23.5t96 71.5l84 -91
q-66 -67 -140 -99.5t-167 -32.5t-165.5 42.5z" />
    <glyph glyph-name="uni0405" unicode="&#x405;" horiz-adv-x="590" 
d="M84 36.5q-66 52.5 -83 150.5l129 52q5 -56 38 -91.5t89 -35.5q52 0 87.5 26t35.5 69q0 37 -26 62t-89 50l-35 14q-65 25 -106 71.5t-41 118.5q0 59 33.5 107t91.5 75t129 27q68 0 115 -23.5t71.5 -58.5t31.5 -71l-124 -47q-8 35 -34.5 55.5t-72.5 20.5q-44 0 -75 -21.5
t-31 -58.5q0 -32 23.5 -54t76.5 -41l41 -15q76 -29 116.5 -76t40.5 -120q0 -69 -34.5 -123t-96.5 -84.5t-143 -30.5q-92 0 -158 52.5z" />
    <glyph glyph-name="uni0406" unicode="&#x406;" horiz-adv-x="298" 
d="M143 716h134l-127 -716h-134z" />
    <glyph glyph-name="uni0407" unicode="&#x407;" horiz-adv-x="279" 
d="M83 800q-20 20 -20 47q0 28 20 48t48 20t47.5 -20t19.5 -48q0 -27 -19.5 -47t-47.5 -20t-48 20zM262 800q-20 20 -20 47q0 28 20 48t47 20q29 0 48.5 -19.5t19.5 -48.5q0 -27 -20 -47t-48 -20q-27 0 -47 20zM141 716h134l-127 -716h-134z" />
    <glyph glyph-name="uni0408" unicode="&#x408;" horiz-adv-x="569" 
d="M110 6q-47 22 -78 61.5t-37 89.5l129 50q5 -46 33 -70.5t70 -24.5q45 0 75.5 30t40.5 84l86 490h135l-87 -489q-22 -124 -92 -183.5t-173 -59.5q-55 0 -102 22z" />
    <glyph glyph-name="uni0409" unicode="&#x409;" horiz-adv-x="1095" 
d="M-40 -3l22 127q10 -5 31 -5q41 0 68 25q21 20 33.5 58.5t24.5 106.5l71 407h508l-50 -285h145q64 0 115.5 -22.5t81.5 -67t30 -106.5q0 -70 -35.5 -123t-99.5 -82.5t-149 -29.5h-299l104 588h-238l-58 -325q-14 -82 -38.5 -136.5t-62.5 -86.5q-30 -25 -66.5 -36.5
t-85.5 -11.5q-37 0 -52 5zM778 125q53 0 86.5 27t33.5 72q0 38 -25 60t-68 22h-160l-32 -181h165z" />
    <glyph glyph-name="uni040A" unicode="&#x40a;" horiz-adv-x="1069" 
d="M133 716h135l-51 -285h289l50 285h135l-51 -285h146q64 0 115.5 -22.5t81.5 -67t30 -106.5q0 -70 -35.5 -123t-99.5 -82.5t-149 -29.5h-300l55 306h-289l-54 -306h-135zM750 125q53 0 86.5 27t33.5 72q0 38 -24.5 60t-67.5 22h-160l-32 -181h164z" />
    <glyph glyph-name="uni040B" unicode="&#x40b;" horiz-adv-x="783" 
d="M255 588h-193l23 128h525l-23 -128h-197l-26 -147l-21 -75h8q79 72 183 72q80 0 127.5 -47.5t47.5 -127.5q0 -19 -5 -47l-38 -216h-129l35 198q3 15 3 34q0 37 -26 59.5t-74 22.5q-83 0 -147 -76l-42 -238h-135z" />
    <glyph glyph-name="uni040C" unicode="&#x40c;" horiz-adv-x="672" 
d="M143 716h134l-59 -336h8l310 336h172l-2 -8l-341 -360l230 -340l-1 -8h-164l-215 319h-8l-57 -319h-134zM424 908h154l-114 -136h-106z" />
    <glyph glyph-name="uni040D" unicode="&#x40d;" horiz-adv-x="714" 
d="M133 716h133l-64 -360l-32 -138h8l374 498h152l-127 -716h-134l63 351l32 138h-8l-367 -489h-157zM297 908h148l19 -136h-102z" />
    <glyph glyph-name="uni040E" unicode="&#x40e;" horiz-adv-x="630" 
d="M13 4l55 115q21 -14 46 -14q40 0 68 43l36 53l-143 515h141l89 -361h8l219 361h149l-383 -608q-42 -67 -88 -95.5t-105 -28.5q-48 0 -92 20zM293.5 795q-34.5 32 -34.5 81q0 13 2 23h92q-1 -4 -1 -9q0 -16 10 -26.5t28 -10.5q19 0 33 13t18 33h92q-10 -66 -51 -101
t-104 -35q-50 0 -84.5 32z" />
    <glyph glyph-name="uni040F" unicode="&#x40f;" horiz-adv-x="695" 
d="M231 0h-210l126 716h135l-104 -588h281l104 588h134l-126 -716h-210l-28 -163h-130z" />
    <glyph glyph-name="uni0410" unicode="&#x410;" horiz-adv-x="722" 
d="M340 716h158l143 -716h-144l-31 171h-273l-90 -171h-153zM443 295l-33 180l-11 86h-8l-40 -86l-94 -180h186z" />
    <glyph glyph-name="uni0411" unicode="&#x411;" horiz-adv-x="645" 
d="M143 716h450l-22 -124h-316l-28 -158h143q58 0 106 -24t76 -67.5t28 -100.5q0 -74 -35.5 -129t-98 -84t-140.5 -29h-290zM323 125q53 0 87.5 28t34.5 75q0 39 -24.5 61t-67.5 22h-147l-33 -186h150z" />
    <glyph glyph-name="uni0412" unicode="&#x412;" horiz-adv-x="646" 
d="M143 716h254q67 0 115.5 -24t73.5 -64t25 -88q0 -66 -36 -107t-90 -58l-1 -8q42 -19 68.5 -56t26.5 -89q0 -66 -36 -116.5t-98 -78t-139 -27.5h-290zM361 424q52 0 83.5 24t31.5 68q0 35 -23 57t-61 22h-137l-29 -171h135zM323 123q51 0 85.5 26.5t34.5 72.5
q0 39 -25 62.5t-71 23.5h-142l-33 -185h151z" />
    <glyph glyph-name="uni0413" unicode="&#x413;" horiz-adv-x="546" 
d="M143 716h438l-23 -128h-303l-105 -588h-134z" />
    <glyph glyph-name="uni0414" unicode="&#x414;" horiz-adv-x="799" 
d="M11 128h86q45 57 80 157t55 213l38 218h485l-104 -588h79l-49 -280h-130l27 152h-460l-27 -152h-128zM517 128l81 460h-217l-20 -113q-22 -120 -49 -200t-70 -147h275z" />
    <glyph glyph-name="uni0415" unicode="&#x415;" horiz-adv-x="593" 
d="M143 716h454l-23 -128h-319l-30 -166h288l-23 -128h-288l-29 -166h319l-22 -128h-454z" />
    <glyph glyph-name="uni0416" unicode="&#x416;" horiz-adv-x="960" 
d="M-60 8l324 353l-183 347l1 8h160l166 -327h8l58 327h134l-58 -327h8l277 327h169l-2 -8l-312 -361l202 -339l-2 -8h-162l-183 313h-8l-56 -313h-134l55 313h-8l-282 -313h-174z" />
    <glyph glyph-name="uni0417" unicode="&#x417;" horiz-adv-x="571" 
d="M127 5.5q-50 21.5 -84 63t-43 99.5l123 48q8 -53 38.5 -81t80.5 -28q56 0 93.5 30.5t37.5 84.5q0 41 -31 67.5t-83 26.5h-57l20 113h46q59 0 99 27.5t40 78.5q0 36 -24 58t-64 22q-44 0 -75.5 -23.5t-45.5 -57.5l-106 47q26 65 87.5 108t153.5 43q61 0 108 -22.5
t72.5 -62t25.5 -89.5q0 -118 -113 -175l-2 -8q35 -21 58 -58.5t23 -91.5q0 -71 -36 -126t-98 -85t-137 -30q-57 0 -107 21.5z" />
    <glyph glyph-name="uni0418" unicode="&#x418;" horiz-adv-x="714" 
d="M133 716h133l-64 -360l-32 -138h8l374 498h152l-127 -716h-134l63 351l32 138h-8l-367 -489h-157z" />
    <glyph glyph-name="uni0419" unicode="&#x419;" horiz-adv-x="714" 
d="M133 716h133l-64 -360l-32 -138h8l374 498h152l-127 -716h-134l63 351l32 138h-8l-367 -489h-157zM334.5 795q-34.5 32 -34.5 81q0 13 2 23h92q-1 -4 -1 -9q0 -16 10 -26.5t28 -10.5q19 0 33 13t18 33h92q-10 -66 -51 -101t-104 -35q-50 0 -84.5 32z" />
    <glyph glyph-name="uni041A" unicode="&#x41a;" horiz-adv-x="672" 
d="M143 716h134l-59 -336h8l310 336h172l-2 -8l-341 -360l230 -340l-1 -8h-164l-215 319h-8l-57 -319h-134z" />
    <glyph glyph-name="uni041B" unicode="&#x41b;" horiz-adv-x="729" 
d="M-40 -3l22 127q10 -5 31 -5q41 0 68 25q21 20 33.5 58.5t24.5 106.5l71 407h508l-126 -716h-135l104 588h-238l-58 -325q-14 -83 -38.5 -137t-62.5 -86q-60 -48 -152 -48q-37 0 -52 5z" />
    <glyph glyph-name="uni041C" unicode="&#x41c;" horiz-adv-x="900" 
d="M143 716h170l102 -503h8l278 503h178l-127 -716h-133l63 353l29 119h-8l-263 -472h-107l-100 472h-8l-13 -119l-63 -353h-133z" />
    <glyph glyph-name="uni041D" unicode="&#x41d;" horiz-adv-x="734" 
d="M143 716h134l-51 -286h302l51 286h135l-127 -716h-135l54 302h-302l-54 -302h-134z" />
    <glyph glyph-name="uni041E" unicode="&#x41e;" horiz-adv-x="840" 
d="M202.5 25.5q-77.5 41.5 -121.5 117.5t-44 174q0 112 53.5 207t150.5 151.5t220 56.5q98 0 175 -43t120 -119t43 -171q0 -112 -53.5 -207t-150 -151.5t-219.5 -56.5q-96 0 -173.5 41.5zM527 150q63 38 99.5 103.5t36.5 143.5q0 60 -28 107t-77 73.5t-109 26.5
q-77 0 -140 -38t-99.5 -102.5t-36.5 -141.5q0 -61 28 -109t77 -74.5t109 -26.5q77 0 140 38z" />
    <glyph glyph-name="uni041F" unicode="&#x41f;" horiz-adv-x="713" 
d="M143 716h550l-127 -716h-135l104 588h-280l-105 -588h-134z" />
    <glyph glyph-name="uni0420" unicode="&#x420;" horiz-adv-x="610" 
d="M143 716h240q63 0 113 -26t78 -72.5t28 -107.5q0 -77 -35.5 -133t-98.5 -85t-144 -29h-127l-47 -263h-134zM341 391q57 0 91.5 28t34.5 81q0 40 -24 64t-67 24h-121l-35 -197h121z" />
    <glyph glyph-name="uni0421" unicode="&#x421;" horiz-adv-x="750" 
d="M196 24.5q-74 40.5 -116.5 115.5t-42.5 176q0 112 55 207.5t153.5 152t221.5 56.5q88 0 154 -32.5t106 -90.5l-107 -88q-31 41 -71.5 62t-99.5 21q-75 0 -138.5 -37.5t-101 -102t-37.5 -141.5q0 -63 26 -111t72.5 -74t105.5 -26q61 0 110.5 25t98.5 74l86 -97
q-68 -69 -139.5 -99.5t-168.5 -30.5q-93 0 -167 40.5z" />
    <glyph glyph-name="uni0422" unicode="&#x422;" horiz-adv-x="588" 
d="M265 588h-200l23 128h534l-22 -128h-200l-105 -588h-134z" />
    <glyph glyph-name="uni0423" unicode="&#x423;" horiz-adv-x="630" 
d="M13 4l55 115q21 -14 46 -14q40 0 68 43l36 53l-143 515h141l89 -361h8l219 361h149l-383 -608q-42 -67 -88 -95.5t-105 -28.5q-48 0 -92 20z" />
    <glyph glyph-name="uni0424" unicode="&#x424;" horiz-adv-x="827" 
d="M292 61q-81 11 -140 48t-90 94t-31 127q0 93 48.5 163.5t131.5 111.5t186 51l19 108h135l-20 -109q122 -17 191.5 -90t69.5 -179q0 -94 -48 -164.5t-131 -111.5t-187 -51l-18 -107h-135zM375 534q-93 -13 -150.5 -63t-57.5 -131q0 -62 38.5 -103t108.5 -54zM599.5 244
q57.5 50 57.5 130q0 63 -38 104t-109 55l-62 -352q94 13 151.5 63z" />
    <glyph glyph-name="uni0425" unicode="&#x425;" horiz-adv-x="694" 
d="M261 377l-171 339h169l104 -231h8l182 231h174l-291 -351l183 -365h-165l-121 251h-8l-202 -251h-174z" />
    <glyph glyph-name="uni0426" unicode="&#x426;" horiz-adv-x="754" 
d="M533 0h-511l126 716h134l-103 -588h283l104 588h134l-103 -588h89l-51 -296h-131z" />
    <glyph glyph-name="uni0427" unicode="&#x427;" horiz-adv-x="610" 
d="M413 309q-33 -25 -69 -37t-85 -12q-55 0 -100.5 22.5t-72 67t-26.5 105.5q0 28 6 59l36 202h135l-37 -205q-2 -13 -2 -29q0 -45 28.5 -69.5t75.5 -24.5q39 0 71 13t63 40l49 275h135l-127 -716h-135z" />
    <glyph glyph-name="uni0428" unicode="&#x428;" horiz-adv-x="933" 
d="M133 716h135l-105 -588h193l104 588h135l-104 -588h192l105 588h134l-127 -716h-789z" />
    <glyph glyph-name="uni0429" unicode="&#x429;" horiz-adv-x="981" 
d="M745 0h-739l127 716h135l-105 -588h193l104 588h135l-104 -588h192l105 588h134l-104 -588h81l-52 -296h-131z" />
    <glyph glyph-name="uni042A" unicode="&#x42a;" horiz-adv-x="776" 
d="M254 593h-191l22 123h326l-44 -245h115q68 0 123 -25t87 -72t32 -111q0 -80 -38 -139.5t-106 -91.5t-156 -32h-275zM450 125q60 0 99 33t39 91q0 46 -30.5 73t-81.5 27h-131l-39 -224h144z" />
    <glyph glyph-name="uni042B" unicode="&#x42b;" horiz-adv-x="869" 
d="M133 716h135l-44 -245h115q68 0 123 -25t87 -72t32 -111q0 -80 -38 -139.5t-106 -91.5t-156 -32h-275zM724 716h135l-127 -716h-135zM307 125q60 0 99 33t39 91q0 46 -30.5 73t-81.5 27h-131l-39 -224h144z" />
    <glyph glyph-name="uni042C" unicode="&#x42c;" horiz-adv-x="633" 
d="M133 716h135l-44 -245h115q68 0 123 -25t87 -72t32 -111q0 -80 -38 -139.5t-106 -91.5t-156 -32h-275zM307 125q60 0 99 33t39 91q0 46 -30.5 73t-81.5 27h-131l-39 -224h144z" />
    <glyph glyph-name="uni042D" unicode="&#x42d;" horiz-adv-x="734" 
d="M111 21q-74 37 -116 100l105 86q30 -45 78 -70t111 -25q94 0 165 52t97 135h-318l20 118h311q-7 88 -60.5 137.5t-136.5 49.5q-103 0 -182 -79l-89 90q115 117 283 117q94 0 167.5 -42.5t114 -118t40.5 -172.5q0 -112 -54 -207.5t-150 -151.5t-216 -56q-96 0 -170 37z
" />
    <glyph glyph-name="uni042E" unicode="&#x42e;" horiz-adv-x="1091" 
d="M468.5 23q-75.5 39 -120.5 110.5t-49 163.5v5h-105l-53 -302h-135l127 716h135l-51 -286h97q22 86 79.5 154.5t142.5 108t186 39.5q98 0 175 -43t120 -119t43 -171q0 -112 -53.5 -207t-150 -151.5t-219.5 -56.5q-93 0 -168.5 39zM788 150q63 38 99.5 103.5t36.5 143.5
q0 60 -28 107t-77 73.5t-109 26.5q-77 0 -140 -38t-99.5 -102.5t-36.5 -141.5q0 -61 28 -109t77 -74.5t109 -26.5q77 0 140 38z" />
    <glyph glyph-name="uni042F" unicode="&#x42f;" horiz-adv-x="642" 
d="M-30 8l239 275l1 7q-53 24 -87 71.5t-34 113.5q0 69 35 124t98 86t143 31h267l-127 -716h-135l48 269h-58l-231 -269h-161zM440 393l35 198h-127q-56 0 -89.5 -31t-33.5 -74q0 -42 27 -67.5t71 -25.5h117z" />
    <glyph glyph-name="uni0430" unicode="&#x430;" horiz-adv-x="557" 
d="M96.5 5.5q-37.5 21.5 -59.5 58t-22 79.5q0 86 58.5 135t168.5 49q73 0 135 -25l5 22l2 22q0 32 -29.5 53t-72.5 21q-38 0 -69.5 -14.5t-53.5 -41.5l-87 64q39 48 97.5 73t127.5 25q100 0 157.5 -48t57.5 -126q0 -20 -5 -52l-54 -300h-129l9 52h-8q-25 -33 -60 -50.5
t-85 -17.5q-46 0 -83.5 21.5zM316 120.5q37 34.5 45 87.5q-28 12 -53 18t-60 6q-49 0 -75 -20.5t-26 -58.5q0 -31 22 -49t56 -18q54 0 91 34.5z" />
    <glyph glyph-name="uni0431" unicode="&#x431;" horiz-adv-x="630" 
d="M157.5 18.5q-55.5 34.5 -87 99t-31.5 153.5q0 111 40 201.5t117 153.5q44 36 101 56.5t120 20.5q52 0 72 6.5t28 23.5h113q-19 -77 -71 -107t-151 -30q-73 0 -124 -34q-70 -47 -90 -117h8q61 81 178 81q59 0 106.5 -32.5t73.5 -85t26 -110.5q0 -91 -39.5 -162.5
t-108.5 -111.5t-154 -40q-71 0 -126.5 34.5zM410.5 154q44.5 49 44.5 125q0 55 -35 90t-88 35q-52 0 -88.5 -23.5t-55 -61.5t-18.5 -81q0 -42 18 -72t47 -45.5t60 -15.5q71 0 115.5 49z" />
    <glyph glyph-name="uni0432" unicode="&#x432;" horiz-adv-x="520" 
d="M81 510h246q70 0 110 -35.5t40 -90.5q0 -41 -23.5 -72t-56.5 -45l-2 -8q64 -30 64 -105q0 -44 -25 -79t-69 -55t-101 -20h-273zM297 309q26 0 43 15.5t17 39.5q0 22 -13.5 34.5t-36.5 12.5h-120l-18 -102h128zM270 103q30 0 50 17.5t20 45.5q0 22 -14 36.5t-41 14.5h-132
l-20 -114h137z" />
    <glyph glyph-name="uni0433" unicode="&#x433;" horiz-adv-x="451" 
d="M81 510h371l-19 -112h-241l-70 -398h-131z" />
    <glyph glyph-name="uni0434" unicode="&#x434;" horiz-adv-x="669" 
d="M-1 115h62q25 32 46.5 89t33.5 124l32 182h434l-69 -395h75l-48 -267h-117l27 152h-379l-27 -152h-116zM413 115l48 280h-184l-17 -98q-12 -60 -26.5 -100.5t-38.5 -81.5h218z" />
    <glyph glyph-name="uni0435" unicode="&#x435;" horiz-adv-x="588" 
d="M126 16.5q-54 32.5 -83.5 88t-29.5 121.5q0 80 38 148.5t106.5 110t154.5 41.5q69 0 120 -30t78 -79t27 -106q0 -45 -13 -87h-383l-1 -11q1 -53 36.5 -83t85.5 -30q55 0 89 18.5t57 57.5l99 -52q-44 -70 -104 -105t-152 -35q-71 0 -125 32.5zM416 317v4q0 40 -32 69
t-84 29q-51 0 -89.5 -30t-53.5 -72h259z" />
    <glyph glyph-name="uni0436" unicode="&#x436;" horiz-adv-x="778" 
d="M-67 8l240 268l-139 226l1 8h144l123 -215h8l38 215h131l-38 -215h8l198 215h151l-2 -8l-223 -238l141 -256l-2 -8h-143l-130 239h-8l-42 -239h-131l42 239h-8l-208 -239h-153z" />
    <glyph glyph-name="uni0437" unicode="&#x437;" horiz-adv-x="503" 
d="M72.5 9.5q-50.5 25.5 -82.5 68.5l96 75q42 -60 117 -60q46 0 75 16.5t29 44.5q0 27 -24.5 42.5t-65.5 15.5h-61l17 94h67q40 0 65 16.5t25 40.5q0 27 -20.5 43t-55.5 16q-65 0 -109 -47l-78 68q43 44 91.5 63.5t107.5 19.5q54 0 96 -19.5t65.5 -53.5t23.5 -77
q0 -40 -23.5 -68t-56.5 -40l-1 -8q25 -13 43 -40.5t18 -66.5q0 -82 -67 -125.5t-172 -43.5q-69 0 -119.5 25.5z" />
    <glyph glyph-name="uni0438" unicode="&#x438;" horiz-adv-x="583" 
d="M81 510h131l-39 -219l-25 -96h8l261 315h136l-90 -510h-131l38 218l25 96h-8l-260 -314h-136z" />
    <glyph glyph-name="uni0439" unicode="&#x439;" horiz-adv-x="583" 
d="M81 510h131l-39 -219l-25 -96h8l261 315h136l-90 -510h-131l38 218l25 96h-8l-260 -314h-136zM241.5 630.5q-34.5 31.5 -34.5 80.5q0 5 2 23h93q-1 -4 -1 -9q0 -15 9.5 -25.5t27.5 -10.5q20 0 34 12.5t17 32.5h92q-10 -66 -51 -100.5t-104 -34.5q-50 0 -84.5 31.5z" />
    <glyph glyph-name="uni043A" unicode="&#x43a;" horiz-adv-x="541" 
d="M90 510h130l-38 -219h8l203 219h156l-1 -8l-228 -240l149 -254l-2 -8h-147l-138 244h-8l-44 -244h-130z" />
    <glyph glyph-name="uni043B" unicode="&#x43b;" horiz-adv-x="641" 
d="M-23 0l23 115q15 -5 32 -5q21 0 35 14.5t25.5 49.5t22.5 100l41 236h453l-89 -510h-126l70 392h-204l-29 -161q-23 -132 -72 -185.5t-121 -53.5q-39 0 -61 8z" />
    <glyph glyph-name="uni043C" unicode="&#x43c;" horiz-adv-x="702" 
d="M77 510h151l93 -277h8l188 277h159l-90 -510h-126l39 214l25 96h-8l-171 -246h-91l-87 246h-8l-9 -96l-38 -214h-125z" />
    <glyph glyph-name="uni043D" unicode="&#x43d;" horiz-adv-x="595" 
d="M82 510h131l-34 -190h221l33 190h131l-91 -510h-130l34 198h-220l-35 -198h-131z" />
    <glyph glyph-name="uni043E" unicode="&#x43e;" horiz-adv-x="608" 
d="M129 15.5q-55 31.5 -85 85.5t-30 121q0 85 38 154.5t107.5 109.5t159.5 40q71 0 126 -31.5t85 -85.5t30 -121q0 -85 -38 -154.5t-107.5 -109.5t-159.5 -40q-71 0 -126 31.5zM349.5 127q36.5 22 58 61t21.5 86q0 57 -34 93.5t-91 36.5q-43 0 -79 -22t-57.5 -60.5
t-21.5 -85.5q0 -57 33.5 -94t90.5 -37q43 0 79.5 22z" />
    <glyph glyph-name="uni043F" unicode="&#x43f;" horiz-adv-x="584" 
d="M81 510h472l-90 -510h-131l69 388h-211l-69 -388h-130z" />
    <glyph glyph-name="uni0440" unicode="&#x440;" horiz-adv-x="627" 
d="M95 510h123l-11 -62h8q23 36 64 57t99 21q59 0 106.5 -30.5t74 -84.5t26.5 -120q0 -86 -36 -156t-101.5 -110.5t-149.5 -40.5q-53 0 -95.5 23t-57.5 54h-8l-4 -72l-35 -205h-131zM377.5 127.5q36.5 22.5 56.5 62.5t20 89q0 56 -35.5 90.5t-88.5 34.5q-42 0 -79 -21
t-59 -60.5t-22 -93.5t35 -89t88 -35q48 0 84.5 22.5z" />
    <glyph glyph-name="uni0441" unicode="&#x441;" horiz-adv-x="571" 
d="M130.5 15.5q-55.5 31.5 -86.5 86.5t-31 122q0 79 37.5 148.5t107.5 111.5t163 42q82 0 139.5 -39.5t78.5 -104.5l-122 -48q-13 33 -43.5 51.5t-70.5 18.5q-44 0 -80.5 -21.5t-57 -59.5t-20.5 -85q0 -59 35 -96t87 -37q46 0 79 19.5t51 54.5l111 -54q-38 -69 -104 -105
t-148 -36q-70 0 -125.5 31.5z" />
    <glyph glyph-name="uni0442" unicode="&#x442;" horiz-adv-x="507" 
d="M191 388h-159l21 122h450l-21 -122h-160l-69 -388h-130z" />
    <glyph glyph-name="uni0443" unicode="&#x443;" horiz-adv-x="579" 
d="M170 29l-127 481h146l77 -317h7l185 317h148l-444 -726h-143z" />
    <glyph glyph-name="uni0444" unicode="&#x444;" horiz-adv-x="777" 
d="M276 -10q-71 10 -127 45t-86.5 86.5t-30.5 109.5q0 84 42 147.5t118.5 100.5t177.5 44l35 193h130l-35 -195q70 -11 125 -47t85.5 -89.5t30.5 -113.5q0 -82 -44 -144.5t-120 -98t-171 -41.5l-36 -203h-130zM350 407q-85 -6 -137.5 -50t-52.5 -113q0 -53 37 -91.5
t99 -49.5zM562 149.5q51 40.5 51 111.5q0 55 -35.5 94.5t-96.5 50.5l-54 -304q84 7 135 47.5z" />
    <glyph glyph-name="uni0445" unicode="&#x445;" horiz-adv-x="536" 
d="M170 266l-131 244h154l69 -147h7l116 147h161l-220 -253l131 -257h-152l-70 152h-7l-120 -152h-161z" />
    <glyph glyph-name="uni0446" unicode="&#x446;" horiz-adv-x="629" 
d="M419 0h-427l89 510h131l-69 -393h211l69 393h130l-68 -393h72l-48 -269h-117z" />
    <glyph glyph-name="uni0447" unicode="&#x447;" horiz-adv-x="537" 
d="M324 180q-26 -11 -53 -16.5t-64 -5.5q-77 0 -125.5 42.5t-48.5 118.5q0 16 5 48l25 143h133l-24 -136q-3 -21 -3 -29q0 -33 21 -50.5t60 -17.5q60 0 96 28l36 205h131l-91 -510h-131z" />
    <glyph glyph-name="uni0448" unicode="&#x448;" horiz-adv-x="824" 
d="M81 510h128l-70 -393h155l69 393h128l-69 -393h154l70 393h128l-91 -510h-692z" />
    <glyph glyph-name="uni0449" unicode="&#x449;" horiz-adv-x="869" 
d="M639 0h-647l89 510h128l-69 -393h154l69 393h128l-68 -393h154l69 393h128l-69 -393h72l-48 -269h-117z" />
    <glyph glyph-name="uni044A" unicode="&#x44a;" horiz-adv-x="616" 
d="M162 407h-129l19 103h252l-30 -170h107q81 0 131 -42.5t50 -109.5q0 -86 -56 -137t-164 -51h-252zM356 103q37 0 60.5 19.5t23.5 55.5q0 28 -19 43.5t-51 15.5h-114l-24 -134h124z" />
    <glyph glyph-name="uni044B" unicode="&#x44b;" horiz-adv-x="736" 
d="M81 510h124l-30 -170h107q53 0 94.5 -19.5t64.5 -54t23 -78.5q0 -85 -56.5 -136.5t-163.5 -51.5h-253zM581 510h124l-90 -510h-124zM257 103q37 0 61 19.5t24 55.5q0 28 -19.5 43.5t-51.5 15.5h-114l-24 -134h124z" />
    <glyph glyph-name="uni044C" unicode="&#x44c;" horiz-adv-x="519" 
d="M81 510h124l-30 -170h107q53 0 94.5 -19.5t64.5 -54t23 -78.5q0 -85 -56.5 -136.5t-163.5 -51.5h-253zM257 103q37 0 61 19.5t24 55.5q0 28 -19.5 43.5t-51.5 15.5h-114l-24 -134h124z" />
    <glyph glyph-name="uni044D" unicode="&#x44d;" horiz-adv-x="549" 
d="M62 23q-57 39 -77 103l110 41q13 -35 42.5 -55t74.5 -20q58 0 103 32.5t62 82.5h-205l16 94h197q-5 56 -39 86.5t-82 30.5q-46 0 -81.5 -21.5t-56.5 -57.5l-97 49q36 65 99 101.5t143 36.5q68 0 121.5 -29t83.5 -83t30 -125q0 -81 -38 -151t-107 -112t-157 -42
q-85 0 -142 39z" />
    <glyph glyph-name="uni044E" unicode="&#x44e;" horiz-adv-x="827" 
d="M364 11.5q-53 27.5 -84 76t-37 110.5h-78l-35 -198h-131l90 510h131l-34 -190h72q29 93 105.5 149.5t183.5 56.5q72 0 126.5 -31t84.5 -85.5t30 -121.5q0 -85 -38 -154.5t-107 -109.5t-159 -40q-67 0 -120 27.5zM577.5 127q36.5 22 58 61t21.5 86q0 57 -33.5 93.5
t-90.5 36.5q-43 0 -79.5 -22t-58 -60.5t-21.5 -85.5q0 -57 33.5 -94t90.5 -37q43 0 79.5 22z" />
    <glyph glyph-name="uni044F" unicode="&#x44f;" horiz-adv-x="510" 
d="M-62 8l152 172l-1 7q-34 15 -58 51t-24 84q0 50 26 93t75 69t113 26h259l-91 -510h-124l31 171h-69l-147 -171h-144zM314 272l23 135h-118q-38 0 -62 -22t-24 -52q0 -29 19.5 -45t48.5 -16h113z" />
    <glyph glyph-name="uni0450" unicode="&#x450;" horiz-adv-x="588" 
d="M126 16.5q-54 32.5 -83.5 88t-29.5 121.5q0 80 38 148.5t106.5 110t154.5 41.5q69 0 120 -30t78 -79t27 -106q0 -45 -13 -87h-383l-1 -11q1 -53 36.5 -83t85.5 -30q55 0 89 18.5t57 57.5l99 -52q-44 -70 -104 -105t-152 -35q-71 0 -125 32.5zM416 317v4q0 40 -32 69
t-84 29q-51 0 -89.5 -30t-53.5 -72h259zM212 744h148l18 -136h-102z" />
    <glyph glyph-name="uni0451" unicode="&#x451;" horiz-adv-x="588" 
d="M126 16.5q-54 32.5 -83.5 88t-29.5 121.5q0 80 38 148.5t106.5 110t154.5 41.5q69 0 120 -30t78 -79t27 -106q0 -45 -13 -87h-383l-1 -11q1 -53 36.5 -83t85.5 -30q55 0 89 18.5t57 57.5l99 -52q-44 -70 -104 -105t-152 -35q-71 0 -125 32.5zM416 317v4q0 40 -32 69
t-84 29q-51 0 -89.5 -30t-53.5 -72h259zM193 628q-21 21 -21 51t21 50.5t50 20.5q31 0 51.5 -20.5t20.5 -50.5t-20.5 -51t-51.5 -21q-29 0 -50 21zM383.5 628q-21.5 21 -21.5 51t21 50.5t51 20.5t51 -20.5t21 -50.5t-21 -51t-51 -21q-29 0 -50.5 21z" />
    <glyph glyph-name="uni0452" unicode="&#x452;" horiz-adv-x="582" 
d="M224.5 -222.5q-23.5 3.5 -39.5 10.5l47 115q15 -9 34 -9q48 0 58 55l62 344q4 24 4 39q0 30 -22.5 51t-59.5 21q-113 0 -141 -150l-46 -254h-131l101 571h-58l16 91h57l10 54h131l-10 -54h135l-16 -91h-135l-7 -36l-23 -89h8q25 38 66 59t95 21q76 0 120 -44.5t44 -113.5
q0 -33 -6 -65l-63 -357q-17 -94 -62.5 -133t-123.5 -39q-21 0 -44.5 3.5z" />
    <glyph glyph-name="uni0453" unicode="&#x453;" horiz-adv-x="451" 
d="M81 510h371l-19 -112h-241l-70 -398h-131zM297 744h153l-113 -136h-106z" />
    <glyph glyph-name="uni0454" unicode="&#x454;" horiz-adv-x="544" 
d="M113 15.5q-52 31.5 -80.5 84.5t-28.5 116q0 87 39 158t109.5 111.5t160.5 40.5q154 0 202 -141l-111 -44q-9 34 -37 55.5t-68 21.5q-54 0 -97.5 -32t-61.5 -85h209l-16 -94h-204q6 -51 37 -83t86 -32q91 0 131 81l95 -47q-40 -71 -98.5 -106.5t-145.5 -35.5
q-69 0 -121 31.5z" />
    <glyph glyph-name="uni0455" unicode="&#x455;" horiz-adv-x="498" 
d="M62.5 23.5q-58.5 39.5 -75.5 100.5l120 49q9 -36 39.5 -55t71.5 -19q34 0 57.5 14.5t23.5 39.5q0 44 -70 60l-50 12q-57 13 -97 50t-40 92q0 72 59.5 115.5t158.5 43.5q74 0 125 -30t74 -88l-120 -44q-9 27 -34 41.5t-56 14.5q-36 0 -56.5 -13.5t-20.5 -32.5
q0 -16 16 -29.5t41 -19.5l74 -18q60 -15 94 -53.5t34 -89.5q0 -81 -60.5 -130.5t-162.5 -49.5q-87 0 -145.5 39.5z" />
    <glyph glyph-name="uni0456" unicode="&#x456;" horiz-adv-x="276" 
d="M126 590.5q-25 24.5 -25 59.5t25 59.5t60 24.5t59.5 -24.5t24.5 -59.5t-24.5 -59.5t-59.5 -24.5t-60 24.5zM95 510h131l-89 -510h-131z" />
    <glyph glyph-name="uni0457" unicode="&#x457;" horiz-adv-x="258" 
d="M48.5 630.5q-20.5 20.5 -20.5 48.5t20.5 48.5t48.5 20.5q29 0 49 -20t20 -49t-20 -49t-49 -20q-28 0 -48.5 20.5zM216.5 630.5q-20.5 20.5 -20.5 48.5t20.5 48.5t48.5 20.5q29 0 49 -20t20 -49t-20 -49t-49 -20q-28 0 -48.5 20.5zM95 510h131l-89 -510h-131z" />
    <glyph glyph-name="uni0458" unicode="&#x458;" horiz-adv-x="277" 
d="M127.5 585.5q-24.5 24.5 -24.5 59.5t24.5 59.5t59.5 24.5t60 -24.5t25 -59.5t-25 -59.5t-60 -24.5t-59.5 24.5zM-130 -217l22 122q20 -11 51 -11q25 0 38 14t18 42l99 560h131l-100 -564q-18 -99 -63.5 -135.5t-124.5 -36.5q-40 0 -71 9z" />
    <glyph glyph-name="uni0459" unicode="&#x459;" horiz-adv-x="922" 
d="M-23 0l22 115q15 -5 31 -5q31 0 49 31t31 107l46 262h453l-32 -179h112q49 0 88.5 -18.5t63 -52t23.5 -77.5q0 -87 -55.5 -135t-155.5 -48h-259l69 392h-204l-29 -165q-23 -128 -71.5 -181.5t-121.5 -53.5q-39 0 -60 8zM664 103q32 0 55.5 18.5t23.5 49.5q0 26 -17 41.5
t-45 15.5h-122l-22 -125h127z" />
    <glyph glyph-name="uni045A" unicode="&#x45a;" horiz-adv-x="879" 
d="M81 510h131l-32 -179h198l31 179h131l-32 -179h136q76 0 126.5 -42t50.5 -111q0 -82 -57 -130t-154 -48h-291l40 228h-197l-40 -228h-131zM621 103q32 0 55.5 18t23.5 51q0 25 -18 40.5t-46 15.5h-146l-23 -125h154z" />
    <glyph glyph-name="uni045B" unicode="&#x45b;" horiz-adv-x="582" 
d="M91 571h-58l16 91h57l10 54h131l-10 -54h135l-16 -91h-135l-7 -36l-23 -89h8q25 38 66 59t95 21q76 0 120 -44.5t44 -113.5q0 -33 -6 -65l-54 -303h-130l52 293q4 24 4 39q0 30 -22.5 51t-59.5 21q-113 0 -141 -150l-46 -254h-131z" />
    <glyph glyph-name="uni045C" unicode="&#x45c;" horiz-adv-x="541" 
d="M90 510h130l-38 -219h8l203 219h156l-1 -8l-228 -240l149 -254l-2 -8h-147l-138 244h-8l-44 -244h-130zM344 744h153l-113 -136h-106z" />
    <glyph glyph-name="uni045D" unicode="&#x45d;" horiz-adv-x="583" 
d="M81 510h131l-39 -219l-25 -96h8l261 315h136l-90 -510h-131l38 218l25 96h-8l-260 -314h-136zM211 744h148l18 -136h-102z" />
    <glyph glyph-name="uni045E" unicode="&#x45e;" horiz-adv-x="579" 
d="M170 29l-127 481h146l77 -317h7l185 317h148l-444 -726h-143zM249.5 630.5q-34.5 31.5 -34.5 80.5q0 5 2 23h93q-1 -4 -1 -9q0 -15 9.5 -25.5t27.5 -10.5q20 0 34 12.5t17 32.5h92q-10 -66 -51 -100.5t-104 -34.5q-50 0 -84.5 31.5z" />
    <glyph glyph-name="uni045F" unicode="&#x45f;" horiz-adv-x="591" 
d="M172 0h-180l89 510h130l-68 -389h218l68 389h131l-89 -510h-181l-28 -152h-117z" />
    <glyph glyph-name="uni0490" unicode="&#x490;" horiz-adv-x="549" 
d="M130 716h320l21 123h134l-45 -251h-318l-104 -588h-134z" />
    <glyph glyph-name="uni0491" unicode="&#x491;" horiz-adv-x="447" 
d="M81 510h254l19 107h113l-38 -219h-237l-69 -398h-131z" />
    <glyph glyph-name="uni04AE" unicode="&#x4ae;" horiz-adv-x="642" 
d="M249 333l-173 383h156l102 -237h8l180 237h167l-305 -383l-59 -333h-135z" />
    <glyph glyph-name="uni04AF" unicode="&#x4af;" horiz-adv-x="557" 
d="M148 1l-119 511h142l70 -347l189 345h148l-300 -509l-38 -217h-131z" />
    <glyph glyph-name="uni04B0" unicode="&#x4b0;" horiz-adv-x="637" 
d="M235 263h-173l17 98h155l-160 355h159l100 -237h8l179 237h166l-283 -355h156l-17 -98h-173l-47 -263h-134z" />
    <glyph glyph-name="uni04B1" unicode="&#x4b1;" horiz-adv-x="555" 
d="M153 0h-142l16 90h106l-9 36l-89 384h143l68 -345l190 345h147l-225 -384l-22 -36h105l-16 -90h-142l-38 -216h-130z" />
    <glyph glyph-name="uni0E3F" unicode="&#xe3f;" horiz-adv-x="618" 
d="M200 0h-192l121 684h192l17 100h89l-17 -100q77 -4 128 -47t51 -117q0 -60 -35 -103t-86 -58l-1 -8q42 -17 67 -52.5t25 -83.5q0 -65 -35 -113.5t-95.5 -74.5t-135.5 -27h-4l-17 -100h-89zM272 406l28 159h-62l-28 -159h62zM431 431q27 23 27 64q0 34 -18.5 51.5
t-50.5 18.5l-28 -159q43 2 70 25zM221 120l31 174h-61l-31 -174h61zM316 120q49 1 81.5 27t32.5 69q0 37 -21.5 57.5t-63.5 20.5h-4l-30 -174h5z" />
    <glyph glyph-name="Wgrave" unicode="&#x1e80;" horiz-adv-x="984" 
d="M79 716h150l26 -402l-1 -75h8l29 75l195 402h135l51 -402l3 -73h8l26 73l168 402h151l-308 -716h-146l-49 432l-2 77h-8l-30 -77l-201 -432h-139zM442 908h148l19 -136h-102z" />
    <glyph glyph-name="wgrave" unicode="&#x1e81;" horiz-adv-x="834" 
d="M33 510h140l33 -331h7l160 331h138l46 -331h7l142 331h146l-248 -510h-144l-45 330h-7l-161 -330h-140zM337 744h148l18 -136h-102z" />
    <glyph glyph-name="Wacute" unicode="&#x1e82;" horiz-adv-x="984" 
d="M79 716h150l26 -402l-1 -75h8l29 75l195 402h135l51 -402l3 -73h8l26 73l168 402h151l-308 -716h-146l-49 432l-2 77h-8l-30 -77l-201 -432h-139zM574 908h154l-114 -136h-106z" />
    <glyph glyph-name="wacute" unicode="&#x1e83;" horiz-adv-x="834" 
d="M33 510h140l33 -331h7l160 331h138l46 -331h7l142 331h146l-248 -510h-144l-45 330h-7l-161 -330h-140zM464 744h153l-113 -136h-106z" />
    <glyph glyph-name="Wdieresis" unicode="&#x1e84;" horiz-adv-x="984" 
d="M79 716h150l26 -402l-1 -75h8l29 75l195 402h135l51 -402l3 -73h8l26 73l168 402h151l-308 -716h-146l-49 432l-2 77h-8l-30 -77l-201 -432h-139zM427 792.5q-21 21.5 -21 50.5q0 30 21 51t51 21t50.5 -21t20.5 -51t-20.5 -51t-50.5 -21t-51 21.5zM618 792.5
q-21 21.5 -21 50.5q0 30 21 51t50 21q31 0 51.5 -21t20.5 -51t-21 -51t-51 -21q-29 0 -50 21.5z" />
    <glyph glyph-name="wdieresis" unicode="&#x1e85;" horiz-adv-x="834" 
d="M33 510h140l33 -331h7l160 331h138l46 -331h7l142 331h146l-248 -510h-144l-45 330h-7l-161 -330h-140zM318 628q-21 21 -21 51t21 50.5t50 20.5q31 0 51.5 -20.5t20.5 -50.5t-20.5 -51t-51.5 -21q-29 0 -50 21zM508.5 628q-21.5 21 -21.5 51t21 50.5t51 20.5t51 -20.5
t21 -50.5t-21 -51t-51 -21q-29 0 -50.5 21z" />
    <glyph glyph-name="Ygrave" unicode="&#x1ef2;" horiz-adv-x="642" 
d="M249 333l-173 383h156l102 -237h8l180 237h167l-305 -383l-59 -333h-135zM260 908h148l19 -136h-102z" />
    <glyph glyph-name="ygrave" unicode="&#x1ef3;" horiz-adv-x="579" 
d="M170 29l-127 481h146l77 -317h7l185 317h148l-444 -726h-143zM219 744h148l18 -136h-102z" />
    <glyph glyph-name="uni2000" unicode="&#x2000;" horiz-adv-x="415" 
 />
    <glyph glyph-name="uni2001" unicode="&#x2001;" horiz-adv-x="830" 
 />
    <glyph glyph-name="uni2002" unicode="&#x2002;" horiz-adv-x="415" 
 />
    <glyph glyph-name="uni2003" unicode="&#x2003;" horiz-adv-x="830" 
 />
    <glyph glyph-name="uni2004" unicode="&#x2004;" horiz-adv-x="275" 
 />
    <glyph glyph-name="uni2005" unicode="&#x2005;" horiz-adv-x="207" 
 />
    <glyph glyph-name="uni2006" unicode="&#x2006;" horiz-adv-x="138" 
 />
    <glyph glyph-name="uni2007" unicode="&#x2007;" 
 />
    <glyph glyph-name="uni2008" unicode="&#x2008;" horiz-adv-x="232" 
 />
    <glyph glyph-name="uni2009" unicode="&#x2009;" horiz-adv-x="138" 
 />
    <glyph glyph-name="uni200A" unicode="&#x200a;" horiz-adv-x="70" 
 />
    <glyph glyph-name="endash" unicode="&#x2013;" horiz-adv-x="611" 
d="M556 368l-20 -116h-499l21 116h498z" />
    <glyph glyph-name="emdash" unicode="&#x2014;" horiz-adv-x="917" 
d="M863 368l-20 -116h-806l21 116h805z" />
    <glyph glyph-name="uni2015" unicode="&#x2015;" horiz-adv-x="1056" 
d="M1004 368l-20 -116h-944l20 116h944z" />
    <glyph glyph-name="quoteleft" unicode="&#x2018;" horiz-adv-x="269" 
d="M198 612q22 -10 36 -30.5t14 -48.5q0 -36 -25.5 -61t-60.5 -25q-36 0 -61.5 25t-25.5 61q0 34 32 74l104 125l53 -43z" />
    <glyph glyph-name="quoteright" unicode="&#x2019;" horiz-adv-x="269" 
d="M149 566q-24 8 -39 29.5t-15 49.5q0 36 25.5 61.5t61.5 25.5t61.5 -25t25.5 -62q0 -33 -32 -73l-105 -125l-53 43z" />
    <glyph glyph-name="quotesinglbase" unicode="&#x201a;" horiz-adv-x="269" 
d="M56 0q-21 9 -35.5 30t-14.5 48q0 36 25.5 61.5t61.5 25.5t61.5 -25t25.5 -62q0 -33 -32 -73l-105 -125l-53 43z" />
    <glyph glyph-name="quotedblleft" unicode="&#x201c;" horiz-adv-x="488" 
d="M198 612q22 -10 36 -30.5t14 -48.5q0 -36 -25.5 -61t-60.5 -25q-36 0 -61.5 25t-25.5 61q0 34 32 74l104 125l53 -43zM417 612q22 -10 36 -30.5t14 -48.5q0 -36 -25.5 -61t-60.5 -25q-36 0 -61.5 25t-25.5 61q0 34 32 74l104 125l53 -43z" />
    <glyph glyph-name="quotedblright" unicode="&#x201d;" horiz-adv-x="488" 
d="M149 567q-21 9 -35.5 30t-14.5 48q0 36 25.5 61.5t61.5 25.5t61.5 -25t25.5 -62q0 -33 -32 -73l-105 -125l-53 43zM368 567q-21 9 -35.5 30t-14.5 48q0 36 25.5 61.5t61.5 25.5t61.5 -25t25.5 -62q0 -33 -32 -73l-105 -125l-53 43z" />
    <glyph glyph-name="quotedblbase" unicode="&#x201e;" horiz-adv-x="479" 
d="M56 0q-21 9 -35.5 30t-14.5 48q0 36 25.5 61.5t61.5 25.5t61.5 -25t25.5 -62q0 -33 -32 -73l-105 -125l-53 43zM265 0q-21 9 -35.5 30t-14.5 48q0 36 25.5 61.5t61.5 25.5t61.5 -25t25.5 -62q0 -33 -32 -73l-105 -125l-53 43z" />
    <glyph glyph-name="dagger" unicode="&#x2020;" horiz-adv-x="463" 
d="M213 585l23 131h116l-23 -131h141l-18 -106h-142l-57 -321h-116l57 321h-141l18 106h142z" />
    <glyph glyph-name="daggerdbl" unicode="&#x2021;" horiz-adv-x="463" 
d="M213 585l23 131h116l-23 -131h141l-18 -106h-142l-40 -226h142l-19 -106h-142l-26 -147h-116l26 147h-140l18 106h141l40 226h-141l18 106h142z" />
    <glyph glyph-name="bullet" unicode="&#x2022;" horiz-adv-x="421" 
d="M139.5 210.5q-30.5 17.5 -48 48t-17.5 65.5t17.5 65.5t48 48t65.5 17.5t65 -17.5t47.5 -48t17.5 -65.5t-17.5 -65.5t-47.5 -48t-65 -17.5t-65.5 17.5z" />
    <glyph glyph-name="ellipsis" unicode="&#x2026;" horiz-adv-x="752" 
d="M24.5 19.5q-25.5 25.5 -25.5 61.5t25.5 61t61.5 25t61.5 -25t25.5 -61t-25.5 -61.5t-61.5 -25.5t-61.5 25.5zM265.5 19.5q-25.5 25.5 -25.5 61.5t25.5 61t61.5 25t61.5 -25t25.5 -61t-25.5 -61.5t-61.5 -25.5t-61.5 25.5zM507.5 19.5q-25.5 25.5 -25.5 61.5t25.5 61
t61.5 25t61.5 -25t25.5 -61t-25.5 -61.5t-61.5 -25.5t-61.5 25.5z" />
    <glyph glyph-name="perthousand" unicode="&#x2030;" horiz-adv-x="1093" 
d="M105 39l561 662l67 -58l-561 -662zM105 400.5q-45 42.5 -45 107.5q0 51 25.5 95t71.5 70.5t105 26.5q68 0 112 -42.5t44 -108.5q0 -53 -26 -96.5t-71.5 -69t-99.5 -25.5q-71 0 -116 42.5zM286.5 480.5q22.5 24.5 22.5 59.5q0 27 -16.5 44.5t-41.5 17.5q-36 0 -59 -23.5
t-23 -59.5q0 -28 17.5 -45.5t43.5 -17.5q34 0 56.5 24.5zM465 26.5q-45 42.5 -45 107.5q0 51 25.5 95t71.5 70.5t105 26.5q38 0 68 -16.5t47 -45.5q20 27 57.5 44.5t78.5 17.5q68 0 112 -42.5t44 -108.5q0 -53 -26 -96.5t-71.5 -69t-99.5 -25.5q-38 0 -70.5 17t-50.5 46
q-20 -27 -55 -45t-75 -18q-71 0 -116 42.5zM646.5 106.5q22.5 24.5 22.5 59.5q0 27 -16.5 44.5t-41.5 17.5q-36 0 -59 -23.5t-23 -59.5q0 -28 17.5 -45.5t43.5 -17.5q34 0 56.5 24.5zM897 106.5q23 24.5 23 59.5q0 28 -16.5 45t-42.5 17q-36 0 -58.5 -23.5t-22.5 -59.5
q0 -28 17.5 -45.5t42.5 -17.5q34 0 57 24.5z" />
    <glyph glyph-name="uni2031" unicode="&#x2031;" horiz-adv-x="1346" 
d="M105 39l561 662l67 -58l-561 -662zM105 400.5q-45 42.5 -45 107.5q0 51 25.5 95t71.5 70.5t105 26.5q68 0 112 -42.5t44 -108.5q0 -53 -26 -96.5t-71.5 -69t-99.5 -25.5q-71 0 -116 42.5zM286.5 480.5q22.5 24.5 22.5 59.5q0 27 -16.5 44.5t-41.5 17.5q-36 0 -59 -23.5
t-23 -59.5q0 -28 17.5 -45.5t43.5 -17.5q34 0 56.5 24.5zM465 26.5q-45 42.5 -45 107.5q0 51 25.5 95t71.5 70.5t105 26.5q38 0 68 -16.5t47 -45.5q20 27 57.5 44.5t78.5 17.5q38 0 67.5 -16.5t47.5 -45.5q19 27 57 44.5t79 17.5q68 0 112 -42.5t44 -108.5
q0 -53 -26.5 -96.5t-71.5 -69t-99 -25.5q-38 0 -71 17t-50 46q-20 -27 -55 -45t-75 -18q-38 0 -70.5 17t-50.5 46q-20 -27 -55 -45t-75 -18q-71 0 -116 42.5zM646.5 106.5q22.5 24.5 22.5 59.5q0 27 -16.5 44.5t-41.5 17.5q-36 0 -59 -23.5t-23 -59.5q0 -28 17.5 -45.5
t43.5 -17.5q34 0 56.5 24.5zM897 106.5q23 24.5 23 59.5q0 28 -16.5 45t-42.5 17q-36 0 -58.5 -23.5t-22.5 -59.5q0 -28 17.5 -45.5t42.5 -17.5q34 0 57 24.5zM1148 106.5q23 24.5 23 59.5q0 27 -17 44.5t-42 17.5q-36 0 -59 -23.5t-23 -59.5q0 -28 17.5 -45.5t43.5 -17.5
q34 0 57 24.5z" />
    <glyph glyph-name="guilsinglleft" unicode="&#x2039;" horiz-adv-x="387" 
d="M194 41l-171 230l252 230l67 -74l-181 -163l117 -157z" />
    <glyph glyph-name="guilsinglright" unicode="&#x203a;" horiz-adv-x="387" 
d="M159 501l172 -230l-253 -230l-66 74l180 163l-116 157z" />
    <glyph glyph-name="exclamdbl" unicode="&#x203c;" horiz-adv-x="501" 
d="M94 510l36 206h135l-36 -206l-60 -264h-109zM25 19.5q-25 25.5 -25 61.5t25 61t61 25t61.5 -25t25.5 -61t-25.5 -61.5t-61.5 -25.5t-61 25.5zM326 510l36 206h135l-36 -206l-60 -264h-109zM257 19.5q-25 25.5 -25 61.5t25 61t61 25t61.5 -25t25.5 -61t-25.5 -61.5
t-61.5 -25.5t-61 25.5z" />
    <glyph glyph-name="uni2042" unicode="&#x2042;" horiz-adv-x="914" 
d="M325 429l83 91l-2 9l-92 35l40 89l96 -37l8 4l19 107h94l-19 -107l7 -4l97 35l28 -86l-112 -42l-5 -9l49 -87l-82 -52l-52 92h-9l-79 -93zM20 27l83 91l-2 9l-92 35l40 89l96 -37l9 4l19 107h93l-19 -107l7 -4l97 35l29 -86l-113 -42l-5 -9l50 -87l-82 -52l-53 92h-8
l-80 -93zM486 27l82 91l-1 9l-92 35l39 89l97 -37l8 4l19 107h93l-19 -107l7 -4l97 35l29 -86l-113 -42l-5 -9l50 -87l-82 -52l-52 92h-9l-80 -93z" />
    <glyph glyph-name="uni2043" unicode="&#x2043;" horiz-adv-x="416" 
d="M346 372l-22 -124h-272l22 124h272z" />
    <glyph glyph-name="fraction" unicode="&#x2044;" horiz-adv-x="192" 
d="M355 731l70 -54l-587 -693l-71 55z" />
    <glyph glyph-name="uni2047" unicode="&#x2047;" horiz-adv-x="981" 
d="M173 279q10 52 33.5 86t86.5 77q35 24 55 47t20 51q0 31 -22 50t-59 19q-40 0 -67.5 -23t-40.5 -59l-106 48q22 66 83 111.5t147 45.5q57 0 102 -22t70 -61t25 -88q0 -55 -30.5 -97t-89.5 -89q-40 -33 -56 -54.5t-23 -57.5l-3 -17h-131zM140.5 19.5
q-25.5 25.5 -25.5 61.5t25.5 61t61.5 25t61 -25t25 -61t-25 -61.5t-61 -25.5t-61.5 25.5zM640 279q10 52 33.5 86t86.5 77q35 24 55 47t20 51q0 31 -22 50t-59 19q-40 0 -67.5 -23t-40.5 -59l-106 48q22 66 83 111.5t147 45.5q57 0 102 -22t70 -61t25 -88q0 -55 -30.5 -97
t-89.5 -89q-40 -33 -56 -54.5t-23 -57.5l-3 -17h-131zM607.5 19.5q-25.5 25.5 -25.5 61.5t25.5 61t61.5 25t61 -25t25 -61t-25 -61.5t-61 -25.5t-61.5 25.5z" />
    <glyph glyph-name="uni2048" unicode="&#x2048;" horiz-adv-x="748" 
d="M173 279q10 52 33.5 86t86.5 77q35 24 55 47t20 51q0 31 -22 50t-59 19q-40 0 -67.5 -23t-40.5 -59l-106 48q22 66 83 111.5t147 45.5q57 0 102 -22t70 -61t25 -88q0 -55 -30.5 -97t-89.5 -89q-40 -33 -56 -54.5t-23 -57.5l-3 -17h-131zM140.5 19.5
q-25.5 25.5 -25.5 61.5t25.5 61t61.5 25t61 -25t25 -61t-25 -61.5t-61 -25.5t-61.5 25.5zM572 510l36 206h135l-36 -206l-60 -264h-109zM503 19.5q-25 25.5 -25 61.5t25 61t61 25t61.5 -25t25.5 -61t-25.5 -61.5t-61.5 -25.5t-61 25.5z" />
    <glyph glyph-name="uni2049" unicode="&#x2049;" horiz-adv-x="746" 
d="M406 279q10 52 33.5 86t86.5 77q35 24 55 47t20 51q0 31 -22 50t-59 19q-40 0 -67.5 -23t-40.5 -59l-106 48q22 66 83 111.5t147 45.5q57 0 102 -22t70 -61t25 -88q0 -55 -30.5 -97t-89.5 -89q-40 -33 -56 -54.5t-23 -57.5l-3 -17h-131zM373.5 19.5
q-25.5 25.5 -25.5 61.5t25.5 61t61.5 25t61 -25t25 -61t-25 -61.5t-61 -25.5t-61.5 25.5zM94 510l36 206h135l-36 -206l-60 -264h-109zM25 19.5q-25 25.5 -25 61.5t25 61t61 25t61.5 -25t25.5 -61t-25.5 -61.5t-61.5 -25.5t-61 25.5z" />
    <glyph glyph-name="uni204E" unicode="&#x204e;" horiz-adv-x="428" 
d="M11 41l90 99l-2 9l-94 36l35 88l102 -39l9 3l20 114h95l-21 -114l8 -3l104 35l26 -86l-116 -43l-5 -9l56 -97l-85 -52l-56 100h-8l-88 -100z" />
    <glyph glyph-name="uni2051" unicode="&#x2051;" horiz-adv-x="448" 
d="M91 429l82 91l-1 9l-92 35l39 89l97 -37l8 4l19 107h93l-19 -107l7 -4l97 35l29 -86l-113 -42l-5 -9l50 -87l-82 -52l-52 92h-9l-80 -93zM20 31l83 91l-2 9l-92 35l40 89l96 -37l9 4l19 107h93l-19 -107l7 -4l97 35l29 -86l-113 -42l-5 -9l50 -87l-82 -52l-53 92h-8
l-80 -93z" />
    <glyph glyph-name="uni2055" unicode="&#x2055;" horiz-adv-x="685" 
d="M291 202l-115 -115l-72 72l115 115h-163v102h163l-115 115l72 72l115 -115v163h103v-163l114 115l73 -72l-116 -115h164v-102h-164l116 -115l-73 -72l-114 115v-163h-103v163z" />
    <glyph glyph-name="uni2074" unicode="&#x2074;" horiz-adv-x="362" 
d="M208 415h-172l11 64l213 237h87l-40 -227h47l-13 -74h-47l-12 -65h-86zM221 489l19 104h-8l-91 -104h80z" />
    <glyph glyph-name="franc" unicode="&#x20a3;" horiz-adv-x="570" 
d="M49 114h-68l14 76h68l87 494h441l-21 -116h-318l-30 -176h286l-21 -116h-286l-15 -86h128l-14 -76h-128l-20 -114h-123z" />
    <glyph glyph-name="lira" unicode="&#x20a4;" horiz-adv-x="548" 
d="M-3 106q78 30 106 83h-101l13 76h104v3q-1 32 -9 58h-84l13 76h48q-9 33 -9 79q0 57 30.5 107.5t85.5 81t126 30.5q85 0 133 -43t64 -105l-123 -47q-7 35 -28 57t-60 22q-46 0 -75 -30.5t-29 -77.5q0 -33 9 -74h156l-13 -76h-121q6 -34 6 -55l-1 -6h105l-13 -76h-110
q-20 -37 -58 -66l3 -7h150q55 0 83 59l93 -44q-28 -67 -72 -99t-119 -32h-321z" />
    <glyph glyph-name="uni20A9" unicode="&#x20a9;" horiz-adv-x="1002" 
d="M128 326h-102l13 76h82l-25 282h142l20 -282h93l136 282h139l40 -282h92l119 282h145l-122 -282h72l-13 -76h-92l-140 -326h-139l-40 326h-101l-156 -326h-134zM539 402l-6 108h-8l-42 -108h56zM274 224l42 102h-54l4 -102h8zM688 225l39 101h-53l7 -101h7z" />
    <glyph glyph-name="dong" unicode="&#x20ab;" horiz-adv-x="587" 
d="M106 10q-46 26 -73.5 76t-27.5 118q0 77 33.5 142.5t94.5 104.5t140 39q52 0 89.5 -22t56.5 -53h8l3 70l9 54h-140l13 74h140l13 71h130l-13 -71h60l-13 -74h-60l-95 -539h-122l10 59h-8q-24 -33 -62.5 -54t-86.5 -21q-53 0 -99 26zM327 126.5q33 21.5 51 56.5t18 74
q0 51 -32 81.5t-80 30.5q-42 0 -75.5 -20.5t-52.5 -55.5t-19 -75q0 -53 34 -83t81 -30q42 0 75 21.5zM-16 -84h476l-17 -96h-475z" />
    <glyph glyph-name="Euro" unicode="&#x20ac;" horiz-adv-x="653" 
d="M205 46q-80 62 -103 169h-102l16 94h78q1 29 8 66h-74l16 94h87q48 104 145.5 167.5t228.5 63.5q92 0 160 -49l-71 -106q-46 31 -108 31q-66 0 -119 -28.5t-88 -78.5h209l-16 -94h-238q-8 -34 -8 -66h234l-16 -94h-200q21 -52 65 -79.5t99 -27.5q39 0 66.5 8.5t57.5 25.5
l49 -107q-81 -51 -186 -51q-110 0 -190 62z" />
    <glyph glyph-name="uni20AE" unicode="&#x20ae;" horiz-adv-x="557" 
d="M171 100l-125 -70h-7l20 109l132 75l10 56l-132 -75l20 114l132 75l32 184h-193l21 116h509l-21 -116h-193l-20 -113l125 71h7l-19 -110l-133 -75l-9 -56l132 76l-20 -114l-133 -75l-30 -172h-123z" />
    <glyph glyph-name="uni20B1" unicode="&#x20b1;" horiz-adv-x="659" 
d="M113 434h-76l14 76h75l31 174h233q91 0 149.5 -47t66.5 -127h63l-14 -76h-55q-18 -83 -88.5 -129t-167.5 -46h-139l-46 -259h-123zM481 510q-8 27 -30.5 42.5t-58.5 15.5h-133l-11 -58h233zM361 375q37 0 67.5 15.5t45.5 43.5h-239l-10 -59h136z" />
    <glyph glyph-name="uni20B8" unicode="&#x20b8;" horiz-adv-x="557" 
d="M81 684h509l-20 -112h-509zM224 400h-193l20 112h509l-20 -112h-193l-71 -400h-123z" />
    <glyph glyph-name="uni20B9" unicode="&#x20b9;" horiz-adv-x="581" 
d="M88 259l21 117h163q43 0 72 15t42 45h-349l14 76h343q-9 27 -31.5 43.5t-57.5 16.5h-244l20 112h533l-13 -76h-122q35 -44 39 -96h66l-14 -76h-57q-18 -82 -83.5 -126.5t-153.5 -47.5h-9l-2 -8l197 -246l-1 -8h-164z" />
    <glyph glyph-name="uni20BA" unicode="&#x20ba;" horiz-adv-x="550" 
d="M106 164l-129 -73l20 114l129 73l13 76l-129 -73l20 114l130 73l38 216h122l-25 -145l135 77l-20 -114l-135 -77l-13 -76l135 78l-20 -114l-136 -78l-22 -123q66 6 113 47t57 102h119q-14 -77 -57 -136.5t-110 -92t-149 -32.5h-115z" />
    <glyph glyph-name="uni20BD" unicode="&#x20bd;" horiz-adv-x="609" 
d="M56 114h-75l14 76h75l12 69h-76l20 112h76l55 313h234q98 0 157 -52.5t59 -142.5q0 -71 -34 -123t-94 -79.5t-135 -27.5h-139l-12 -69h131l-14 -76h-131l-20 -114h-123zM361 375q53 0 89 28t36 78q0 39 -25.5 63t-70.5 24h-131l-34 -193h136z" />
    <glyph glyph-name="uni2103" unicode="&#x2103;" horiz-adv-x="969" 
d="M91 474q-35 32 -35 82q0 63 41.5 103.5t104.5 40.5q49 0 84 -32t35 -82q0 -63 -41.5 -103.5t-104.5 -40.5q-49 0 -84 32zM439.5 25q-70.5 41 -109 111.5t-38.5 156.5q0 108 52.5 201.5t147 149.5t213.5 56q159 0 245 -115l-103 -86q-30 39 -66.5 58t-94.5 19
q-73 0 -133 -36t-94 -98t-34 -137q0 -91 52 -144t140 -53q61 0 105 21t88 67l79 -92q-60 -63 -129.5 -91.5t-157.5 -28.5q-92 0 -162.5 41zM223.5 536q16.5 17 16.5 41q0 20 -12.5 33t-32.5 13q-24 0 -41 -16.5t-17 -41.5q0 -21 13 -33.5t33 -12.5q24 0 40.5 17z" />
    <glyph glyph-name="uni2109" unicode="&#x2109;" horiz-adv-x="833" 
d="M102 474q-35 32 -35 82q0 63 41.5 103.5t104.5 40.5q49 0 84 -32t35 -82q0 -63 -41.5 -103.5t-104.5 -40.5q-49 0 -84 32zM423 684h435l-22 -124h-305l-28 -164h274l-22 -124h-274l-49 -272h-130zM234.5 536q16.5 17 16.5 41q0 20 -12.5 33t-32.5 13q-24 0 -41 -16.5
t-17 -41.5q0 -21 13 -33.5t33 -12.5q24 0 40.5 17z" />
    <glyph glyph-name="uni2113" unicode="&#x2113;" horiz-adv-x="455" 
d="M109.5 28.5q-42.5 36.5 -42.5 104.5q0 9 5 46l16 89h-88l18 107h89l32 183q14 80 62 127t121 47q64 0 101 -41t37 -115q0 -73 -32.5 -137t-89 -107t-125.5 -57l-17 -94q-2 -12 -2 -21q0 -25 14 -38t39 -13q23 0 50 15l30 -108q-49 -24 -108 -24q-67 0 -109.5 36.5z
M312.5 462q28.5 51 28.5 111q0 52 -31 52q-17 0 -28.5 -15t-16.5 -43l-32 -178q51 22 79.5 73z" />
    <glyph glyph-name="uni2114" unicode="&#x2114;" horiz-adv-x="847" 
d="M442.5 5q-39.5 21 -60.5 54h-8l-10 -59h-122l100 572h-85l-101 -572h-130l100 572h-64l13 72h64l13 72h130l-13 -72h85l13 72h131l-13 -72h131l-12 -72h-132l-13 -71l-20 -70h8q23 32 62.5 53.5t93.5 21.5q56 0 102 -28t73 -79.5t27 -120.5q0 -81 -37 -148.5t-99 -106.5
t-136 -39q-51 0 -90.5 21zM597 126.5q35 21.5 55.5 57.5t20.5 79q0 55 -31 88.5t-84 33.5q-46 0 -81 -22.5t-54 -59.5t-19 -80q0 -55 33.5 -86.5t83.5 -31.5q41 0 76 21.5z" />
    <glyph glyph-name="uni2116" unicode="&#x2116;" horiz-adv-x="1093" 
d="M790.5 432.5q-43.5 42.5 -43.5 110.5q0 50 23.5 93.5t68 69.5t104.5 26q67 0 110.5 -42t43.5 -108q0 -56 -26.5 -100t-72 -68t-99.5 -24q-65 0 -108.5 42.5zM135 716h150l210 -480h8l17 138l60 342h134l-127 -716h-134l-222 507h-8l-16 -138l-66 -369h-133zM977.5 503
q25.5 27 25.5 69q0 33 -19 53.5t-48 20.5q-42 0 -68 -29t-26 -68q0 -34 19.5 -53.5t50.5 -19.5q40 0 65.5 27zM741 323h280l-15 -85h-280z" />
    <glyph glyph-name="uni2117" unicode="&#x2117;" horiz-adv-x="532" 
d="M151 303q-53 31 -84 84t-31 115t31 115t84 84t115 31t115 -31t84 -84t31 -115t-31 -115t-84 -84t-115 -31t-115 31zM357.5 344.5q41.5 24.5 66 66.5t24.5 91q0 50 -24.5 91.5t-66 66t-91.5 24.5q-49 0 -91 -24.5t-66.5 -66t-24.5 -91.5q0 -49 25 -90.5t66.5 -66.5
t90.5 -25q50 0 91.5 24.5zM197 615h96q29 0 51 -21t22 -51t-22 -51t-51 -21h-50v-82h-46v226zM289 515q13 0 22 8t9 20q0 11 -8.5 19.5t-21.5 8.5h-47v-56h46z" />
    <glyph glyph-name="prescription" unicode="&#x211e;" horiz-adv-x="726" 
d="M168 -152l197 225l-100 196h-74l-48 -269h-135l127 716h249q65 0 114 -25t75.5 -69.5t26.5 -100.5q0 -61 -27.5 -109.5t-73.5 -80t-100 -42.5l-2 -7l57 -109l101 117h139l-2 -8l-186 -211l115 -223l-1 -8h-135l-66 130l-110 -130h-143zM338 396q53 0 88.5 29.5t35.5 78.5
q0 38 -23.5 61t-66.5 23h-125l-34 -192h125z" />
    <glyph glyph-name="uni2120" unicode="&#x2120;" horiz-adv-x="498" 
d="M165 600q21 -16 21 -47q0 -33 -26 -50t-56 -17q-29 0 -54 16t-34 44l41 18q5 -15 19 -25.5t28 -10.5t25 7t11 18q0 12 -12 20t-40 16q-29 7 -46.5 24t-17.5 42q0 29 23.5 47t56.5 18q25 0 47.5 -14.5t30.5 -37.5l-40 -16q-2 8 -13 17t-25 9q-15 0 -24.5 -6.5t-9.5 -16.5
q0 -16 39 -28q35 -11 56 -27zM430 608l2 44h-2l-66 -162h-32l-66 162h-2l2 -44v-118h-44v226h62l63 -162h2l63 162h62v-226h-44v118z" />
    <glyph glyph-name="trademark" unicode="&#x2122;" horiz-adv-x="501" 
d="M77 674h-69v42h181v-42h-66v-184h-46v184zM433 608l2 44h-2l-66 -162h-32l-66 162h-2l2 -44v-118h-44v226h62l63 -162h2l63 162h62v-226h-44v118z" />
    <glyph glyph-name="Omega" unicode="&#x2126;" horiz-adv-x="816" 
d="M16 117h142l2 8q-47 39 -79 98.5t-32 139.5q0 97 51 182t143.5 136t210.5 51q96 0 168.5 -38t112 -104t39.5 -149q0 -199 -200 -316l-2 -8h135l-20 -117h-299l29 164q61 16 111 52.5t78.5 88.5t28.5 111q0 57 -25 99.5t-69.5 65.5t-100.5 23q-74 0 -132.5 -33t-91 -87.5
t-32.5 -118.5q0 -76 39.5 -128t100.5 -73l-29 -164h-298z" />
    <glyph glyph-name="estimated" unicode="&#x212e;" horiz-adv-x="784" 
d="M218.5 33q-82.5 49 -128.5 134.5t-46 190.5q0 100 44.5 185.5t124 137t179.5 51.5q104 0 182.5 -46.5t122 -131t43.5 -196.5q0 -14 -1 -22h-551v-185q37 -52 95.5 -77.5t123.5 -25.5q81 0 144 37t98 119l68 -28q-34 -82 -115.5 -137t-195.5 -55q-105 0 -187.5 49z
M508.5 648.5q-53.5 19.5 -116.5 19.5q-61 0 -114 -23t-90 -68v-181h408v194q-34 39 -87.5 58.5z" />
    <glyph glyph-name="onethird" unicode="&#x2153;" horiz-adv-x="844" 
d="M189 601l-54 -38l-41 65l123 88h81l-65 -366h-89zM665 731l70 -54l-587 -693l-71 55zM501.5 18.5q-36.5 26.5 -45.5 74.5l78 28q14 -52 60 -52q22 0 39 13t17 34q0 19 -14.5 29t-39.5 10h-35l13 70h34q24 0 40.5 10.5t16.5 29.5q0 14 -11.5 23t-26.5 9q-21 0 -34.5 -10.5
t-20.5 -25.5l-73 32q18 37 54 59t87 22q50 0 82.5 -26.5t32.5 -66.5q0 -30 -16.5 -52t-44.5 -36q21 -11 33 -30t12 -43q0 -56 -43 -92t-109 -36q-49 0 -85.5 26.5z" />
    <glyph glyph-name="twothirds" unicode="&#x2154;" horiz-adv-x="892" 
d="M66 413l150 129q22 17 36 33t14 34q0 16 -11 26t-29 10q-39 0 -54 -48l-75 29q14 46 51.5 72t91.5 26t86.5 -28.5t32.5 -72.5q0 -35 -17.5 -59.5t-58.5 -60.5q-12 -9 -44 -37q-10 -9 -24 -21t-20 -16h135l-15 -79h-261zM714 731l70 -54l-587 -693l-71 55zM541.5 18.5
q-36.5 26.5 -45.5 74.5l78 28q14 -52 60 -52q22 0 39 13t17 34q0 19 -14.5 29t-39.5 10h-35l13 70h34q24 0 40.5 10.5t16.5 29.5q0 14 -11.5 23t-26.5 9q-21 0 -34.5 -10.5t-20.5 -25.5l-73 32q18 37 54 59t87 22q50 0 82.5 -26.5t32.5 -66.5q0 -30 -16.5 -52t-44.5 -36
q21 -11 33 -30t12 -43q0 -56 -43 -92t-109 -36q-49 0 -85.5 26.5z" />
    <glyph glyph-name="oneeighth" unicode="&#x215b;" horiz-adv-x="834" 
d="M189 601l-54 -38l-41 65l123 88h81l-65 -366h-89zM661 731l70 -54l-587 -693l-71 55zM483.5 20.5q-35.5 28.5 -35.5 74.5q0 32 20.5 59.5t53.5 41.5q-14 10 -23.5 26t-9.5 36q0 32 18 58.5t50.5 42t72.5 15.5q48 0 81 -26.5t33 -67.5q0 -57 -57 -88q18 -12 29 -31.5
t11 -44.5q0 -55 -43 -89.5t-110 -34.5q-55 0 -90.5 28.5zM643 236.5q13 11.5 13 30.5q0 14 -10.5 23t-25.5 9q-18 0 -31.5 -11t-13.5 -30q0 -15 10 -24t26 -9q19 0 32 11.5zM623.5 80q16.5 13 16.5 37q0 18 -13 29t-33 11q-23 0 -39.5 -14.5t-16.5 -37.5q0 -17 13 -27.5
t32 -10.5q24 0 40.5 13z" />
    <glyph glyph-name="threeeighths" unicode="&#x215c;" horiz-adv-x="858" 
d="M110 368.5q-36 26.5 -45 74.5l77 28q15 -52 61 -52q22 0 39 13t17 34q0 19 -14.5 29t-39.5 10h-35l13 70h34q24 0 40.5 10.5t16.5 29.5q0 14 -11.5 23t-26.5 9q-38 0 -56 -36l-72 32q17 37 53 59t88 22q50 0 82.5 -26.5t32.5 -66.5q0 -30 -16.5 -52t-44.5 -36
q20 -11 32 -30.5t12 -42.5q0 -56 -42.5 -92t-109.5 -36q-49 0 -85 26.5zM694 731l70 -54l-587 -693l-71 55zM512.5 20.5q-35.5 28.5 -35.5 74.5q0 32 20.5 59.5t53.5 41.5q-14 10 -23.5 26t-9.5 36q0 32 18 58.5t50.5 42t72.5 15.5q48 0 81 -26.5t33 -67.5q0 -57 -57 -88
q18 -12 29 -31.5t11 -44.5q0 -55 -43 -89.5t-110 -34.5q-55 0 -90.5 28.5zM672 236.5q13 11.5 13 30.5q0 14 -10.5 23t-25.5 9q-18 0 -31.5 -11t-13.5 -30q0 -15 10 -24t26 -9q19 0 32 11.5zM652.5 80q16.5 13 16.5 37q0 18 -13 29t-33 11q-23 0 -39.5 -14.5t-16.5 -37.5
q0 -17 13 -27.5t32 -10.5q24 0 40.5 13z" />
    <glyph glyph-name="fiveeighths" unicode="&#x215d;" horiz-adv-x="868" 
d="M110.5 366q-33.5 23 -45.5 68l78 29q5 -20 19.5 -31.5t36.5 -11.5q24 0 41.5 16.5t17.5 42.5q0 21 -12.5 33t-31.5 12q-33 0 -55 -29l-67 32l56 189h219l-12 -72h-154l-22 -66q25 17 60 17q46 0 76.5 -28t30.5 -80q0 -41 -20.5 -74t-56 -51.5t-76.5 -18.5q-49 0 -82.5 23
zM691 731l70 -54l-587 -693l-71 55zM512.5 20.5q-35.5 28.5 -35.5 74.5q0 32 20.5 59.5t53.5 41.5q-14 10 -23.5 26t-9.5 36q0 32 18 58.5t50.5 42t72.5 15.5q48 0 81 -26.5t33 -67.5q0 -57 -57 -88q18 -12 29 -31.5t11 -44.5q0 -55 -43 -89.5t-110 -34.5q-55 0 -90.5 28.5z
M672 236.5q13 11.5 13 30.5q0 14 -10.5 23t-25.5 9q-18 0 -31.5 -11t-13.5 -30q0 -15 10 -24t26 -9q19 0 32 11.5zM652.5 80q16.5 13 16.5 37q0 18 -13 29t-33 11q-23 0 -39.5 -14.5t-16.5 -37.5q0 -17 13 -27.5t32 -10.5q24 0 40.5 13z" />
    <glyph glyph-name="seveneighths" unicode="&#x215e;" horiz-adv-x="789" 
d="M256 635h-156l14 81h261l-13 -77l-225 -304l-67 48zM601 731l70 -54l-587 -693l-71 55zM438.5 20.5q-35.5 28.5 -35.5 74.5q0 32 20.5 59.5t53.5 41.5q-14 10 -23.5 26t-9.5 36q0 32 18 58.5t50.5 42t72.5 15.5q48 0 81 -26.5t33 -67.5q0 -57 -57 -88q18 -12 29 -31.5
t11 -44.5q0 -55 -43 -89.5t-110 -34.5q-55 0 -90.5 28.5zM598 236.5q13 11.5 13 30.5q0 14 -10.5 23t-25.5 9q-18 0 -31.5 -11t-13.5 -30q0 -15 10 -24t26 -9q19 0 32 11.5zM578.5 80q16.5 13 16.5 37q0 18 -13 29t-33 11q-23 0 -39.5 -14.5t-16.5 -37.5q0 -17 13 -27.5
t32 -10.5q24 0 40.5 13z" />
    <glyph glyph-name="uni2160" unicode="&#x2160;" horiz-adv-x="487" 
d="M-17 119h153l79 446h-154l21 119h439l-22 -119h-154l-78 -446h154l-21 -119h-438z" />
    <glyph glyph-name="uni2161" unicode="&#x2161;" horiz-adv-x="747" 
d="M-17 119h153l79 446h-154l21 119h699l-22 -119h-154l-78 -446h154l-21 -119h-698zM396 119l79 446h-130l-78 -446h129z" />
    <glyph glyph-name="uni2162" unicode="&#x2162;" horiz-adv-x="1007" 
d="M-17 119h153l79 446h-154l21 119h959l-22 -119h-154l-78 -446h154l-21 -119h-958zM396 119l79 446h-130l-78 -446h129zM656 119l79 446h-130l-78 -446h129z" />
    <glyph glyph-name="uni2163" unicode="&#x2163;" horiz-adv-x="1029" 
d="M-17 119h153l79 446h-154l21 119h981l-22 -119h-124l-220 -446h266l-21 -119h-980zM493 119l-64 446h-84l-78 -446h226zM610 190l35 85l137 290h-218l36 -290l2 -85h8z" />
    <glyph glyph-name="uni2164" unicode="&#x2164;" horiz-adv-x="785" 
d="M-17 119h266l-64 446h-124l21 119h737l-22 -119h-124l-220 -446h266l-21 -119h-736zM366 190l35 85l137 290h-218l36 -290l2 -85h8z" />
    <glyph glyph-name="uni2165" unicode="&#x2165;" horiz-adv-x="1057" 
d="M-17 119h266l-64 446h-124l21 119h981l-22 -119h-154l-78 -446h154l-21 -119h-980zM366 190l35 85l137 290h-218l36 -290l2 -85h8zM678 119l79 446h-84l-220 -446h225z" />
    <glyph glyph-name="uni2166" unicode="&#x2166;" horiz-adv-x="1297" 
d="M-17 119h266l-64 446h-124l21 119h1241l-22 -119h-154l-78 -446h154l-21 -119h-1240zM366 190l35 85l137 290h-218l36 -290l2 -85h8zM678 119l79 446h-84l-220 -446h225zM938 119l79 446h-130l-78 -446h129z" />
    <glyph glyph-name="uni2167" unicode="&#x2167;" horiz-adv-x="1549" 
d="M-17 119h266l-64 446h-124l21 119h1501l-22 -119h-154l-78 -446h154l-21 -119h-1500zM366 190l35 85l137 290h-218l36 -290l2 -85h8zM678 119l79 446h-84l-220 -446h225zM938 119l79 446h-130l-78 -446h129zM1198 119l79 446h-130l-78 -446h129z" />
    <glyph glyph-name="uni2168" unicode="&#x2168;" horiz-adv-x="975" 
d="M-17 119h153l79 446h-154l21 119h927l-22 -119h-119l-188 -226l107 -220h122l-21 -119h-926zM347 119l185 226l-108 220h-79l-78 -446h80zM626 440l28 42l69 83h-155l40 -83l12 -42h6zM642 119l-35 72l-13 45h-7l-32 -45l-60 -72h147z" />
    <glyph glyph-name="uni2169" unicode="&#x2169;" horiz-adv-x="730" 
d="M-17 119h119l185 226l-108 220h-118l21 119h682l-22 -119h-119l-188 -226l107 -220h122l-21 -119h-681zM381 440l28 42l69 83h-155l40 -83l12 -42h6zM397 119l-35 72l-13 45h-7l-32 -45l-60 -72h147z" />
    <glyph glyph-name="uni216A" unicode="&#x216a;" horiz-adv-x="975" 
d="M-17 119h119l185 226l-108 220h-118l21 119h927l-22 -119h-154l-78 -446h154l-21 -119h-926zM381 440l28 42l69 83h-155l40 -83l12 -42h6zM624 119l79 446h-80l-188 -226l107 -220h82zM397 119l-35 72l-13 45h-7l-32 -45l-60 -72h147z" />
    <glyph glyph-name="uni216B" unicode="&#x216b;" horiz-adv-x="1235" 
d="M-17 119h119l185 226l-108 220h-118l21 119h1187l-22 -119h-154l-78 -446h154l-21 -119h-1186zM381 440l28 42l69 83h-155l40 -83l12 -42h6zM624 119l79 446h-80l-188 -226l107 -220h82zM884 119l79 446h-130l-78 -446h129zM397 119l-35 72l-13 45h-7l-32 -45l-60 -72
h147z" />
    <glyph glyph-name="uni216C" unicode="&#x216c;" horiz-adv-x="661" 
d="M-17 119h129l79 446h-130l21 119h391l-22 -119h-130l-78 -446h217l24 132h131l-45 -251h-608z" />
    <glyph glyph-name="uni216D" unicode="&#x216d;" horiz-adv-x="746" 
d="M188 24q-72 40 -112 112t-40 166q0 100 54 192t147.5 149t207.5 57q110 0 175 -57h8l8 41h114l-35 -201h-114q-18 46 -60.5 71.5t-105.5 25.5q-74 0 -136.5 -37.5t-98.5 -100.5t-36 -134q0 -64 26 -110t71 -70t100 -24q67 0 123.5 29.5t106.5 91.5l94 -71
q-75 -92 -153 -131t-180 -39q-92 0 -164 40z" />
    <glyph glyph-name="uni216E" unicode="&#x216e;" horiz-adv-x="757" 
d="M105 119l78 446h-122l21 119h325q92 0 162.5 -39t109 -107t38.5 -154q0 -117 -54 -204t-148 -133.5t-210 -46.5h-343l21 119h122zM459 150q63 31 99 88t36 131q0 90 -52 143t-151 53h-85l-78 -446h91q77 0 140 31z" />
    <glyph glyph-name="uni216F" unicode="&#x216f;" horiz-adv-x="1009" 
d="M-17 119h125l79 446h-126l21 119h289l100 -480h8l266 480h298l-22 -119h-126l-78 -446h126l-21 -119h-335l21 119h86l42 237l28 115h-8l-266 -471h-97l-100 471h-8l-12 -115l-42 -237h86l-21 -119h-334z" />
    <glyph glyph-name="uni2180" unicode="&#x2180;" horiz-adv-x="1121" 
d="M182.5 39q-70.5 39 -109.5 107t-39 154q0 117 54 204t148 133.5t211 46.5h301q91 0 161.5 -39t109.5 -107t39 -154q0 -117 -54 -204t-148 -133.5t-210 -46.5h-301q-92 0 -162.5 39zM445 119l79 446h-92q-77 0 -139.5 -31t-98.5 -88t-36 -131q0 -90 52 -143t151 -53h84z
M660 119q77 0 139.5 31t98.5 88t36 131q0 90 -51.5 143t-150.5 53h-85l-79 -446h92z" />
    <glyph glyph-name="uni2181" unicode="&#x2181;" horiz-adv-x="756" 
d="M104 119l78 446h-122l21 119h325q92 0 162.5 -39t109 -107t38.5 -154q0 -117 -54 -204t-148 -133.5t-210 -46.5h-343l21 119h122zM458 150q63 31 99 88t36 131q0 90 -52 143t-151 53h-85l-8 -50h20q75 0 118.5 -43t43.5 -112q0 -54 -26 -97.5t-75.5 -68.5t-115.5 -25h-26
l-9 -50h91q77 0 140 31zM251 259h33q41 0 67 25t26 68q0 34 -18.5 53.5t-53.5 19.5h-25z" />
    <glyph glyph-name="uni2182" unicode="&#x2182;" horiz-adv-x="1097" 
d="M182.5 39q-70.5 39 -109.5 107t-39 154q0 117 54 204t148 133.5t211 46.5h301q91 0 161.5 -39t109.5 -107t39 -154q0 -117 -54 -204t-148 -133.5t-210 -46.5h-301q-92 0 -162.5 39zM445 119l9 50h-20q-75 0 -118.5 43t-43.5 112q0 54 26 97.5t75 68.5t115 25h28l8 50h-92
q-77 0 -139.5 -31t-98.5 -88t-36 -131q0 -90 52 -143t151 -53h84zM660 119q77 0 139.5 31t98.5 88t36 131q0 90 -51.5 143t-150.5 53h-85l-9 -50h20q75 0 119 -43t44 -112q0 -54 -26 -97.5t-75.5 -68.5t-115.5 -25h-27l-9 -50h92zM470 259l29 166h-32q-41 0 -67.5 -25
t-26.5 -68q0 -34 18.5 -53.5t53.5 -19.5h25zM626 259q41 0 67 25t26 68q0 34 -18.5 53.5t-53.5 19.5h-25l-29 -166h33z" />
    <glyph glyph-name="arrowleft" unicode="&#x2190;" horiz-adv-x="1123" 
d="M48 310l239 239v-177h780v-124h-780v-177z" />
    <glyph glyph-name="arrowup" unicode="&#x2191;" horiz-adv-x="559" 
d="M217 595h-177l239 240l240 -240h-178v-740h-124v740z" />
    <glyph glyph-name="arrowright" unicode="&#x2192;" horiz-adv-x="1123" 
d="M835 248h-779v124h779v177l240 -239l-240 -239v177z" />
    <glyph glyph-name="arrowdown" unicode="&#x2193;" horiz-adv-x="559" 
d="M40 71h177v741h124v-741h178l-240 -239z" />
    <glyph glyph-name="uni2196" unicode="&#x2196;" horiz-adv-x="792" 
d="M166 516l-126 -125v338h339l-126 -125l539 -537l-88 -88z" />
    <glyph glyph-name="uni2197" unicode="&#x2197;" horiz-adv-x="792" 
d="M0 67l539 537l-126 125h339v-338l-126 125l-538 -537z" />
    <glyph glyph-name="uni2198" unicode="&#x2198;" horiz-adv-x="792" 
d="M40 325l126 -125l538 537l88 -88l-539 -537l126 -125h-339v338z" />
    <glyph glyph-name="uni2199" unicode="&#x2199;" horiz-adv-x="792" 
d="M539 112l-539 537l88 88l538 -537l126 125v-338h-339z" />
    <glyph glyph-name="uni21C4" unicode="&#x21c4;" horiz-adv-x="1142" 
d="M854 479h-779v124h779v177l240 -239l-240 -239v177zM48 185l239 239v-177h780v-124h-780v-177z" />
    <glyph glyph-name="partialdiff" unicode="&#x2202;" horiz-adv-x="578" 
d="M123.5 11q-50.5 27 -80.5 76t-30 112q0 75 35.5 138t97.5 100t138 37q33 0 60.5 -9t43.5 -25l8 5q-22 70 -79 115.5t-139 63.5l42 100q151 -34 230 -136t79 -261q0 -91 -31.5 -169t-98 -126t-165.5 -48q-60 0 -110.5 27zM318.5 120.5q32.5 19.5 51 53t18.5 73.5
q0 52 -30 81.5t-78 29.5q-41 0 -72.5 -20.5t-49 -54t-17.5 -70.5q0 -52 30.5 -82t76.5 -30q38 0 70.5 19.5z" />
    <glyph glyph-name="Delta" unicode="&#x2206;" horiz-adv-x="714" 
d="M340 716h155l138 -716h-683zM468 124l-73 425h-8l-219 -425h300z" />
    <glyph glyph-name="product" unicode="&#x220f;" horiz-adv-x="713" 
d="M143 716h550l-127 -716h-135l104 588h-280l-105 -588h-134z" />
    <glyph glyph-name="summation" unicode="&#x2211;" horiz-adv-x="540" 
d="M398 366l-228 -241h295l-23 -125h-457l23 133l231 235l-151 215l23 133h458l-22 -125h-299z" />
    <glyph glyph-name="minus" unicode="&#x2212;" horiz-adv-x="569" 
d="M50 329h457l-20 -116h-457z" />
    <glyph glyph-name="uni2215" unicode="&#x2215;" horiz-adv-x="480" 
d="M385 716h132l-424 -716h-131z" />
    </font>
</defs>
</svg>
